osu file format v14

[General]
AudioFilename: audio.mp3
AudioLeadIn: 0
PreviewTime: 30556
Countdown: 0
SampleSet: Soft
StackLeniency: 0.7
Mode: 0
LetterboxInBreaks: 0
WidescreenStoryboard: 1

[Editor]
DistanceSpacing: 1
BeatDivisor: 4
GridSize: 4
TimelineZoom: 1

[Metadata]
Title:Kaze no Tadoritsuku Basho - TV animation Ver. - (TV Size)
TitleUnicode:風の辿り着く場所 - TV animation Ver. - (TV Size)
Artist:Ayana
ArtistUnicode:彩菜
Creator:rosario wknd
Version:Easy
Source:Kanon
Tags:2006 remake anime japanese pop jpop j-pop visual novel key visualarts カノン 京都アニメーション Kyoto animation kyoani
BeatmapID:3281308
BeatmapSetID:1606952

[Difficulty]
HPDrainRate:2
CircleSize:3.8
OverallDifficulty:3
ApproachRate:4
SliderMultiplier:0.799999999999999
SliderTickRate:1

[Events]
//Background and Video events
0,0,"kanonbg2.jpg",0,0
Video,-250,"video.mp4"
//Break Periods
//Storyboard Layer 0 (Background)
//Storyboard Layer 1 (Fail)
//Storyboard Layer 2 (Pass)
//Storyboard Layer 3 (Foreground)
//Storyboard Layer 4 (Overlay)
//Storyboard Sound Samples

[TimingPoints]
1281,461.538461538462,4,2,1,50,1,0
14204,-100,4,2,1,60,0,0
16050,-100,4,2,1,65,0,0
30588,-100,4,2,1,80,0,0
58511,-100,4,2,1,70,0,0
60357,-100,4,2,1,85,0,1
88050,-100,4,2,1,60,0,0
88511,-100,4,2,1,40,0,0
88973,-100,4,2,1,30,0,0
89434,-100,4,2,1,20,0,0

[Colours]
Combo1 : 192,66,12
Combo2 : 255,146,36
Combo3 : 0,85,170
Combo4 : 255,255,0

[HitObjects]
25,45,1281,6,0,L|113:70,1,79.9999999999999,4|10,3:0|0:0,0:0:0:0:
155,126,2204,2,0,P|205:117|217:91,1,79.9999999999999,2|10,3:0|0:0,0:0:0:0:
270,35,3127,2,0,B|303:46|333:53|333:53|355:87|355:87|383:94|406:102,1,160,2|0,3:0|3:0,0:0:0:0:
453,167,4511,1,10,0:0:0:0:
400,227,4973,6,0,B|421:294|421:294|437:345|388:368,1,160,2|0,3:0|3:0,0:0:0:0:
326,317,6357,1,10,0:0:0:0:
254,353,6819,2,0,L|169:332,2,79.9999999999999,0|8|0,3:0|0:0|3:0,0:0:0:0:
326,317,8204,1,10,0:0:0:0:
363,246,8665,6,0,B|345:200|337:149|337:149|302:150|277:135,1,160,4|0,3:0|3:0,0:0:0:0:
225,78,10050,1,8,0:0:0:0:
154,115,10511,2,0,P|114:102|60:93,1,79.9999999999999,0|10,3:0|0:0,0:0:0:0:
23,154,11434,1,2,3:0:0:0:
75,214,11896,1,10,0:0:0:0:
33,282,12357,6,0,P|31:351|116:368,1,160,2|0,3:0|3:0,0:0:0:0:
159,312,13742,1,10,0:0:0:0:
228,351,14204,6,0,B|269:367|269:367|309:336,1,79.9999999999999,2|2,3:0|3:0,0:0:0:0:
340,277,15127,1,6,3:0:0:0:
291,213,15588,1,2,3:0:0:0:
343,152,16050,6,0,P|331:107|314:61,1,79.9999999999999,6|10,3:0|0:0,0:0:0:0:
372,15,16973,2,0,P|420:13|445:42,1,79.9999999999999,2|10,3:0|0:0,0:0:0:0:
482,102,17896,2,0,P|465:149|456:189,2,79.9999999999999,2|8|0,3:0|0:0|3:0,0:0:0:0:
441,33,19281,1,10,0:0:0:0:
376,79,19742,6,0,B|328:78|300:103|300:103|248:94|254:36,1,160,2|0,3:0|3:0,0:0:0:0:
186,5,21127,1,10,0:0:0:0:
125,56,21588,2,0,P|114:96|135:130,1,79.9999999999999,0|8,3:0|0:0,0:0:0:0:
203,163,22511,1,0,3:0:0:0:
162,232,22973,1,10,0:0:0:0:
83,217,23434,6,0,P|25:208|8:295,1,160,4|0,3:0|3:0,0:0:0:0:
59,348,24819,1,8,0:0:0:0:
129,309,25281,2,0,L|215:331,1,79.9999999999999,0|10,3:0|0:0,0:0:0:0:
270,376,26204,1,2,3:0:0:0:
328,321,26665,1,8,0:0:0:0:
279,257,27127,6,0,P|270:212|256:166,2,79.9999999999999,0|8|0,3:0|0:0|3:0,0:0:0:0:
328,321,28511,1,10,0:0:0:0:
390,270,28973,2,0,B|377:185|418:181|471:180|458:80,1,200,0|8,3:0|0:0,0:0:0:0:
401,40,30588,6,0,P|330:34|304:77,1,120,6|10,3:0|0:0,0:0:0:0:
272,141,31742,1,2,3:0:0:0:
330,195,32204,1,8,0:0:0:0:
282,259,32665,2,0,P|246:246|191:232,1,79.9999999999999,0|10,3:0|0:0,0:0:0:0:
169,163,33588,1,2,3:0:0:0:
99,64,34281,6,0,P|27:68|11:115,1,120,2|10,3:0|0:0,0:0:0:0:
49,174,35434,2,0,P|61:213|68:259,2,79.9999999999999,0|8|0,3:0|0:0|3:0,0:0:0:0:
10,104,36819,1,10,0:0:0:0:
68,49,37281,1,2,3:0:0:0:
173,106,37973,6,0,P|233:94|303:82,1,120,6|10,3:0|0:0,0:0:0:0:
339,20,39127,1,2,3:0:0:0:
399,71,39588,1,10,0:0:0:0:
354,137,40050,2,0,B|335:174|335:174|368:217,1,79.9999999999999,0|10,3:0|0:0,0:0:0:0:
416,260,40973,1,0,3:0:0:0:
320,333,41665,6,0,B|246:309|246:309|236:328|206:349,1,120,2|10,3:0|0:0,0:0:0:0:
142,368,42819,2,0,P|104:355|56:347,1,79.9999999999999,2|10,3:0|0:0,0:0:0:0:
19,282,43742,1,0,3:0:0:0:
75,224,44204,1,8,0:0:0:0:
31,157,44665,1,0,3:0:0:0:
114,70,45357,6,0,P|177:91|178:155,1,120,6|10,3:0|0:0,0:0:0:0:
225,206,46511,2,0,P|264:195|308:189,1,79.9999999999999,2|8,3:0|0:0,0:0:0:0:
358,131,47434,1,0,3:0:0:0:
421,179,47896,2,0,P|469:183|491:155,1,79.9999999999999,10|2,0:0|3:0,0:0:0:0:
413,68,49050,6,0,P|346:52|292:35,1,120,2|10,3:0|0:0,0:0:0:0:
228,77,50204,1,0,3:0:0:0:
152,50,50665,2,0,P|111:60|72:66,2,79.9999999999999,8|0|10,0:0|3:0|0:0,0:0:0:0:
227,76,52050,1,2,3:0:0:0:
161,176,52742,6,0,B|152:210|128:240|128:240|147:260|159:290,1,120,6|10,3:0|0:0,0:0:0:0:
211,335,53896,1,2,3:0:0:0:
274,286,54357,1,10,0:0:0:0:
344,323,54819,2,0,P|391:317|414:286,1,79.9999999999999,0|10,3:0|0:0,0:0:0:0:
411,213,55742,1,0,3:0:0:0:
322,131,56434,6,0,P|334:66|394:61,1,120,2|10,3:0|0:0,0:0:0:0:
454,82,57588,2,0,P|466:124|481:163,1,79.9999999999999,2|10,3:0|0:0,0:0:0:0:
421,213,58511,1,0,3:0:0:0:
466,279,58973,1,0,3:0:0:0:
419,344,59434,1,4,3:0:0:0:
342,322,59896,1,2,3:0:0:0:
336,242,60357,6,0,B|306:249|274:250|274:250|244:286|244:286|218:288|190:297,1,160,4|0,3:0|3:0,0:0:0:0:
135,350,61742,1,10,0:0:0:0:
65,310,62204,2,0,P|46:237|39:217,1,79.9999999999999,0|8,3:0|0:0,0:0:0:0:
72,157,63127,2,0,P|122:158|143:189,1,79.9999999999999,0|10,3:0|0:0,0:0:0:0:
202,227,64050,6,0,P|271:210|293:206,2,79.9999999999999,0|8|2,3:0|0:0|3:0,0:0:0:0:
139,178,65434,1,10,0:0:0:0:
185,112,65896,2,0,P|172:75|160:27,1,79.9999999999999,0|10,3:0|0:0,0:0:0:0:
233,0,66819,1,0,3:0:0:0:
295,49,67281,1,8,0:0:0:0:
369,20,67742,6,0,B|456:53|456:53|458:97|476:131,1,160,6|0,3:0|3:0,0:0:0:0:
496,194,69127,1,10,0:0:0:0:
444,255,69588,2,0,P|380:237|352:231,1,79.9999999999999,0|8,3:0|0:0,0:0:0:0:
294,268,70511,2,0,P|241:247|240:216,1,79.9999999999999,0|8,3:0|0:0,0:0:0:0:
280,162,71434,5,0,3:0:0:0:
218,110,71896,1,8,0:0:0:0:
147,146,72357,2,0,P|105:134|59:125,1,79.9999999999999,0|8,3:0|0:0,0:0:0:0:
11,70,73281,2,0,B|-5:31|-5:31|24:-4,2,79.9999999999999,0|0|4,3:0|3:0|3:0,0:0:0:0:
69,126,74665,1,0,3:0:0:0:
15,185,75127,6,0,B|-4:257|47:257|71:278|64:344,1,160,4|0,3:0|3:0,0:0:0:0:
130,374,76511,1,10,0:0:0:0:
195,327,76973,2,0,P|245:341|258:365,2,79.9999999999999,0|8|0,3:0|0:0|3:0,0:0:0:0:
130,374,78357,1,10,0:0:0:0:
66,325,78819,6,0,P|51:268|42:238,1,79.9999999999999,0|8,3:0|0:0,0:0:0:0:
86,179,79742,2,0,P|125:176|154:210,1,79.9999999999999,2|10,3:0|0:0,0:0:0:0:
213,254,80665,1,0,3:0:0:0:
279,209,81127,1,10,0:0:0:0:
351,241,81588,2,0,P|414:228|439:225,1,79.9999999999999,0|8,3:0|0:0,0:0:0:0:
460,152,82511,6,0,B|465:102|494:77|494:77|473:34|420:35,1,160,6|0,3:0|3:0,0:0:0:0:
367,79,83896,1,10,0:0:0:0:
297,39,84357,2,0,P|260:49|211:58,1,79.9999999999999,0|8,3:0|0:0,0:0:0:0:
170,120,85281,1,0,3:0:0:0:
225,177,85742,1,8,0:0:0:0:
159,223,86204,6,0,P|104:209|78:204,1,79.9999999999999,0|8,3:0|0:0,0:0:0:0:
25,262,87127,2,0,B|4:302|4:302|35:338,1,79.9999999999999,2|10,3:0|0:0,0:0:0:0:
100,358,88050,2,0,B|133:346|163:345|163:345|200:368|200:368|235:363|266:352,1,160,4|4,3:0|3:0,0:0:0:0:
299,295,89434,1,8,0:0:0:0:
