osu file format v14

[General]
AudioFilename: audio.mp3
AudioLeadIn: 0
PreviewTime: -1
Countdown: 0
SampleSet: Soft
StackLeniency: 0.8
Mode: 0
LetterboxInBreaks: 0
WidescreenStoryboard: 1

[Editor]
Bookmarks: 2587,21734,32295,42488,52644,74510,84797,94848,110100,131662,142365,152556,161650,171532,181610,193081,218573,230982,241540,251513,285655,296548,320532,340211,360875,381517,406263,422755,433421,443754,455039,468407,479097,489044,499736,512412,522067,533720,543955,565757,575871,581750,586975,592425,597393,602092,607986,618402,629690,639819,651091,661727,674982,688392,706936,717725
DistanceSpacing: 1.1
BeatDivisor: 4
GridSize: 4
TimelineZoom: 1

[Metadata]
Title:Nico Nico Douga Ura Nanmin Sai
TitleUnicode:ニコニコ動画裏難民祭
Artist:Ayameen
ArtistUnicode:Ayameen
Creator:TenshiRachel
Version:Party!!!
Source:Nico nico douga
Tags:blend haiyore nyaruko otome shintou aria rainbow art club shining sky teekyuu keijo hitotose clannad toradora gekkan shoujou nozaki mayoi overrun lucky star haruhi suzumiya kill me baby shangri la aho girl new game minami etotama neko hajimete season gal shoot clover kakumation himouto umaru chan eromanga hayate higurashi oreimo hanasaku iroha madoka magica urara meirocho hinako note ichigo mashimaro mikakunin de shinkoukei koutora fantastic dreamer future soramimi cake starting now happy clover shinryaku Anime real world nichijou acchi sparkling daydream
BeatmapID:1932036
BeatmapSetID:924904

[Difficulty]
HPDrainRate:5.5
CircleSize:4
OverallDifficulty:7
ApproachRate:9
SliderMultiplier:1.7
SliderTickRate:1

[Events]
//Background and Video events
0,0,"maxresdefault.jpg",0,0
//Break Periods
2,13039,31857
2,403609,416422
//Storyboard Layer 0 (Background)
//Storyboard Layer 1 (Fail)
//Storyboard Layer 2 (Pass)
//Storyboard Layer 3 (Foreground)
//Storyboard Sound Samples

[TimingPoints]
2606,312.5,4,2,17,70,1,0
12527,-133.333333333333,4,2,17,50,0,0
21734,312.5,4,2,0,100,1,0
32295,312.5,4,2,0,100,1,0
32607,-100,4,2,1,70,0,0
42488,312.5,4,2,0,100,1,0
42566,-100,4,1,1,40,0,0
42644,-100,4,2,1,60,0,0
52582,312.5,4,1,0,60,1,0
74510,312.5,4,2,0,100,1,0
74666,-111.111111111111,4,2,0,90,0,0
75056,-100,4,2,0,95,0,0
85106,309.278350515464,4,2,1,60,1,0
92374,-100,4,2,1,50,0,0
94848,312.5,4,2,0,100,1,0
95082,-100,4,2,1,80,0,0
110100,314.13612565445,4,1,0,70,1,0
131662,312.5,4,2,1,60,1,0
131662,312.5,4,2,0,100,1,0
132599,-83.3333333333333,4,2,1,70,0,0
133771,-83.3333333333333,4,2,1,30,0,0
133849,-83.3333333333333,4,2,1,70,0,0
135021,-83.3333333333333,4,2,1,30,0,0
135099,-83.3333333333333,4,2,1,70,0,0
142365,309.278350515464,4,2,10,60,1,0
152592,314.13612565445,4,2,0,100,1,0
161650,310.880829015544,4,2,1,70,1,0
161650,-90.9090909090909,4,2,1,70,0,0
171598,310.880829015544,4,2,1,80,1,0
175639,-100,4,1,1,75,0,0
176572,-100,4,2,1,80,0,0
180613,-100,4,1,1,75,0,0
181610,314.13612565445,4,2,1,80,1,0
193081,310.880829015544,4,2,0,100,1,0
193236,-133.333333333333,4,2,2,70,0,0
193547,-100,4,2,2,65,0,0
216474,-200,4,2,2,70,0,0
219029,312.5,4,2,2,70,1,0
226529,-100,4,2,2,80,0,0
227622,-100,4,2,2,65,0,0
227935,-100,4,2,2,80,0,0
229341,-100,4,2,2,85,0,0
229810,-100,4,2,2,90,0,0
230122,-100,4,2,2,80,0,0
231497,310.880829015544,4,2,1,78,1,0
235305,-66.6666666666667,4,2,1,78,0,0
236548,-100,4,2,1,78,0,0
241445,315.789473684211,4,2,1,50,1,0
251513,312.5,4,2,1,60,1,0
251513,-66.6666666666667,4,2,1,60,0,0
271513,-66.6666666666667,4,2,1,50,0,0
284013,-83.3333333333333,4,2,1,40,0,0
286540,312.5,4,2,2,60,1,0
296548,312.5,4,1,1,50,1,0
305923,-100,4,1,2,50,0,0
306548,-100,4,1,1,30,0,0
306860,-100,4,1,1,50,0,0
311938,-100,4,1,1,60,0,0
313266,-500,4,1,1,60,0,0
320545,625,4,1,1,60,1,0
340308,631.578947368421,4,2,1,65,1,0
340308,-66.6666666666667,4,2,1,65,0,0
359571,-66.6666666666667,4,2,0,65,0,0
361324,618.556701030928,4,2,1,100,1,0
381535,625,4,2,0,100,1,0
381535,-100,4,2,1,85,0,0
406263,314.13612565445,4,2,0,100,1,0
417022,-100,4,1,1,85,0,0
423074,329.67032967033,4,1,0,80,1,0
433421,333.333333333333,4,1,0,90,1,0
444385,333.333333333333,4,2,1,60,1,0
444635,-100,4,2,1,5,0,0
444718,-76.9230769230769,4,2,1,50,0,0
444885,-76.9230769230769,4,2,1,75,0,0
454218,-90.9090909090909,4,2,1,45,0,0
454551,-90.9090909090909,4,2,1,55,0,0
455074,333.333333333333,4,2,1,80,1,0
455074,-76.9230769230769,4,2,1,80,0,0
465074,-100,4,2,1,80,0,0
468407,331.491712707182,4,2,1,80,1,0
479097,331.491712707182,4,2,1,80,1,0
479097,-90.9090909090909,4,2,1,80,0,0
488378,333.333333333333,4,2,0,80,1,0
499746,331.491712707182,4,2,0,100,1,0
499911,-111.111111111111,4,2,1,80,0,0
500077,-166.666666666667,4,2,1,80,0,0
500408,-83.3333333333333,4,2,1,80,0,0
508033,-100,4,2,1,80,0,0
508364,-166.666666666667,4,2,1,60,0,0
510353,-125,4,2,1,80,0,0
510850,-100,4,2,1,80,0,0
512431,331.491712707182,4,2,0,100,1,0
513756,-76.9230769230769,4,2,0,65,0,0
517734,350.877192982456,4,2,0,65,1,0
517734,-125,4,2,0,65,0,0
520433,331.491712707182,4,2,0,65,1,0
520433,-125,4,2,0,65,0,0
522067,333.333333333333,4,2,2,100,1,0
522067,-83.3333333333333,4,2,2,90,0,0
533720,333.333333333333,4,2,1,70,1,0
544369,333.333333333333,4,2,0,100,1,0
544369,-166.666666666667,4,2,2,95,0,0
549702,-133.333333333333,4,2,2,95,0,0
550452,-133.333333333333,4,2,2,5,0,0
550535,-133.333333333333,4,2,2,95,0,0
552369,-125,4,2,2,91,0,0
553535,-90.9090909090909,4,2,2,91,0,0
555035,-100,4,2,2,91,0,0
563035,-90.9090909090909,4,2,2,91,0,0
564202,-83.3333333333333,4,2,2,91,0,0
565757,331.491712707182,4,1,1,70,1,0
576115,331.491712707182,4,2,1,70,1,0
581750,-100,4,1,1,80,0,0
587032,331.491712707182,4,2,1,50,1,0
592335,333.333333333333,4,2,1,60,1,0
597393,333.333333333333,4,2,1,70,1,0
602092,333.333333333333,4,2,1,80,1,0
608092,333.333333333333,4,2,1,70,1,0
618440,331.491712707182,4,2,1,80,1,0
629690,329.67032967033,4,2,1,70,1,0
639744,333.333333333333,4,2,1,70,1,0
640410,-83.3333333333333,4,2,1,70,0,0
651091,333.333333333333,4,2,1,80,1,0
661727,333.333333333333,4,2,1,60,1,0
664393,-133.333333333333,4,2,1,60,0,0
664727,-100,4,2,1,60,0,0
669727,-133.333333333333,4,2,1,60,0,0
670060,-100,4,2,1,60,0,0
675065,333.333333333333,4,2,1,90,1,0
675065,-200,4,2,1,90,0,0
679731,-100,4,2,1,90,0,0
688392,333.333333333333,4,2,1,65,1,0
705558,-100,4,1,1,65,0,0
706392,-66.6666666666667,4,1,1,65,0,0
707102,331.491712707182,4,2,0,100,1,0
707102,-83.3333333333333,4,2,1,65,0,0
717725,333.333333333333,4,2,1,70,1,0
717725,-83.3333333333333,4,2,1,80,0,0
731058,-100,4,2,1,80,0,0
737725,-83.3333333333333,4,2,1,70,0,0
739058,-100,4,2,1,60,0,0

[HitObjects]
150,259,2604,5,0,0:0:0:0:
66,167,2762,1,0,0:0:0:0:
33,353,2918,1,0,0:0:0:0:
146,198,3074,1,0,0:0:0:0:
150,202,3387,5,0,0:0:0:0:
33,256,3543,1,0,0:0:0:0:
232,351,3699,2,0,L|212:171,1,170
252,23,4168,5,0,0:0:0:0:
301,135,4324,1,0,0:0:0:0:
305,139,4637,1,0,0:0:0:0:
149,97,4793,5,0,0:0:0:0:
124,90,4871,1,0,0:0:0:0:
99,83,4949,1,0,0:0:0:0:
8,234,5106,6,0,P|52:228|84:196,1,85
320,41,5418,2,0,P|288:49|256:89,1,85
191,279,5731,2,0,P|220:240|223:195,1,85
8,65,6043,2,0,P|27:111|68:137,1,85
126,221,6356,5,0,0:0:0:0:
248,159,6512,1,0,0:0:0:0:
113,227,6668,1,0,0:0:0:0:
258,170,6824,1,0,0:0:0:0:
101,232,6981,5,0,0:0:0:0:
295,312,7137,1,0,0:0:0:0:
91,237,7293,1,0,0:0:0:0:
292,299,7449,1,0,0:0:0:0:
197,223,7606,5,0,0:0:0:0:
232,373,7762,1,0,0:0:0:0:
276,156,7918,1,0,0:0:0:0:
161,308,8074,1,0,0:0:0:0:
165,312,8387,5,0,0:0:0:0:
305,252,8543,1,0,0:0:0:0:
156,143,8699,2,0,L|164:239,1,85
225,366,9012,5,0,0:0:0:0:
228,369,9090,1,0,0:0:0:0:
232,373,9168,1,0,0:0:0:0:
376,284,9324,2,0,P|336:268|284:284,1,85
141,342,9637,5,0,0:0:0:0:
111,356,9715,1,0,0:0:0:0:
78,353,9793,1,0,0:0:0:0:
46,342,9871,1,0,0:0:0:0:
23,317,9949,1,0,0:0:0:0:
9,286,10027,1,0,0:0:0:0:
6,252,10106,6,0,P|37:218|77:210,1,85
290,348,10417,2,0,P|256:320|244:264,1,85
41,101,10730,2,0,P|81:113|109:161,1,85
115,376,11042,2,0,P|124:333|155:304,1,85
340,174,11355,6,0,P|288:194|244:178,1,85
169,50,11667,1,0,0:0:0:0:
199,36,11745,1,0,0:0:0:0:
232,39,11823,1,0,0:0:0:0:
264,50,11902,1,0,0:0:0:0:
287,75,11980,6,0,L|275:115,3,42.5
213,167,12214,2,0,L|229:207,3,42.5
197,291,12527,2,0,L|341:259,1,127.500004863739
72,264,32607,6,0,L|72:360,1,85
184,352,32920,1,0,0:0:0:0:
272,284,33076,1,0,0:0:0:0:
352,348,33232,1,0,0:0:0:0:
448,352,33388,5,0,0:0:0:0:
448,352,33466,1,0,0:0:0:0:
448,352,33545,2,0,L|448:260,1,85
488,128,33857,2,0,P|452:156|432:192,1,85
348,152,34170,1,0,0:0:0:0:
256,116,34326,1,0,0:0:0:0:
168,152,34482,1,0,0:0:0:0:
68,176,34638,2,0,P|52:140|12:116,1,85
40,288,34951,5,0,0:0:0:0:
40,288,35029,1,0,0:0:0:0:
40,288,35107,2,0,B|92:288|92:288|128:312|128:312|208:312,1,170
256,236,35576,1,0,0:0:0:0:
300,312,35732,2,0,B|352:312|352:312|388:288|388:288|472:288,1,170
500,188,36201,1,0,0:0:0:0:
492,104,36357,5,0,0:0:0:0:
376,104,36513,1,0,0:0:0:0:
436,36,36670,1,0,0:0:0:0:
320,36,36826,1,0,0:0:0:0:
264,100,36982,2,0,P|224:96|176:120,1,85
196,276,37295,2,0,P|236:288|284:264,1,85
248,192,37607,5,0,0:0:0:0:
352,196,37763,1,0,0:0:0:0:
352,196,37920,2,0,L|444:196,2,85
248,192,38388,1,0,0:0:0:0:
144,192,38545,2,0,L|56:192,1,85
48,296,38857,6,0,B|120:296|120:296|208:360,1,170
256,268,39326,1,0,0:0:0:0:
308,360,39482,2,0,B|360:320|360:320|476:320,1,170
500,192,39951,1,0,0:0:0:0:
392,44,40107,5,0,0:0:0:0:
420,136,40263,1,0,0:0:0:0:
332,168,40420,1,0,0:0:0:0:
300,80,40576,1,0,0:0:0:0:
212,80,40732,5,0,0:0:0:0:
180,168,40888,1,0,0:0:0:0:
92,136,41045,1,0,0:0:0:0:
120,44,41201,1,0,0:0:0:0:
256,144,41357,6,0,P|256:200|256:244,1,85
395,346,41670,2,0,P|368:304|344:268,1,85
164,264,41982,2,0,P|148:296|120:344,1,85
496,268,42566,6,0,L|468:180,1,85
396,104,42878,1,0,0:0:0:0:
488,48,43034,1,0,0:0:0:0:
392,116,43191,2,0,P|336:172|274:142,1,127.5
268,136,43503,2,0,L|200:68,1,85
312,172,43816,2,0,P|276:224|200:200,1,127.5
196,188,44128,2,0,L|132:128,1,85
252,112,44441,2,0,L|252:264,1,127.5
87,356,44988,6,0,B|66:319|66:319|38:299|1:299,1,85
28,302,45300,1,0,0:0:0:0:
64,212,45456,1,0,0:0:0:0:
28,124,45613,1,0,0:0:0:0:
76,36,45769,1,0,0:0:0:0:
176,92,45925,2,0,P|220:84|264:100,1,85
404,44,46238,6,0,P|372:48|328:80,1,85
284,276,46550,2,0,P|316:208|288:108,1,170
284,44,47019,1,0,0:0:0:0:
256,192,47175,6,0,P|323:192|432:192,1,170
476,264,47644,1,0,0:0:0:0:
420,324,47800,2,0,P|392:289|384:248,1,85
476,168,48113,2,0,P|484:124|472:84,1,85
400,112,48425,2,0,P|376:60|360:24,1,85
296,88,48738,2,0,B|236:56|176:56|120:96,1,170
120,156,49206,5,0,0:0:0:0:
32,80,49363,1,0,0:0:0:0:
128,192,49519,1,0,0:0:0:0:
4,168,49675,1,0,0:0:0:0:
136,228,49831,6,0,B|156:288|124:312|124:312|160:296|212:328,1,170
336,320,50300,2,0,P|396:276|412:184,1,170
324,240,50769,1,0,0:0:0:0:
348,152,50925,2,0,P|444:184|504:132,1,170
496,60,51394,5,0,0:0:0:0:
404,8,51550,1,0,0:0:0:0:
312,60,51706,1,0,0:0:0:0:
348,152,51863,1,0,0:0:0:0:
360,268,52019,2,0,P|360:308|360:356,1,85
376,184,52566,6,0,P|400:160|416:108,1,85
320,60,52894,1,0,0:0:0:0:
208,60,53050,1,0,0:0:0:0:
104,124,53207,2,0,P|108:160|136:208,1,85
184,280,53519,5,0,0:0:0:0:
288,348,53675,1,0,0:0:0:0:
272,224,53832,1,0,0:0:0:0:
376,296,53988,1,0,0:0:0:0:
488,280,54144,2,0,P|500:236|488:196,1,85
420,136,54457,1,0,0:0:0:0:
332,56,54613,5,0,0:0:0:0:
236,136,54769,1,0,0:0:0:0:
332,56,54925,1,0,0:0:0:0:
200,48,55082,6,0,P|120:84|60:168,1,170
144,216,55550,1,0,0:0:0:0:
60,280,55707,2,0,P|92:308|136:316,1,85
240,320,56019,5,0,0:0:0:0:
348,284,56175,1,0,0:0:0:0:
392,180,56332,2,0,B|424:140|392:100,1,85
120,124,56644,2,0,P|92:162|100:212,1,85
256,76,56957,2,0,B|256:140|224:140|256:204|256:248,1,170
96,96,57582,6,0,L|96:188,1,85
96,264,57894,2,0,L|188:264,1,85
268,262,58207,1,0,0:0:0:0:
379,262,58363,1,0,0:0:0:0:
381,162,58519,2,0,L|380:68,1,85
272,60,58832,2,0,L|176:60,2,85
280,168,59300,2,0,P|253:208|196:216,1,85
128,136,59613,5,0,0:0:0:0:
36,208,59769,1,0,0:0:0:0:
124,284,59925,1,0,0:0:0:0:
232,312,60082,2,0,P|228:272|252:228,1,85
296,76,60394,2,0,P|260:116|256:156,1,85
380,160,60707,2,0,P|352:188|304:200,1,85
124,160,61019,2,0,P|164:184|208:196,1,85
256,252,61332,5,0,0:0:0:0:
372,296,61488,1,0,0:0:0:0:
480,240,61644,1,0,0:0:0:0:
480,112,61800,1,0,0:0:0:0:
368,48,61957,1,0,0:0:0:0:
256,104,62113,1,0,0:0:0:0:
152,48,62269,1,0,0:0:0:0:
56,116,62425,1,0,0:0:0:0:
104,236,62582,6,0,P|152:252|188:240,1,85
276,200,62894,2,0,P|320:192|356:208,1,85
396,300,63207,2,0,P|360:320|308:312,1,85
212,292,63519,2,0,P|224:256|240:212,1,85
192,92,63832,6,0,B|192:140|192:140|216:176,1,85
324,96,64144,2,0,B|324:144|324:144|296:172,1,85
380,272,64457,1,0,0:0:0:0:
256,300,64613,1,0,0:0:0:0:
124,268,64769,2,0,P|93:234|88:196,1,85
200,72,65082,6,0,L|100:72,1,85
312,72,65394,2,0,L|408:72,1,85
384,180,65707,5,0,0:0:0:0:
256,196,65863,1,0,0:0:0:0:
132,180,66019,1,0,0:0:0:0:
256,360,66332,5,0,0:0:0:0:
204,252,66488,1,0,0:0:0:0:
292,176,66644,1,0,0:0:0:0:
224,96,66800,1,0,0:0:0:0:
312,8,66957,1,0,0:0:0:0:
224,96,67113,1,0,0:0:0:0:
292,176,67269,1,0,0:0:0:0:
204,252,67425,1,0,0:0:0:0:
108,192,67582,6,0,B|76:216|76:216|32:196,1,85
128,108,67894,2,0,B|164:88|164:88|204:112,1,85
280,28,68207,2,0,B|328:112|276:188,1,170
160,192,68832,5,0,0:0:0:0:
360,192,69144,1,0,0:0:0:0:
256,32,69457,1,0,0:0:0:0:
256,152,69613,1,0,0:0:0:0:
256,268,69769,1,0,0:0:0:0:
468,156,70082,2,0,P|428:148|384:164,1,85
392,240,70394,2,0,P|436:248|476:228,1,85
372,192,70707,1,0,0:0:0:0:
148,192,71019,1,0,0:0:0:0:
180,332,71332,6,0,P|224:340|272:316,1,85
256,224,71644,2,0,P|296:216|344:232,1,85
432,216,71957,2,0,P|444:176|436:132,1,85
328,140,72269,2,0,P|284:136|236:148,1,85
256,192,72738,12,0,74457,0:0:0:0:
452,136,74666,6,0,L|488:168,3,38.2499988327027
376,244,75056,2,0,P|340:252|296:228,1,85
196,128,75369,2,0,P|236:120|280:136,1,85
172,288,75681,5,0,0:0:0:0:
232,192,75838,1,0,0:0:0:0:
312,336,75994,1,0,0:0:0:0:
304,236,76150,1,0,0:0:0:0:
216,356,76306,6,0,B|172:352|172:352|124:320,1,85
151,212,76619,2,0,B|191:192|191:192|233:192,1,85
36,288,76931,5,0,0:0:0:0:
8,156,77088,1,0,0:0:0:0:
156,216,77244,1,0,0:0:0:0:
36,288,77400,1,0,0:0:0:0:
128,136,77556,2,0,B|196:88|236:164|296:104,1,170,0|0,0:0|0:0,0:1:0:0:
396,76,78025,5,0,0:0:0:0:
444,204,78181,2,0,B|368:280|288:200,1,170
396,92,78650,1,0,0:0:0:0:
240,120,78806,2,0,B|212:136|212:136|148:112,1,85
40,32,79119,1,0,0:0:0:0:
56,208,79275,2,0,P|80:172|64:124,1,85
8,272,79588,5,0,0:0:0:0:
120,344,79744,1,0,0:0:0:0:
12,288,79900,1,0,0:0:0:0:
216,348,80056,6,0,B|232:356|256:340|256:340|284:308,1,85
464,348,80369,2,0,B|448:356|424:340|424:340|392:308,1,85
288,164,80681,1,0,0:0:0:0:
412,160,80838,1,0,0:0:0:0:
288,260,80994,1,0,0:0:0:0:
412,256,81150,1,0,0:0:0:0:
344,88,81306,6,0,P|300:76|252:96,1,85
212,239,81619,2,0,P|249:264|304:247,1,85
388,160,81931,1,0,0:0:0:0:
480,320,82088,1,0,0:0:0:0:
476,164,82244,1,0,0:0:0:0:
384,312,82400,1,0,0:0:0:0:
288,192,82556,6,0,B|268:184|256:184|256:184|204:224|116:184,1,170
32,112,83025,1,0,0:0:0:0:
120,44,83181,2,0,B|140:36|152:36|152:36|204:76|288:28,1,170
408,48,83650,1,0,0:0:0:0:
352,208,83806,5,0,0:0:0:0:
408,72,83963,1,0,0:0:0:0:
464,220,84119,1,0,0:0:0:0:
408,92,84275,1,0,0:0:0:0:
332,224,84431,6,0,L|344:264,3,42.5
100,192,85106,6,0,P|88:152|104:104,1,85
240,264,85415,2,0,P|220:208|188:176,1,85
148,272,85724,1,0,0:0:0:0:
324,344,85879,1,0,0:0:0:0:
212,364,86033,1,0,0:0:0:0:
336,236,86188,1,0,0:0:0:0:
336,236,86343,6,0,P|372:228|416:188,1,85
340,120,86652,2,0,P|300:116|256:84,1,85
168,52,86961,1,0,0:0:0:0:
48,104,87116,1,0,0:0:0:0:
96,220,87270,1,0,0:0:0:0:
212,172,87425,1,0,0:0:0:0:
212,172,87580,6,0,L|220:264,1,85
336,240,87889,2,0,L|324:152,1,85
212,172,88198,2,0,P|140:148|96:64,2,170
296,108,88971,1,0,0:0:0:0:
212,172,89126,1,0,0:0:0:0:
396,140,89281,1,0,0:0:0:0:
440,256,89435,6,0,L|408:292,3,42.5
384,316,89745,1,0,0:0:0:0:
352,340,89822,1,0,0:0:0:0:
312,352,89899,1,0,0:0:0:0:
276,344,89977,1,0,0:0:0:0:
240,336,90054,6,0,P|184:272|92:272,1,170
152,352,90518,1,0,0:0:0:0:
152,352,90673,2,0,L|196:184,1,170
244,64,91136,1,0,0:0:0:0:
312,148,91291,6,0,P|356:176|396:172,2,85
304,244,91755,1,0,0:0:0:0:
304,244,91910,2,0,P|268:280|212:288,1,85
48,244,92219,2,0,P|80:204|124:184,1,85
152,168,92451,1,0,0:0:0:0:
196,152,92528,6,0,P|280:128|360:64,1,170
464,44,92992,1,0,0:0:0:0:
448,152,93147,1,0,0:0:0:0:
488,256,93301,1,0,0:0:0:0:
460,284,93379,1,0,0:0:0:0:
424,296,93456,1,0,0:0:0:0:
308,296,93611,6,0,P|232:272|184:192,1,170
180,164,93997,2,0,P|144:84|60:72,1,170
48,96,94384,2,0,P|28:144|44:184,1,85
48,208,94616,1,0,0:0:0:0:
68,244,94693,2,0,L|88:284,2,42.5
128,104,95082,6,0,P|160:64|208:48,1,85
344,48,95394,1,0,0:0:0:0:
400,176,95551,2,0,P|344:224|256:192,1,170
72,256,96019,2,0,L|160:240,1,85
264,272,96332,5,0,0:0:0:0:
376,208,96488,1,0,0:0:0:0:
264,272,96644,1,0,0:0:0:0:
336,128,96801,2,0,B|392:104|464:144|464:200,1,170
424,272,97269,2,0,P|416:320|432:360,1,85
320,368,97582,5,0,0:0:0:0:
220,220,97738,1,0,0:0:0:0:
204,212,97816,1,0,0:0:0:0:
188,204,97894,2,0,B|116:188|68:268|124:324,1,170
200,312,98363,1,0,0:0:0:0:
216,320,98441,1,0,0:0:0:0:
232,328,98519,2,0,P|276:316|316:280,1,85
344,104,98832,6,0,P|296:120|256:160,1,85
408,256,99144,1,0,0:0:0:0:
456,160,99301,1,0,0:0:0:0:
408,64,99457,1,0,0:0:0:0:
304,32,99613,2,0,B|232:40|184:72|140:136,1,170
126,145,100004,1,0,0:0:0:0:
104,168,100082,6,0,P|70:217|53:268,1,85
56,344,100394,1,0,0:0:0:0:
136,264,100551,2,0,P|208:208|304:208,1,170
336,312,101019,2,0,P|288:336|248:328,1,85
384,160,101332,2,0,P|424:160|472:176,1,85
504,264,101644,1,0,0:0:0:0:
432,336,101801,1,0,0:0:0:0:
408,240,101957,5,0,0:0:0:0:
496,328,102113,1,0,0:0:0:0:
368,352,102269,1,0,0:0:0:0:
265,297,102426,5,0,0:0:0:0:
268,300,102504,1,0,0:0:0:0:
272,304,102582,2,0,P|224:328|176:328,1,85
84,276,102894,1,0,0:0:0:0:
128,176,103051,2,0,B|152:112|248:112|280:184,1,170
192,256,103519,1,0,0:0:0:0:
32,120,103676,2,0,P|96:64|192:48,1,170
296,64,104144,5,0,0:0:0:0:
360,152,104301,1,0,0:0:0:0:
312,248,104457,1,0,0:0:0:0:
241,153,104613,1,0,0:0:0:0:
244,156,104691,1,0,0:0:0:0:
248,160,104769,1,0,0:0:0:0:
448,272,104926,1,0,0:0:0:0:
376,336,105082,6,0,P|288:352|184:344,1,170
32,256,105551,2,0,P|120:240|224:248,1,170
280,168,106019,1,0,0:0:0:0:
329,73,106176,1,0,0:0:0:0:
332,76,106254,1,0,0:0:0:0:
336,80,106332,1,0,0:0:0:0:
448,184,106488,5,0,0:0:0:0:
312,256,106644,2,0,P|224:240|184:168,1,170
8,80,107113,2,0,P|32:120|64:168,1,85
88,264,107426,1,0,0:0:0:0:
256,192,107504,12,0,109848,0:0:0:0:
352,352,110082,6,0,P|264:368|168:360,1,170
288,272,110728,2,0,P|376:256|464:264,1,170
240,192,111356,2,0,P|160:176|64:176,1,170
16,112,111827,2,0,P|104:96|184:104,1,170
226,115,112298,1,0,0:0:0:0:
448,336,112613,6,0,B|416:272|472:224|432:152,1,170
368,288,113241,2,0,B|336:224|392:176|352:104,1,170
296,48,113712,1,0,0:0:0:0:
224,120,113869,2,0,B|192:184|248:232|208:304,1,170
176,336,114340,2,0,B|112:296|144:224|80:184,1,170
68,116,114812,1,0,0:0:0:0:
272,32,115126,6,0,P|296:120|392:136,1,170
464,96,115597,2,0,P|416:168|472:232,1,170
512,320,116068,1,0,0:0:0:0:
448,368,116225,1,0,0:0:0:0:
368,336,116382,2,0,L|176:312,1,170
96,352,116853,2,0,P|144:280|144:192,1,170
164,164,117325,1,0,0:0:0:0:
167,167,117482,1,0,0:0:0:0:
80,128,117639,2,0,P|160:168|256:144,1,170
275,132,118110,1,0,0:0:0:0:
256,192,118189,12,0,119681,0:0:0:0:
208,80,120073,6,0,P|224:120|208:176,1,85
128,80,120387,2,0,P|104:128|112:168,1,85
212,180,120702,1,0,0:0:0:0:
272,304,120859,1,0,0:0:0:0:
144,240,121016,1,0,0:0:0:0:
288,224,121173,1,0,0:0:0:0:
192,320,121330,2,0,P|104:336|8:312,1,170
48,208,121801,2,0,P|128:192|224:208,1,170
288,320,122272,1,0,0:0:0:0:
244,244,122429,1,0,0:0:0:0:
368,272,122586,6,0,P|424:272|464:240,1,85
384,192,122901,2,0,P|336:192|296:168,1,85
361,105,123215,1,0,0:0:0:0:
448,80,123372,1,0,0:0:0:0:
364,108,123529,1,0,0:0:0:0:
336,32,123686,1,0,0:0:0:0:
368,112,123843,2,0,P|343:199|359:295,1,170
256,352,124314,2,0,P|168:344|96:304,1,170
73,282,124785,1,0,0:0:0:0:
32,48,125099,5,0,0:0:0:0:
64,128,125257,1,0,0:0:0:0:
128,64,125414,1,0,0:0:0:0:
160,144,125571,1,0,0:0:0:0:
224,80,125728,1,0,0:0:0:0:
208,112,125806,1,0,0:0:0:0:
208,144,125885,1,0,0:0:0:0:
224,176,125963,1,0,0:0:0:0:
256,192,126042,2,0,L|312:208,3,42.5
332,204,126356,5,0,0:0:0:0:
464,288,126513,1,0,0:0:0:0:
336,208,126670,1,0,0:0:0:0:
464,128,126827,1,0,0:0:0:0:
368,32,126984,1,0,0:0:0:0:
352,64,127063,1,0,0:0:0:0:
336,96,127141,1,0,0:0:0:0:
352,128,127220,1,0,0:0:0:0:
368,160,127298,1,0,0:0:0:0:
352,192,127377,1,0,0:0:0:0:
336,224,127456,1,0,0:0:0:0:
352,256,127534,1,0,0:0:0:0:
368,288,127613,5,0,0:0:0:0:
240,352,127770,1,0,0:0:0:0:
256,208,127927,1,0,0:0:0:0:
128,272,128084,1,0,0:0:0:0:
96,128,128241,2,0,L|128:88,3,42.5
144,64,128555,1,0,0:0:0:0:
176,48,128634,1,0,0:0:0:0:
208,40,128712,1,0,0:0:0:0:
240,48,128791,1,0,0:0:0:0:
272,64,128869,5,0,0:0:0:0:
176,272,129183,1,0,0:0:0:0:
384,320,129497,1,0,0:0:0:0:
304,208,129654,1,0,0:0:0:0:
496,48,129969,1,0,0:0:0:0:
448,112,130126,6,0,L|432:160,3,42.5
416,192,130440,2,0,L|448:240,3,42.5
448,272,130754,1,0,0:0:0:0:
432,304,130832,1,0,0:0:0:0:
400,320,130911,1,0,0:0:0:0:
368,320,130990,1,0,0:0:0:0:
336,304,131068,1,0,0:0:0:0:
320,272,131147,1,0,0:0:0:0:
288,256,131225,1,0,0:0:0:0:
141,186,131662,6,0,P|125:134|152:64,1,127.5
173,30,131974,2,0,L|272:40,1,85
331,99,132287,5,0,0:0:0:0:
358,109,132365,1,0,0:0:0:0:
387,110,132443,1,0,0:0:0:0:
415,102,132521,1,0,0:0:0:0:
440,96,132599,6,0,L|440:248,1,152.999995330811
453,283,132912,1,0,0:0:0:0:
358,384,133068,1,0,0:0:0:0:
327,181,133224,1,0,0:0:0:0:
301,299,133380,1,0,0:0:0:0:
453,283,133537,2,0,L|296:296,1,152.999995330811
259,267,133849,6,0,P|187:230|115:246,1,152.999995330811
96,322,134162,1,0,0:0:0:0:
0,239,134318,1,0,0:0:0:0:
191,204,134474,1,0,0:0:0:0:
96,322,134630,1,0,0:0:0:0:
86,169,134787,2,0,L|88:328,1,152.999995330811
135,354,135099,6,0,B|222:375|286:335,1,152.999995330811
299,300,135412,1,0,0:0:0:0:
445,337,135568,1,0,0:0:0:0:
362,216,135724,2,0,B|312:144|384:80,1,152.999995330811
415,54,136037,1,0,0:0:0:0:
449,150,136193,1,0,0:0:0:0:
250,128,136349,6,0,L|224:24,2,101.999996887207
199,238,136818,1,0,0:0:0:0:
203,242,137130,1,0,0:0:0:0:
110,198,137287,1,0,0:0:0:0:
297,206,137443,6,0,P|345:174|257:142,1,203.999993774414
203,242,137912,1,0,0:0:0:0:
246,323,138068,1,0,0:0:0:0:
249,326,138146,1,0,0:0:0:0:
253,330,138224,2,0,L|368:332,1,101.999996887207
448,366,138537,1,0,0:0:0:0:
406,230,138693,6,0,L|192:238,1,203.999993774414
118,300,139162,1,0,0:0:0:0:
31,228,139318,1,0,0:0:0:0:
34,231,139396,1,0,0:0:0:0:
38,235,139474,2,0,P|24:188|34:137,1,101.999996887207
202,241,139787,1,0,0:0:0:0:
298,83,139943,6,0,P|216:32|128:80,1,203.999993774414
202,241,140412,2,0,L|202:137,1,101.999996887207
385,77,140724,1,0,0:0:0:0:
491,137,140880,1,0,0:0:0:0:
433,245,141037,1,0,0:0:0:0:
326,185,141193,1,0,0:0:0:0:
481,27,141349,5,0,0:0:0:0:
433,245,141505,1,0,0:0:0:0:
270,86,141662,1,0,0:0:0:0:
398,114,141818,1,0,0:0:0:0:
402,118,142130,1,0,0:0:0:0:
362,359,142365,6,0,P|400:284|484:296,1,170
263,359,142828,2,0,L|166:331,1,85
0,223,143138,2,0,L|100:248,1,85
186,263,143447,1,0,0:0:0:0:
286,116,143602,6,0,P|200:136|138:88,1,170
375,75,144066,2,0,P|363:118|351:162,1,85
198,305,144375,2,0,P|194:270|186:218,1,85
263,121,144684,1,0,0:0:0:0:
89,189,144839,1,0,0:0:0:0:
286,245,144993,6,0,B|354:245|354:245|394:221|394:221|454:221,1,170
255,331,145457,1,0,0:0:0:0:
454,377,145612,2,0,P|432:332|408:280,1,85
290,151,145921,2,0,P|284:190|284:246,1,85
230,353,146230,5,0,0:0:0:0:
172,178,146385,1,0,0:0:0:0:
358,292,146540,1,0,0:0:0:0:
166,258,146694,2,0,P|156:208|148:172,1,85
329,50,147004,2,0,P|316:96|300:136,1,85
512,253,147313,6,0,P|452:189|360:197,1,170
282,336,147777,2,0,P|269:283|256:232,1,85
121,154,148086,1,0,0:0:0:0:
290,79,148241,1,0,0:0:0:0:
246,247,148395,1,0,0:0:0:0:
35,112,148550,6,0,P|104:56|203:76,1,170
246,247,149014,2,0,L|267:162,1,85
102,331,149323,2,0,L|92:244,1,85
246,247,149633,1,0,0:0:0:0:
121,154,149787,1,0,0:0:0:0:
343,115,150019,6,0,P|251:107|167:111,1,170
400,39,150483,1,0,0:0:0:0:
312,208,150638,2,0,P|292:172|300:123,1,85
431,163,150947,2,0,P|435:121|419:81,1,85
215,128,151256,6,0,P|263:124|307:132,1,85
95,114,151566,1,0,0:0:0:0:
101,235,151720,2,0,P|141:243|201:239,1,85
256,192,152571,12,0,153189,0:0:0:0:
309,126,153534,6,0,L|252:196,1,85
191,135,153848,2,0,L|255:191,1,85
319,248,154162,2,0,L|251:188,1,85
195,251,154476,2,0,L|259:187,1,85
256,192,154790,12,0,155419,0:0:0:0:
280,52,155733,5,0,0:0:0:0:
148,224,155890,1,0,0:0:0:0:
364,272,156047,1,0,0:0:0:0:
293,67,156204,1,0,0:0:0:0:
156,236,156361,5,0,0:0:0:0:
372,284,156518,1,0,0:0:0:0:
305,79,156675,1,0,0:0:0:0:
152,196,156832,1,0,0:0:0:0:
256,192,156989,12,0,157618,0:0:0:0:
448,89,157932,5,0,0:0:0:0:
376,272,158089,1,0,0:0:0:0:
359,60,158246,1,0,0:0:0:0:
260,200,158403,1,0,0:0:0:0:
64,89,158717,5,0,0:0:0:0:
136,272,158874,1,0,0:0:0:0:
153,60,159031,1,0,0:0:0:0:
252,200,159188,1,0,0:0:0:0:
254,64,159502,5,0,0:0:0:0:
254,64,159817,1,0,0:0:0:0:
157,160,160131,1,0,0:0:0:0:
157,160,160445,1,0,0:0:0:0:
348,157,160759,5,0,0:0:0:0:
348,157,161073,1,0,0:0:0:0:
254,254,161387,1,0,0:0:0:0:
343,332,161623,6,0,P|415:288|511:360,2,187.000005706787
239,381,162504,1,0,0:0:0:0:
316,221,162660,1,0,0:0:0:0:
154,287,162815,6,0,B|154:235|154:235|178:191|178:191|176:96,1,187.000005706787
244,32,163282,2,0,B|288:32|288:32|328:72,1,93.5000028533936
416,114,163593,1,0,0:0:0:0:
260,206,163748,1,0,0:0:0:0:
280,108,163903,1,0,0:0:0:0:
326,282,164059,1,0,0:0:0:0:
132,252,164214,6,0,P|121:214|129:162,1,93.5000028533936
251,283,164525,2,0,P|272:232|268:192,1,93.5000028533936
203,207,164836,1,0,0:0:0:0:
136,323,164991,1,0,0:0:0:0:
335,279,165147,1,0,0:0:0:0:
255,105,165302,6,0,B|183:137|171:61|71:109,1,187.000005706787
20,178,165769,2,0,P|20:238|48:270,1,93.5000028533936
191,281,166080,2,0,P|167:237|111:217,1,93.5000028533936
19,379,166390,2,0,P|67:367|95:335,1,93.5000028533936
191,281,166701,6,0,L|283:293,1,93.5000028533936
195,144,167012,2,0,L|99:132,1,93.5000028533936
279,66,167323,2,0,P|328:144|296:236,1,187.000005706787
178,368,167789,6,0,L|196:264,1,93.5000028533936
132,146,168100,1,0,0:0:0:0:
1,208,168256,2,0,L|16:308,1,93.5000028533936
190,280,168567,2,0,P|280:260|372:304,1,187.000005706787
454,372,169033,1,0,0:0:0:0:
494,180,169188,5,0,0:0:0:0:
370,302,169344,1,0,0:0:0:0:
357,79,169499,5,0,0:0:0:0:
435,245,169655,1,0,0:0:0:0:
265,129,169810,5,0,0:0:0:0:
208,216,169966,1,0,0:0:0:0:
156,128,170121,1,0,0:0:0:0:
246,49,170276,1,0,0:0:0:0:
249,52,170354,1,0,0:0:0:0:
253,56,170432,6,0,P|300:44|344:68,1,93.5000028533936
422,147,170743,1,0,0:0:0:0:
255,351,171054,1,0,0:0:0:0:
384,124,171598,6,0,P|308:160|228:140,1,170
156,88,172064,1,0,0:0:0:0:
252,24,172219,2,0,P|292:52|292:92,1,85
231,177,172530,1,0,0:0:0:0:
112,128,172686,2,0,P|56:192|88:268,1,170
176,324,173152,5,0,0:0:0:0:
204,220,173307,1,0,0:0:0:0:
312,268,173463,2,0,P|352:242|364:174,1,85
474,100,173774,2,0,P|464:141|500:196,1,85
432,232,174085,5,0,0:0:0:0:
308,164,174240,1,0,0:0:0:0:
376,88,174395,2,0,P|348:46|288:34,1,85
148,32,174706,1,0,0:0:0:0:
236,76,174862,1,0,0:0:0:0:
104,136,175017,1,0,0:0:0:0:
8,108,175173,2,0,P|4:192|96:232,1,170
160,144,175639,5,0,0:0:0:0:
345,132,175794,1,0,0:0:0:0:
280,296,175950,1,0,0:0:0:0:
186,110,176105,1,0,0:0:0:0:
361,172,176261,1,0,0:0:0:0:
238,297,176416,1,0,0:0:0:0:
148,228,176572,6,0,P|200:160|296:144,1,170
388,188,177038,1,0,0:0:0:0:
488,148,177193,2,0,P|470:114|406:98,1,85
388,188,177504,1,0,0:0:0:0:
460,272,177660,1,0,0:0:0:0:
432,296,177737,1,0,0:0:0:0:
404,320,177815,2,0,P|320:352|240:336,1,170
140,300,178281,1,0,0:0:0:0:
40,264,178437,6,0,L|136:228,1,85
248,180,178748,2,0,L|168:136,1,85
144,108,178981,1,0,0:0:0:0:
136,72,179059,2,0,P|204:28|280:64,1,170
248,180,179525,1,0,0:0:0:0:
244,72,179680,2,0,P|160:112|152:196,1,170
288,252,180147,2,0,P|360:208|348:116,1,170
304,88,180613,5,0,0:0:0:0:
118,76,180768,1,0,0:0:0:0:
183,240,180924,1,0,0:0:0:0:
277,54,181079,1,0,0:0:0:0:
102,116,181235,1,0,0:0:0:0:
255,241,181390,1,0,0:0:0:0:
353,167,181623,6,0,P|352:120|305:90,1,85
244,184,181924,1,0,0:0:0:0:
141,66,182081,1,0,0:0:0:0:
74,226,182238,2,0,P|72:296|148:360,1,170
256,383,182709,1,0,0:0:0:0:
437,225,182866,6,0,P|437:289|360:360,1,170
256,283,183337,2,0,L|256:192,1,85
332,40,183651,1,0,0:0:0:0:
437,226,183808,1,0,0:0:0:0:
477,100,183966,1,0,0:0:0:0:
480,103,184044,1,0,0:0:0:0:
484,107,184123,6,0,P|388:112|328:180,1,170
336,268,184594,2,0,P|361:306|401:314,1,85
438,226,184908,1,0,0:0:0:0:
251,194,185065,2,0,P|225:232|233:276,1,85
336,268,185379,1,0,0:0:0:0:
292,83,185536,1,0,0:0:0:0:
464,135,185693,6,0,L|296:88,1,170
183,106,186164,1,0,0:0:0:0:
53,141,186322,2,0,L|176:108,1,127.5
187,110,186636,5,0,0:0:0:0:
317,83,186793,1,0,0:0:0:0:
255,190,186950,2,0,P|227:216|174:213,1,85
292,83,187264,2,0,P|339:99|359:131,1,85
183,106,187578,2,0,P|172:64|200:24,1,85
359,224,187892,6,0,P|332:304|248:320,1,170
373,131,188363,1,0,0:0:0:0:
450,185,188520,1,0,0:0:0:0:
336,355,188678,5,0,0:0:0:0:
292,83,188835,1,0,0:0:0:0:
256,191,188992,1,0,0:0:0:0:
398,42,189149,6,0,P|454:106|438:186,1,170
256,191,189620,2,0,P|176:155|100:179,1,170
188,267,190091,1,0,0:0:0:0:
292,105,190248,1,0,0:0:0:0:
92,101,190405,1,0,0:0:0:0:
95,104,190484,1,0,0:0:0:0:
99,108,190562,1,0,0:0:0:0:
270,270,190719,5,0,0:0:0:0:
333,102,190877,1,0,0:0:0:0:
336,105,190955,1,0,0:0:0:0:
340,109,191034,1,0,0:0:0:0:
450,259,191191,1,0,0:0:0:0:
256,192,191348,1,0,0:0:0:0:
453,159,191505,1,0,0:0:0:0:
400,337,191662,1,0,0:0:0:0:
256,192,191740,12,0,192918,0:0:0:0:
412,188,193236,6,0,P|340:196|284:172,1,127.500004863739
273,33,193702,1,0,0:0:0:0:
276,36,193780,1,0,0:0:0:0:
280,40,193858,1,0,0:0:0:0:
100,87,194013,6,0,P|64:171|76:252,1,170
232,308,194479,1,0,0:0:0:0:
176,212,194635,1,0,0:0:0:0:
128,344,194790,1,0,0:0:0:0:
356,304,194946,1,0,0:0:0:0:
168,228,195101,1,0,0:0:0:0:
321,197,195257,1,0,0:0:0:0:
324,200,195334,1,0,0:0:0:0:
324,204,195412,6,0,P|344:156|336:120,1,85
192,8,195723,1,0,0:0:0:0:
104,64,195878,2,0,P|80:116|88:156,1,85
188,244,196189,1,0,0:0:0:0:
56,284,196345,1,0,0:0:0:0:
225,337,196500,1,0,0:0:0:0:
228,340,196578,1,0,0:0:0:0:
232,344,196656,6,0,B|300:372|324:316|420:352,1,170
504,243,197122,2,0,L|408:227,1,85
232,144,197433,1,0,0:0:0:0:
296,240,197588,1,0,0:0:0:0:
257,21,197744,1,0,0:0:0:0:
260,24,197821,1,0,0:1:0:0:
264,28,197899,6,0,L|171:39,1,85
132,136,198210,1,0,0:0:0:0:
28,104,198365,1,0,0:0:0:0:
33,313,198521,1,0,0:0:0:0:
36,316,198599,1,0,0:0:0:0:
40,320,198676,2,0,P|92:280|160:300,1,127.5
240,284,199065,6,0,P|308:324|400:300,1,170
424,168,199531,1,0,0:0:0:0:
332,216,199687,1,0,0:0:0:0:
496,252,199842,1,0,0:0:0:0:
388,72,199998,1,0,0:0:0:0:
225,141,200153,1,0,0:0:0:0:
228,144,200231,1,0,0:0:0:0:
231,148,200308,6,0,L|55:132,1,170
48,248,200775,1,0,0:0:0:0:
184,296,200930,1,0,0:0:0:0:
60,232,201086,1,0,0:0:0:0:
272,335,201241,2,0,P|280:284|268:240,1,85
158,352,201552,5,0,0:0:0:0:
376,292,201707,1,0,0:0:0:0:
248,152,201863,2,0,P|300:172|368:140,1,127.5
380,152,202174,1,0,0:0:0:0:
200,64,202329,1,0,0:0:0:0:
180,232,202485,1,0,0:0:0:0:
40,168,202640,6,0,P|36:96|24:36,1,127.5
12,32,202951,1,0,0:0:0:0:
180,80,203106,1,0,0:0:0:0:
272,176,203262,2,0,P|276:240|272:308,1,127.5
244,312,203573,1,0,0:0:0:0:
148,204,203728,1,0,0:0:0:0:
272,24,203884,6,0,P|332:80|432:52,1,170
488,175,204350,2,0,P|500:235|480:271,1,85
496,360,204661,1,0,0:0:0:0:
296,240,204816,1,0,0:0:0:0:
428,288,204972,1,0,0:0:0:0:
215,305,205127,1,0,0:0:0:0:
218,308,205205,1,0,0:0:0:0:
221,311,205283,6,0,P|202:224|222:144,1,170
324,120,205749,1,0,0:0:0:0:
144,44,205904,1,0,0:0:0:0:
200,132,206060,1,0,0:0:0:0:
380,24,206215,1,0,0:0:0:0:
465,113,206371,1,0,0:0:0:0:
468,116,206448,1,0,0:0:0:0:
472,120,206526,6,0,P|444:216|424:284,1,170
196,264,206992,1,0,0:0:0:0:
336,344,207148,1,0,0:0:0:0:
296,216,207303,1,0,0:0:0:0:
200,288,207459,1,0,0:0:0:0:
349,113,207614,1,0,0:0:0:0:
352,116,207692,1,0,0:0:0:0:
356,120,207770,6,0,L|260:112,1,85
46,236,208081,1,0,0:0:0:0:
128,160,208236,2,0,P|172:144|224:156,1,85
197,305,208547,1,0,0:0:0:0:
200,308,208625,1,0,0:0:0:0:
204,312,208702,1,0,0:0:0:0:
349,233,208858,1,0,0:0:0:0:
352,236,208935,1,0,0:0:0:0:
356,239,209013,6,0,P|336:304|348:363,1,127.5
344,372,209324,1,0,0:0:0:0:
440,240,209479,1,0,0:0:0:0:
336,144,209635,1,0,0:0:0:0:
476,170,209790,1,0,0:0:0:0:
384,52,209946,1,0,0:0:0:0:
231,164,210101,6,0,P|144:176|64:132,1,170
136,40,210568,1,0,0:0:0:0:
84,270,210723,1,0,0:0:0:0:
200,276,210878,2,0,L|288:268,1,85
312,92,211189,2,0,L|220:100,1,85
391,280,211500,6,0,P|423:220|411:156,1,127.5
408,156,211811,1,0,0:0:0:0:
324,320,211967,1,0,0:0:0:0:
268,172,212122,1,0,0:0:0:0:
180,275,212277,2,0,P|140:288|96:276,1,85
8,104,212588,6,0,B|88:140|96:76|184:116,1,170
324,72,213055,1,0,0:0:0:0:
284,250,213210,1,0,0:0:0:0:
432,288,213365,2,0,L|456:152,1,127.5
432,144,213676,1,0,0:0:0:0:
249,153,213832,1,0,0:0:0:0:
252,156,213910,1,0,0:0:0:0:
255,160,213987,6,0,P|164:168|104:112,1,170
164,40,214454,1,0,0:0:0:0:
120,264,214609,1,0,0:0:0:0:
264,68,214764,1,0,0:0:0:0:
256,252,214920,1,0,0:0:0:0:
364,52,215075,1,0,0:0:0:0:
408,200,215231,6,0,L|384:376,1,170
244,236,215697,1,0,0:0:0:0:
272,356,215853,1,0,0:0:0:0:
112,244,216008,1,0,0:0:0:0:
312,136,216163,1,0,0:0:0:0:
232,220,216319,1,0,0:0:0:0:
136,40,216474,6,0,P|200:56|256:28,1,127.5
242,135,217096,2,0,L|232:224,1,85
100,208,219039,6,0,P|144:224|192:204,1,85
132,44,219341,2,0,P|216:24|300:52,1,170
256,140,219810,1,0,0:0:0:0:
296,48,219966,2,0,L|364:112,1,85
483,265,220279,6,0,L|407:201,1,85
296,48,220591,1,0,0:0:0:0:
420,92,220747,1,0,0:0:0:0:
256,140,220904,2,0,B|192:172|144:136|144:136|136:172|120:188,1,170
248,288,221372,1,0,0:0:0:0:
268,256,221450,1,0,0:0:0:0:
300,236,221529,6,0,B|364:204|412:240|412:240|420:204|436:188,1,170
468,104,221997,1,0,0:0:0:0:
396,36,222154,2,0,P|304:16|220:44,1,170
112,112,222622,1,0,0:0:0:0:
240,176,222779,2,0,L|256:84,1,85
128,256,223091,2,0,P|192:316|288:296,1,170
207,200,223560,1,0,0:0:0:0:
217,231,223638,1,0,0:0:0:0:
201,259,223716,2,0,L|176:348,1,85
296,284,224029,6,0,L|324:196,1,85
340,172,224263,1,0,0:0:0:0:
348,140,224341,2,0,P|388:116|452:124,1,85
304,72,224654,2,0,P|256:56|200:72,1,85
108,72,224966,2,0,P|164:48|212:56,2,85
112,292,225435,1,0,0:0:0:0:
172,212,225591,2,0,P|188:164|176:120,1,85
336,240,225904,2,0,P|324:284|332:328,2,85
256,188,226529,5,0,0:0:0:0:
164,48,227622,1,0,0:0:0:0:
348,52,227935,1,0,0:0:0:0:
256,192,228872,12,0,230122,0:0:0:0:
344,264,231529,6,0,P|308:304|260:308,2,85
156,232,231963,1,0,0:0:0:0:
156,232,232041,1,0,0:0:0:0:
156,232,232118,2,0,P|136:172|156:128,1,85
280,120,232429,2,0,P|308:168|296:224,1,85
256,304,232740,5,0,0:0:0:0:
132,192,232895,1,0,0:0:0:0:
256,84,233051,1,0,0:0:0:0:
372,192,233206,1,0,0:0:0:0:
256,304,233362,2,0,P|236:312|192:304,3,42.5
172,80,233984,5,0,0:0:0:0:
332,80,234139,1,0,0:0:0:0:
172,224,234294,1,0,0:0:0:0:
336,224,234450,1,0,0:0:0:0:
432,272,234605,2,0,P|392:308|356:308,2,85
256,272,235072,1,0,0:0:0:0:
256,160,235305,6,0,P|220:108|152:84,1,127.500004863739
256,160,235616,2,0,P|292:108|360:84,1,127.500004863739
256,160,235927,2,0,P|220:212|152:236,1,127.500004863739
256,160,236237,2,0,P|292:212|360:236,1,127.500004863739
380,152,236548,6,0,P|356:112|308:88,2,85
204,116,237015,1,0,0:0:0:0:
200,112,237092,1,0,0:0:0:0:
204,116,237170,2,0,P|164:168|160:208,1,85
264,240,237481,2,0,P|300:200|304:152,1,85
180,116,237792,5,0,0:0:0:0:
180,284,237947,1,0,0:0:0:0:
328,116,238103,1,0,0:0:0:0:
328,284,238258,1,0,0:0:0:0:
256,192,238414,2,0,L|256:128,3,42.5
256,32,239035,6,0,P|296:48|320:100,1,85
160,84,239346,1,0,0:0:0:0:
64,192,239502,1,0,0:0:0:0:
156,304,239657,1,0,0:0:0:0:
156,304,239735,1,0,0:0:0:0:
156,304,239813,2,0,P|216:320|256:304,1,85
320,212,240123,5,0,0:0:0:0:
350,339,240279,1,0,0:0:0:0:
43,178,240590,1,0,0:0:0:0:
481,31,240901,1,0,0:0:0:0:
64,318,241212,1,0,0:0:0:0:
388,96,241445,5,0,0:0:0:0:
381,185,241602,1,0,0:0:0:0:
384,188,241681,1,0,0:0:0:0:
388,192,241760,1,0,0:0:0:0:
344,276,241918,2,0,P|256:288|172:264,1,170
252,96,242392,5,0,0:0:0:0:
200,184,242550,1,0,0:0:0:0:
256,100,242708,2,0,L|352:100,2,85
260,104,243181,5,0,0:0:0:0:
200,264,243339,1,0,0:0:0:0:
340,172,243497,1,0,0:0:0:0:
172,168,243655,1,0,0:0:0:0:
312,264,243813,1,0,0:0:0:0:
252,96,243971,5,0,0:0:0:0:
256,100,244129,1,0,0:0:0:0:
256,192,244287,1,0,0:0:0:0:
172,252,244445,2,0,P|256:284|344:252,1,170
348,256,244918,1,0,0:0:0:0:
212,120,245234,5,0,0:0:0:0:
300,120,245392,1,0,0:0:0:0:
208,264,245550,1,0,0:0:0:0:
168,192,245708,1,0,0:0:0:0:
344,192,245866,1,0,0:0:0:0:
256,332,246023,1,0,0:0:0:0:
256,192,246181,1,0,0:0:0:0:
300,264,246339,1,0,0:0:0:0:
208,264,246497,6,0,L|112:264,2,85
316,280,246971,2,0,P|344:204|324:112,1,170
256,192,247445,2,0,L|160:192,1,85
76,148,247760,1,0,0:0:0:0:
172,148,247918,1,0,0:0:0:0:
200,148,247997,1,0,0:0:0:0:
228,148,248076,1,0,0:0:0:0:
220,244,248234,2,0,P|140:272|56:240,1,170
44,152,248708,2,0,L|-4:152,2,42.5
112,88,249023,6,0,B|200:136|208:64|312:120,1,170
364,156,249497,2,0,L|364:240,1,85
320,336,249813,2,0,P|368:352|416:332,2,85
192,288,250287,5,0,0:0:0:0:
316,240,250445,1,0,0:0:0:0:
192,192,250602,1,0,0:0:0:0:
316,144,250760,1,0,0:0:0:0:
96,102,251471,6,0,P|164:128|180:206,1,127.500004863739
122,241,251825,2,0,P|98:293|162:289,1,127.500004863739
221,262,252138,1,0,0:0:0:0:
258,347,252372,1,0,0:0:0:0:
271,326,252450,1,0,0:0:0:0:
369,346,252684,1,0,0:0:0:0:
348,326,252763,2,0,P|360:268|396:316,1,127.500004863739
407,338,253075,1,0,0:0:0:0:
444,264,253231,2,0,P|332:212|296:324,1,255.000009727478
304,352,253700,1,0,0:0:0:0:
478,371,254013,6,0,P|410:345|394:267,1,127.500004863739
397,247,254325,2,0,P|421:195|357:199,1,127.500004863739
484,196,254638,1,0,0:0:0:0:
479,90,254872,1,0,0:0:0:0:
455,117,254950,1,0,0:0:0:0:
352,75,255184,1,0,0:0:0:0:
381,102,255263,2,0,P|369:160|333:112,1,127.500004863739
251,91,255575,1,0,0:0:0:0:
159,32,255731,2,0,P|60:72|124:172,1,255.000009727478
136,175,256200,1,0,0:0:0:0:
40,317,256513,6,0,P|64:253|116:233,1,127.500004863739
146,319,256825,2,0,P|170:255|222:235,1,127.500004863739
241,309,257138,2,0,P|265:245|317:225,1,127.500004863739
376,230,257450,1,0,0:0:0:0:
429,317,257684,1,0,0:0:0:0:
456,297,257763,2,0,P|480:172|408:68,1,255.000009727478
264,85,258388,2,0,P|180:29|224:129,1,255.000009727478
169,66,259013,6,0,P|137:130|161:186,1,127.500004863739
95,250,259325,2,0,P|84:120|36:0,1,255.000009727478
22,172,259794,1,0,0:0:0:0:
21,143,259950,2,0,P|52:88|104:44,1,127.500004863739
152,10,260263,1,0,0:0:0:0:
141,101,260497,1,0,0:0:0:0:
156,121,260575,1,0,0:0:0:0:
114,241,260809,1,0,0:0:0:0:
151,321,261044,1,0,0:0:0:0:
135,346,261122,1,0,0:0:0:0:
39,334,261356,1,0,0:0:0:0:
60,357,261513,6,0,P|120:380|192:361,1,127.500004863739
223,318,261825,2,0,P|272:284|332:312,1,127.500004863739
353,384,262138,1,0,0:0:0:0:
462,357,262294,1,0,0:0:0:0:
434,339,262372,1,0,0:0:0:0:
469,227,262528,1,0,0:0:0:0:
437,248,262684,2,0,P|377:256|377:196,1,127.500004863739
366,123,262997,1,0,0:0:0:0:
329,234,263153,2,0,P|352:304|500:248,1,255.000009727478
507,196,263622,1,0,0:0:0:0:
245,223,264013,6,0,P|217:167|241:107,1,127.500004863739
318,68,264325,2,0,P|260:40|184:60,1,127.500004863739
165,27,264638,1,0,0:0:0:0:
53,74,264794,1,0,0:0:0:0:
73,97,264872,2,0,P|112:176|48:320,2,255.000009727478
69,206,265653,2,0,P|132:300|256:272,1,255.000009727478
271,259,266122,1,0,0:0:0:0:
394,367,266513,6,0,P|374:303|418:263,1,127.500004863739
473,242,266825,1,0,0:0:0:0:
398,270,266981,2,0,P|348:192|472:188,1,255.000009727478
501,216,267450,1,0,0:0:0:0:
512,108,267606,1,0,0:0:0:0:
486,80,267763,2,0,P|440:36|384:64,1,127.500004863739
333,133,268075,2,0,P|269:169|221:129,1,127.500004863739
265,30,268388,1,0,0:0:0:0:
194,178,268700,2,0,P|120:200|98:162,1,127.500004863739
104,74,269013,6,0,P|132:122|88:174,1,127.500004863739
1,161,269325,2,0,P|52:128|92:176,1,127.500004863739
88,264,269638,2,0,P|56:220|116:168,1,127.500004863739
209,205,269950,2,0,P|241:261|197:313,1,127.500004863739
88,296,270263,2,0,P|264:336|280:176,1,382.500014591218
227,121,270888,1,0,0:0:0:0:
350,266,271200,1,0,0:0:0:0:
416,108,271513,6,0,P|476:160|368:156,1,255.000009727478
502,104,272138,2,0,P|462:48|402:32,1,127.500004863739
343,36,272450,1,0,0:0:0:0:
474,212,272763,2,0,P|396:296|270:260,1,255.000009727478
161,341,273388,2,0,P|224:332|240:260,1,127.500004863739
242,209,273700,1,0,0:0:0:0:
364,350,274013,2,0,P|420:288|300:280,1,255.000009727478
75,310,274638,2,0,P|16:200|76:88,1,255.000009727478
3,29,275263,6,0,P|71:33|88:92,1,127.500004863739
168,36,275575,2,0,P|180:104|140:152,1,127.500004863739
221,195,275888,2,0,P|168:248|116:256,1,127.500004863739
63,156,276200,1,0,0:0:0:0:
160,272,276513,2,0,P|268:232|320:104,1,255.000009727478
283,28,276981,1,0,0:0:0:0:
323,36,277138,2,0,P|400:76|300:136,1,255.000009727478
326,223,277763,6,0,P|378:227|413:147,1,127.500004863739
422,51,278075,2,0,P|390:119|422:179,1,127.500004863739
511,217,278388,2,0,P|472:168|416:216,1,127.500004863739
450,336,278700,1,0,0:0:0:0:
482,354,278778,1,0,0:0:0:0:
512,341,278856,1,0,0:0:0:0:
512,341,278934,2,0,P|384:297|268:325,1,255.000009727478
327,150,279559,2,0,P|228:252|267:370,1,255.000009727478
144,332,280263,2,0,L|128:200,1,127.500004863739
177,325,280575,1,0,0:0:0:0:
31,368,280888,2,0,P|-17:280|91:300,2,255.000009727478
31,368,282294,5,0,0:0:0:0:
52,331,282372,1,0,0:0:0:0:
43,294,282450,1,0,0:0:0:0:
12,271,282528,1,0,0:0:0:0:
256,192,284013,12,0,286356,0:0:0:0:
248,271,286513,5,0,0:0:0:0:
168,200,286696,2,0,P|120:192|68:192,1,85
32,288,287008,1,0,0:0:0:0:
0,88,287165,1,0,0:0:0:0:
96,104,287321,2,0,P|144:96|196:100,1,85
265,65,287633,1,0,0:0:0:0:
268,68,287711,1,0,0:0:0:0:
272,72,287790,1,0,0:0:0:0:
312,168,287946,1,0,0:0:0:0:
400,112,288102,1,0,0:0:0:0:
464,192,288258,2,0,L|448:292,1,85
176,208,288571,2,0,L|204:112,1,85
329,41,288883,5,0,0:0:0:0:
332,44,288961,1,0,0:0:0:0:
336,48,289040,2,0,P|346:138|330:220,1,170
272,296,289508,2,0,L|176:320,1,85
32,216,289821,1,0,0:0:0:0:
120,160,289977,2,0,L|148:64,1,85
240,16,290290,5,0,0:0:0:0:
184,120,290446,1,0,0:0:0:0:
296,176,290602,1,0,0:0:0:0:
352,72,290758,1,0,0:0:0:0:
224,176,290915,5,0,0:0:0:0:
176,48,291071,1,0,0:0:0:0:
312,16,291227,1,0,0:0:0:0:
360,144,291383,1,0,0:0:0:0:
472,192,291540,6,0,P|496:276|472:372,1,170
361,265,292008,1,0,0:0:0:0:
364,268,292086,1,0,0:0:0:0:
368,272,292165,1,0,0:0:0:0:
256,288,292321,2,0,P|180:252|144:176,1,170
80,296,292790,1,0,0:0:0:0:
232,160,292946,2,0,P|232:104|216:64,1,85
120,96,293258,6,0,L|28:96,1,85
160,200,293571,2,0,L|68:200,1,85
120,296,293883,2,0,L|24:296,2,85
208,344,294352,1,0,0:0:0:0:
164,184,294508,2,0,L|260:184,1,85
385,265,294821,1,0,0:0:0:0:
388,268,294899,1,0,0:0:0:0:
392,272,294977,1,0,0:0:0:0:
120,248,296540,6,0,L|84:164,1,85
176,56,296860,2,0,L|248:112,1,85
288,160,297173,2,0,L|340:232,1,85
408,200,297485,2,0,B|444:240|444:240|376:336,1,170
104,304,298110,5,0,0:0:0:0:
56,240,298266,2,0,L|32:152,1,85
136,72,298579,2,0,L|176:168,2,85
232,168,299048,2,0,P|248:212|232:252,1,85
216,272,299282,1,0,0:0:0:0:
216,232,299360,2,0,P|260:192|328:200,1,127.5
352,216,299673,2,0,P|384:272|360:340,1,127.5
366,329,299985,1,0,0:0:0:0:
296,272,300141,5,0,0:0:0:0:
288,352,300298,2,0,L|188:368,1,85
48,328,300610,2,0,L|144:312,1,85
168,248,300923,5,0,0:0:0:0:
144,168,301079,2,0,L|48:152,2,85
224,184,301548,2,0,P|304:168|344:92,1,170
256,104,302016,1,0,0:0:0:0:
256,272,302173,6,0,L|268:372,1,85
368,232,302485,2,0,L|412:316,1,85
416,152,302798,2,0,P|404:64|336:32,1,170
256,104,303266,5,0,0:0:0:0:
182,40,303423,2,0,P|96:84|94:176,1,170
256,176,303891,5,0,0:0:0:0:
256,216,303969,1,0,0:0:0:0:
256,256,304048,2,0,L|256:344,1,85
384,256,304360,5,0,0:0:0:0:
448,208,304516,2,0,L|416:116,1,85
216,40,304829,5,0,0:0:0:0:
160,88,304985,2,0,L|192:188,1,85
120,216,305298,2,0,L|112:264,1,42.5
168,264,305454,2,0,L|164:316,1,42.5
224,296,305610,2,0,L|224:356,1,42.5
288,296,305766,2,0,L|288:348,1,42.5
344,264,305923,2,0,L|356:316,1,42.5
392,216,306079,2,0,L|412:272,2,42.5
256,192,306548,5,0,0:0:0:0:
328,128,306860,1,0,0:0:0:0:
232,104,307173,2,0,P|156:148|148:224,1,170
256,192,307641,5,0,0:0:0:0:
280,280,307798,2,0,P|344:228|336:132,1,170
132,227,308423,2,0,P|240:292|344:216,1,255
256,112,309204,5,0,0:0:0:0:
160,88,309516,1,0,0:0:0:0:
104,168,309985,1,0,0:0:0:0:
168,240,310298,1,0,0:0:0:0:
256,208,310766,1,0,0:0:0:0:
384,248,311157,5,0,0:0:0:0:
264,288,311548,1,0,0:0:0:0:
256,128,311938,5,0,0:0:0:0:
248,288,312407,5,0,0:0:0:0:
216,152,313266,2,0,P|256:136|300:156,1,93.5
292,260,314282,2,0,P|256:272|224:256,2,76.5
256,192,315844,12,0,318891,0:0:0:0:
208,328,320532,5,0,0:0:0:0:
304,304,320857,1,0,0:0:0:0:
304,208,321170,2,0,P|392:220|448:296,1,170
448,136,322107,2,0,P|364:128|292:68,1,170
136,120,323357,2,0,P|60:180|60:268,1,170
160,320,324295,1,0,0:0:0:0:
272,304,324607,1,0,0:0:0:0:
344,224,324920,1,0,0:0:0:0:
448,240,325232,1,0,0:0:0:0:
464,128,325545,5,0,0:0:0:0:
384,56,325857,1,0,0:0:0:0:
304,32,326170,2,0,P|224:16|124:44,1,170
73,137,327107,1,0,0:0:0:0:
80,144,327420,1,0,0:0:0:0:
96,240,327732,6,0,L|188:260,1,85
416,240,328357,2,0,L|312:264,1,85
192,144,328982,2,0,L|128:64,1,85
320,144,329607,2,0,L|380:68,1,85
249,241,330232,1,0,0:0:0:0:
256,244,330545,1,0,0:0:0:0:
256,248,330857,1,0,0:0:0:0:
340,293,331170,6,0,P|264:328|176:300,1,170
88,208,332107,2,0,P|92:136|176:84,1,170
256,192,333045,1,0,0:0:0:0:
424,208,333357,2,0,P|408:128|308:80,1,170
256,192,334295,1,0,0:0:0:0:
352,320,334607,2,0,L|172:320,1,170
256,192,335545,1,0,0:0:0:0:
144,120,335857,6,0,P|98:95|80:44,1,85
360,120,336482,2,0,P|406:95|424:44,1,85
144,264,337107,2,0,P|98:289|80:340,1,85
360,264,337732,2,0,P|406:289|424:340,1,85
256,312,338357,2,0,L|256:136,1,170
260,126,339295,1,0,0:0:0:0:
176,80,339607,2,0,P|256:40|344:88,1,170
256,196,340623,5,0,0:0:0:0:
352,304,340939,1,0,0:0:0:0:
420,212,341255,2,0,L|464:260,2,63.7500024318696
344,116,341886,1,0,0:0:0:0:
348,120,342202,2,0,P|308:68|232:72,1,127.500004863739
141,41,342834,5,0,0:0:0:0:
148,48,343150,1,0,0:0:0:0:
116,148,343465,2,0,L|56:112,2,63.7500024318696
113,245,344097,1,0,0:0:0:0:
120,252,344413,1,0,0:0:0:0:
204,316,344729,2,0,L|336:316,1,127.500004863739
420,344,345360,5,0,0:0:0:0:
460,232,345676,1,0,0:0:0:0:
464,236,345992,2,0,P|492:172|460:104,1,127.500004863739
396,40,346623,1,0,0:0:0:0:
332,136,346939,1,0,0:0:0:0:
261,33,347255,1,0,0:0:0:0:
268,40,347571,1,0,0:0:0:0:
168,80,347886,6,0,L|112:36,2,63.7500024318696
172,84,348518,2,0,P|152:116|64:148,1,127.500004863739
96,260,349150,2,0,P|136:268|216:240,1,127.500004863739
284,216,349781,2,0,P|324:208|412:232,1,127.500004863739
384,316,350413,2,0,L|432:360,2,63.7500024318696
388,320,351044,6,0,P|412:284|408:200,1,127.500004863739
380,200,351518,2,0,P|324:156|264:152,1,127.500004863739
256,152,352150,1,0,0:0:0:0:
148,100,352465,1,0,0:0:0:0:
32,84,352781,2,0,L|-4:32,2,63.7500024318696
45,177,353413,5,0,0:0:0:0:
52,184,353729,1,0,0:0:0:0:
164,216,354044,1,0,0:0:0:0:
108,316,354360,2,0,P|140:328|236:312,1,127.500004863739
256,216,354992,5,0,0:0:0:0:
256,100,355308,1,0,0:0:0:0:
256,228,355623,1,0,0:0:0:0:
249,81,355939,1,0,0:0:0:0:
256,88,356255,1,0,0:0:0:0:
348,156,356571,2,0,P|368:184|456:216,1,127.500004863739
436,108,357202,2,0,L|508:88,2,63.7500024318696
440,112,357834,6,0,P|388:56|332:52,1,127.500004863739
240,68,358465,1,0,0:0:0:0:
136,116,358781,2,0,L|72:64,2,63.7500024318696
164,228,359413,2,0,P|232:212|252:152,1,127.500004863739
128,248,361308,5,0,0:0:0:0:
464,64,361942,1,0,0:0:0:0:
112,104,362561,1,0,0:0:0:0:
444,236,363179,1,0,0:0:0:0:
448,240,363488,1,0,0:0:0:0:
81,257,364107,1,0,0:0:0:0:
84,260,364416,1,0,0:0:0:0:
88,264,364726,1,0,0:0:0:0:
124,120,365035,6,0,P|116:168|128:208,1,85
432,184,365653,2,0,P|444:228|428:276,1,85
360,304,366272,5,0,0:0:0:0:
280,312,366581,1,0,0:0:0:0:
208,272,366891,2,0,L|208:184,1,85
128,176,367509,2,0,L|128:268,1,85
48,216,368128,2,0,L|48:124,1,85
72,40,369055,5,0,0:0:0:0:
144,56,369365,1,0,0:0:0:0:
216,80,369674,1,0,0:0:0:0:
444,300,370293,5,0,0:0:0:0:
448,304,370602,1,0,0:0:0:0:
368,304,370911,1,0,0:0:0:0:
280,304,371220,2,0,L|188:300,1,85
264,244,371839,2,0,L|176:216,1,85
112,192,372458,1,0,0:0:0:0:
284,84,372767,5,0,0:0:0:0:
288,88,373076,1,0,0:0:0:0:
104,72,373385,6,0,L|192:104,1,85
120,168,374004,2,0,L|208:200,1,85
248,144,374622,2,0,L|336:176,1,85
148,284,375241,5,0,0:0:0:0:
152,288,375550,1,0,0:0:0:0:
272,336,375860,6,0,L|356:336,1,85
408,280,376478,1,0,0:0:0:0:
336,232,376787,1,0,0:0:0:0:
408,192,377097,1,0,0:0:0:0:
408,104,377406,1,0,0:0:0:0:
336,144,377715,1,0,0:0:0:0:
336,56,378025,1,0,0:0:0:0:
264,96,378334,6,0,L|176:96,1,85
112,112,378952,1,0,0:0:0:0:
56,176,379262,2,0,L|128:236,1,85
128,288,381535,5,0,0:0:0:0:
251,232,381847,1,0,0:0:0:0:
92,164,382160,1,0,0:0:0:0:
196,80,382472,2,0,P|240:64|288:84,1,85
424,172,383097,1,0,0:0:0:0:
396,36,383410,1,0,0:0:0:0:
312,176,383722,6,0,B|284:248|348:288|308:356,1,170
168,336,384660,2,0,P|220:276|228:348,1,170
84,336,385597,2,0,P|80:292|96:252,1,85
248,323,386222,5,0,0:0:0:0:
388,204,386535,1,0,0:0:0:0:
252,64,386847,1,0,0:0:0:0:
308,252,387160,1,0,0:0:0:0:
376,88,387472,1,0,0:0:0:0:
168,148,387785,1,0,0:0:0:0:
308,252,388097,1,0,0:0:0:0:
252,64,388410,1,0,0:0:0:0:
95,168,388722,6,0,P|160:228|232:192,1,170
376,88,389660,2,0,B|376:148|376:148|388:164|388:164|388:268,1,170
260,320,390597,1,0,0:0:0:0:
168,148,390910,1,0,0:0:0:0:
84,260,391222,5,0,0:0:0:0:
88,264,391535,2,0,L|196:248,1,85
376,160,392160,1,0,0:0:0:0:
292,320,392472,1,0,0:0:0:0:
248,168,392785,1,0,0:0:0:0:
380,264,393097,1,0,0:0:0:0:
496,152,393410,2,0,L|512:64,1,85
248,168,394035,5,0,0:0:0:0:
380,264,394347,2,0,P|428:280|476:264,1,85
288,96,394972,2,0,P|248:80|192:96,1,85
128,280,395597,1,0,0:0:0:0:
248,168,395910,1,0,0:0:0:0:
380,264,396222,6,0,L|392:348,1,85
128,280,396847,2,0,L|108:192,1,85
288,96,397472,2,0,L|376:104,1,85
218,291,398097,2,0,L|132:280,1,85
65,122,398722,6,0,P|109:106|165:130,1,85
366,191,399347,2,0,P|378:239|362:287,1,85
184,208,399972,2,0,P|172:160|192:116,1,85
376,296,400597,1,0,0:0:0:0:
248,260,400910,1,0,0:0:0:0:
391,375,401222,6,0,P|443:307|415:227,1,170
248,260,402160,1,0,0:0:0:0:
376,296,402472,2,0,L|468:288,1,85
384,108,403097,2,0,L|292:92,1,85
167,104,417022,5,0,0:0:0:0:
255,221,417179,1,0,0:0:0:0:
257,75,417336,6,0,P|300:64|365:83,1,85
427,90,417650,2,0,P|436:140|416:200,1,85
343,240,417964,1,0,0:0:0:0:
253,367,418121,6,0,L|240:236,1,127.5
112,224,418514,2,0,P|120:272|160:308,1,85
253,367,418828,6,0,B|328:364|328:276|412:288,2,170
140,258,419613,6,0,P|128:196|80:144,1,127.5
192,71,420006,2,0,P|236:56|280:71,1,85
351,85,420320,6,0,P|343:145|356:212,1,127.5
347,290,420713,2,0,P|296:328|224:288,1,127.5
199,220,421105,5,0,0:0:0:0:
293,183,421263,1,0,0:0:0:0:
222,140,421420,1,0,0:0:0:0:
316,103,421577,1,0,0:0:0:0:
468,141,421734,5,0,0:0:0:0:
333,19,421891,1,0,0:0:0:0:
159,75,422048,1,0,0:0:0:0:
110,250,422205,1,0,0:0:0:0:
280,186,422362,1,0,0:0:0:0:
272,76,423069,6,0,P|341:90|372:145,1,127.5
156,256,423568,1,0,0:0:0:0:
344,296,423733,1,0,0:0:0:0:
68,40,423898,5,0,0:0:0:0:
68,40,423980,1,0,0:0:0:0:
72,44,424063,2,0,P|92:92|144:116,1,85
260,204,424392,1,0,0:0:0:0:
264,208,424639,1,0,0:0:0:0:
396,36,424887,1,0,0:0:0:0:
396,36,424969,1,0,0:0:0:0:
400,40,425052,2,0,P|388:100|404:144,1,85
256,192,425381,5,0,0:0:0:0:
73,45,425546,5,0,0:0:0:0:
76,48,425628,1,0,0:0:0:0:
80,52,425711,1,0,0:0:0:0:
132,208,425958,2,0,P|92:248|160:264,1,127.5
240,296,426370,1,0,0:0:0:0:
336,208,426535,1,0,0:0:0:0:
224,120,426700,5,0,0:0:0:0:
320,48,426865,1,0,0:0:0:0:
397,223,427030,2,0,P|425:179|421:143,2,85
288,40,427524,1,0,0:0:0:0:
152,88,427689,1,0,0:0:0:0:
68,44,428101,5,0,0:0:0:0:
192,48,428266,1,0,0:0:0:0:
269,129,428431,2,0,P|256:176|280:236,2,85
160,216,428925,1,0,0:0:0:0:
68,56,429090,5,0,0:0:0:0:
68,56,429172,1,0,0:0:0:0:
72,60,429255,1,0,0:0:0:0:
380,60,429584,5,0,0:0:0:0:
380,60,429667,1,0,0:0:0:0:
384,64,429749,2,0,P|388:116|372:156,2,85
188,220,430244,1,0,0:0:0:0:
192,224,430409,1,0,0:0:0:0:
69,105,430903,5,0,0:0:0:0:
72,108,430986,1,0,0:0:0:0:
76,112,431068,2,0,P|76:168|104:208,1,85
204,292,431398,1,0,0:0:0:0:
324,384,431563,1,0,0:0:0:0:
396,240,431727,1,0,0:0:0:0:
112,88,432057,5,0,0:0:0:0:
264,28,432222,1,0,0:0:0:0:
392,112,432387,2,0,P|336:196|276:236,1,170
160,296,432964,1,0,0:0:0:0:
163,299,433046,1,0,0:0:0:0:
167,303,433128,1,0,0:0:0:0:
184,152,433421,6,0,P|228:136|276:156,1,85
296,232,433754,2,0,P|320:316|420:332,1,170
376,265,434254,2,0,L|408:237,1,42.5
352,116,434587,2,0,P|392:96|440:100,1,85
288,64,434921,1,0,0:0:0:0:
272,144,435087,2,0,P|192:176|96:176,1,170
9,89,435587,1,0,0:0:0:0:
12,92,435671,1,0,0:0:0:0:
16,96,435754,1,0,0:0:0:0:
80,48,435921,1,0,0:0:0:0:
141,198,436087,6,0,P|152:152|140:104,1,85
64,232,436421,2,0,P|88:316|180:336,1,170
140,260,436921,1,0,0:0:0:0:
144,264,437087,2,0,L|212:208,1,85
256,296,437421,1,0,0:0:0:0:
305,233,437587,1,0,0:0:0:0:
308,236,437671,1,0,0:0:0:0:
312,240,437754,2,0,P|400:232|424:148,1,170
352,176,438254,1,0,0:0:0:0:
304,112,438421,5,0,0:0:0:0:
168,24,438754,1,0,0:0:0:0:
32,104,439087,2,0,P|12:192|20:276,1,170
104,264,439587,1,0,0:0:0:0:
246,327,439754,2,0,P|196:340|156:328,1,85
201,263,440087,2,0,P|246:252|290:264,1,85
352,320,440421,5,0,0:0:0:0:
112,96,440754,1,0,0:0:0:0:
352,320,441087,1,0,0:0:0:0:
480,32,441421,1,0,0:0:0:0:
288,200,441754,6,0,P|304:252|288:300,1,85
224,344,442087,2,0,P|216:288|232:240,1,85
320,120,442421,1,0,0:0:0:0:
144,224,442587,1,0,0:0:0:0:
320,120,442754,1,0,0:0:0:0:
144,224,442921,1,0,0:0:0:0:
256,192,443004,12,0,443671,0:0:0:0:
433,276,444421,6,0,L|444:148,1,127.5
440,110,444718,6,0,P|392:136|336:116,1,110.499994941712
150,36,445051,2,0,P|204:12|268:40,1,110.499994941712
341,121,445385,2,0,L|328:232,1,110.499994941712
183,331,445718,2,0,L|160:208,1,110.499994941712
150,36,446051,5,0,0:0:0:0:
64,201,446218,1,0,0:0:0:0:
67,204,446301,1,0,0:0:0:0:
71,208,446385,1,0,0:0:0:0:
238,124,446551,1,0,0:0:0:0:
52,93,446718,1,0,0:0:0:0:
172,227,446885,1,0,0:0:0:0:
329,162,447051,6,0,P|332:104|308:52,1,110.499994941712
196,9,447385,1,0,0:0:0:0:
115,183,447551,2,0,P|184:184|248:160,1,110.499994941712
376,103,447885,1,0,0:0:0:0:
481,227,448051,2,0,P|492:284|481:335,1,110.499994941712
309,349,448385,5,0,0:0:0:0:
339,206,448551,1,0,0:0:0:0:
201,253,448718,1,0,0:0:0:0:
380,285,448885,5,0,0:0:0:0:
383,288,448968,1,0,0:0:0:0:
387,292,449051,1,0,0:0:0:0:
187,331,449218,1,0,0:0:0:0:
248,123,449385,2,0,P|188:112|136:124,1,110.499994941712
191,233,449718,6,0,B|271:293|280:184|415:257,1,220.999989883423
333,344,450218,1,0,0:0:0:0:
454,292,450385,2,0,P|472:232|466:184,1,110.499994941712
493,4,450718,2,0,P|472:56|473:112,1,110.499994941712
437,189,451051,6,0,P|328:176|213:185,1,220.999989883423
53,247,451551,2,0,P|108:240|164:248,1,110.499994941712
312,272,451885,1,0,0:0:0:0:
114,336,452051,1,0,0:0:0:0:
149,131,452218,1,0,0:0:0:0:
255,315,452385,6,0,P|315:311|363:327,1,110.499994941712
140,377,452718,1,0,0:0:0:0:
37,274,452885,1,0,0:0:0:0:
40,277,452968,1,0,0:0:0:0:
44,281,453051,2,0,L|56:168,1,110.499994941712
72,32,453385,1,0,0:0:0:0:
134,163,453551,6,0,B|216:156|216:156|272:184|272:184|360:168,1,220.999989883423
469,148,454051,1,0,0:0:0:0:
269,75,454218,6,0,P|300:172|292:256,1,187.000005706787
271,281,454635,1,0,0:0:0:0:
243,303,454718,1,0,0:0:0:0:
211,316,454801,1,0,0:0:0:0:
176,319,454885,1,0,0:0:0:0:
141,311,454968,1,0,0:0:0:0:
104,288,455051,6,0,P|80:236|96:176,1,110.499994941712
159,128,455407,2,0,P|184:172|168:240,1,110.499994941712
64,124,455740,2,0,P|96:68|136:44,1,110.499994941712
256,72,456074,1,0,0:0:0:0:
376,48,456240,2,0,P|420:80|440:136,1,110.499994941712
432,228,456574,5,0,0:0:0:0:
332,340,456740,1,0,0:0:0:0:
180,296,456907,1,0,0:0:0:0:
176,152,457074,2,0,P|216:108|280:96,1,110.499994941712
412,52,457574,5,0,0:0:0:0:
360,144,457740,2,0,P|304:160|256:128,1,110.499994941712
196,96,458074,2,0,P|144:84|88:104,1,110.499994941712
96,212,458407,2,0,L|148:312,1,110.499994941712
256,344,458740,1,0,0:0:0:0:
372,296,458907,2,0,P|412:220|408:88,1,220.999989883423
296,60,459407,5,0,0:0:0:0:
112,152,459574,1,0,0:0:0:0:
376,300,459740,1,0,0:0:0:0:
204,76,460407,6,0,B|176:100|176:100|152:176,1,110.499994941712
212,248,460740,2,0,B|240:224|240:224|256:144,1,110.499994941712
304,76,461074,2,0,B|332:100|332:100|352:180,1,110.499994941712
300,248,461407,1,0,0:0:0:0:
256,344,461574,2,0,B|144:348|220:212|60:204,1,220.999989883423
184,112,462074,5,0,0:0:0:0:
344,16,462240,1,0,0:0:0:0:
320,272,462407,1,0,0:0:0:0:
164,320,462740,6,0,P|116:284|100:232,1,110.499994941712
256,192,463074,12,0,464740,0:0:0:0:
256,136,465074,6,0,L|256:236,2,85
256,192,465657,12,0,467074,0:0:0:0:
139,200,468407,6,0,L|151:332,2,127.5
327,245,469069,2,0,L|344:112,2,127.5
208,82,469732,5,0,0:0:0:0:
64,224,469898,1,0,0:0:0:0:
232,188,470064,1,0,0:0:0:0:
128,344,470230,1,0,0:0:0:0:
300,362,470395,1,0,0:0:0:0:
413,238,470561,1,0,0:0:0:0:
187,172,470727,2,0,L|208:300,1,127.5
202,322,471058,6,0,L|112:344,1,85
90,344,471307,1,0,0:0:0:0:
94,348,471390,1,0,0:0:0:0:
16,157,471556,1,0,0:0:0:0:
19,160,471639,1,0,0:0:0:0:
23,164,471721,2,0,L|112:188,1,85
125,188,471970,1,0,0:0:0:0:
129,192,472053,1,0,0:0:0:0:
298,91,472219,1,0,0:0:0:0:
301,94,472302,1,0,0:0:0:0:
305,98,472384,6,0,L|320:192,1,85
435,372,472716,2,0,L|452:272,1,85
488,120,473047,1,0,0:0:0:0:
116,312,473379,1,0,0:0:0:0:
373,200,473710,6,0,L|361:332,2,127.5
185,245,474373,2,0,L|168:112,2,127.5
304,82,475036,5,0,0:0:0:0:
448,224,475202,1,0,0:0:0:0:
280,188,475368,1,0,0:0:0:0:
384,344,475534,1,0,0:0:0:0:
212,362,475699,1,0,0:0:0:0:
99,238,475865,1,0,0:0:0:0:
325,172,476031,2,0,L|304:300,1,127.5
310,322,476362,6,0,L|400:344,1,85
422,344,476611,1,0,0:0:0:0:
418,348,476694,1,0,0:0:0:0:
496,157,476860,1,0,0:0:0:0:
493,160,476942,1,0,0:0:0:0:
489,164,477025,2,0,L|400:188,1,85
387,188,477274,1,0,0:0:0:0:
383,192,477357,1,0,0:0:0:0:
214,91,477523,1,0,0:0:0:0:
211,94,477605,1,0,0:0:0:0:
207,98,477688,6,0,L|192:192,1,85
77,372,478020,2,0,L|60:272,1,85
284,328,478351,2,0,L|192:296,1,85
71,165,478683,1,0,0:0:0:0:
258,102,478848,1,0,0:0:0:0:
352,280,479097,6,0,L|464:264,1,93.5000028533936
224,328,479428,2,0,P|188:298|144:288,1,93.5000028533936
248,184,479759,1,0,0:0:0:0:
352,280,479925,1,0,0:0:0:0:
248,184,480091,2,0,P|244:136|248:88,1,93.5000028533936
109,21,480422,6,0,L|152:220,1,187.000005706787
320,280,480920,1,0,0:0:0:0:
248,184,481085,1,0,0:0:0:0:
204,292,481251,1,0,0:0:0:0:
313,370,481417,2,0,L|320:276,1,93.5000028533936
476,208,481748,6,0,P|420:204|384:180,1,93.5000028533936
288,84,482080,1,0,0:0:0:0:
88,164,482246,2,0,B|180:152|236:208|224:280,1,187.000005706787
144,244,482743,1,0,0:0:0:0:
256,336,482909,6,0,P|368:328|448:336,1,187.000005706787
488,164,483406,2,0,P|432:160|384:164,1,93.5000028533936
244,240,483737,2,0,P|220:200|224:152,1,93.5000028533936
324,56,484069,1,0,0:0:0:0:
398,171,484235,1,0,0:0:0:0:
244,240,484400,6,0,L|144:228,1,93.5000028533936
12,120,484732,2,0,L|108:132,1,93.5000028533936
244,240,485063,1,0,0:0:0:0:
352,172,485229,1,0,0:0:0:0:
216,60,485395,2,0,P|208:112|212:156,1,93.5000028533936
360,340,485726,6,0,P|380:292|376:244,1,93.5000028533936
359,129,486058,2,0,P|280:172|192:136,1,187.000005706787
276,80,486555,1,0,0:0:0:0:
364,32,486721,2,0,P|416:16|472:32,1,93.5000028533936
316,200,487052,5,0,0:0:0:0:
200,104,487218,1,0,0:0:0:0:
204,108,487384,1,0,0:0:0:0:
156,280,487550,1,0,0:0:0:0:
80,148,487715,1,0,0:0:0:0:
84,152,487881,1,0,0:0:0:0:
220,200,488047,1,0,0:0:0:0:
148,48,488213,6,0,P|44:52|0:128,1,187.000005706787
256,48,489044,6,0,P|300:40|352:56,1,85
340,52,489378,1,0,0:0:0:0:
343,55,489544,1,0,0:0:0:0:
464,141,489711,2,0,B|408:220|360:132|312:149,1,170
316,147,490211,1,0,0:0:0:0:
172,332,490544,5,0,0:0:0:0:
176,336,490711,1,0,0:0:0:0:
48,240,490878,2,0,B|136:188|128:296|208:244,1,170
203,244,491378,1,0,0:0:0:0:
48,48,491711,6,0,L|48:144,1,85
128,208,492044,2,0,L|128:120,1,85
208,48,492378,2,0,P|272:96|340:52,1,170
340,52,492878,1,0,0:0:0:0:
476,204,493211,5,0,0:0:0:0:
480,208,493378,1,0,0:0:0:0:
400,288,493544,2,0,P|328:336|264:264,1,170
336,176,494044,2,0,L|332:268,1,85
340,260,494378,1,0,0:0:0:0:
204,252,494544,5,0,0:0:0:0:
208,256,494711,2,0,L|208:168,1,85
272,288,495044,2,0,P|200:332|140:284,1,170
64,144,495544,2,0,L|64:320,1,170
68,308,496044,1,0,0:0:0:0:
144,208,496211,2,0,L|144:32,1,170
224,192,496711,6,0,P|264:212|308:196,1,85
480,256,497044,2,0,P|440:280|400:268,1,85
224,320,497378,2,0,P|272:336|312:312,1,85
368,192,497711,6,0,B|308:148|428:120|368:40,1,170
371,44,498211,1,0,0:0:0:0:
288,144,498378,2,0,L|116:144,1,170
32,64,498878,2,0,L|216:64,1,170
337,317,499911,5,0,0:0:0:0:
340,320,499994,1,0,0:0:0:0:
344,324,500077,2,0,P|388:336|428:336,1,76.4999976654053
432,324,500408,6,0,L|408:168,1,152.999995330811
424,72,500740,2,0,P|368:76|308:108,1,101.999996887207
288,196,501071,1,0,0:0:0:0:
292,32,501237,1,0,0:0:0:0:
428,196,501403,1,0,0:0:0:0:
228,300,501569,6,0,B|168:288|84:288|84:288|96:216,1,203.999993774414
4,72,502066,1,0,0:0:0:0:
222,128,502232,2,0,B|282:116|366:116|366:116|354:44,1,203.999993774414
428,196,502729,2,0,P|412:260|408:304,1,101.999996887207
288,196,503060,6,0,P|220:132|264:40,1,203.999993774414
77,25,503558,1,0,0:0:0:0:
80,28,503641,1,0,0:0:0:0:
84,32,503723,2,0,P|68:88|68:140,1,101.999996887207
0,260,504055,1,0,0:0:0:0:
124,152,504221,6,0,P|220:120|328:140,1,203.999993774414
440,184,504718,1,0,0:0:0:0:
340,344,504884,2,0,B|288:372|288:372|252:308|240:232,1,203.999993774414
124,152,505381,1,0,0:0:0:0:
188,24,505547,1,0,0:0:0:0:
124,152,505712,6,0,B|92:288|92:288|136:300|160:336,1,203.999993774414
273,373,506210,1,0,0:0:0:0:
276,376,506292,1,0,0:0:0:0:
280,380,506375,2,0,P|260:332|272:284,1,101.999996887207
348,116,506707,1,0,0:0:0:0:
248,268,506873,6,0,B|168:204|128:316|36:240,1,203.999993774414
96,376,507370,1,0,0:0:0:0:
196,168,507536,2,0,P|188:112|204:52,1,101.999996887207
460,252,508033,2,0,P|420:288|364:296,1,85
192,288,508364,6,0,P|248:228|328:196,1,152.999995330811
404,136,509027,2,0,P|368:88|324:72,1,101.999996887207
228,208,509690,6,0,B|168:232|124:216|124:216|112:192|140:156,1,152.999995330811
208,80,510353,2,0,P|276:68|348:84,1,136
420,164,510850,6,0,B|448:220|424:276|424:276|396:300|344:288,1,170
256,232,511348,2,0,L|244:136,1,85
104,48,511679,2,0,L|116:136,1,85
256,232,512011,2,0,L|356:240,1,85
288,214,513756,5,0,0:0:0:0:
419,267,513922,1,0,0:0:0:0:
422,270,514005,1,0,0:0:0:0:
426,274,514088,2,0,P|452:216|436:160,1,110.499994941712
254,128,514419,1,0,0:0:0:0:
76,301,514585,1,0,0:0:0:0:
79,304,514668,1,0,0:0:0:0:
83,308,514751,1,0,0:0:0:0:
321,366,514917,1,0,0:0:0:0:
426,274,515082,6,0,P|448:196|372:144,1,165.749992412568
347,146,515414,2,0,P|296:172|243:142,1,110.499994941712
154,165,515745,1,0,0:0:0:0:
131,198,515828,1,0,0:0:0:0:
128,237,515911,1,0,0:0:0:0:
95,242,515994,1,0,0:0:0:0:
60,261,516077,1,0,0:0:0:0:
8,120,516243,1,0,0:0:0:0:
12,124,516408,6,0,L|32:72,3,55.2499974708558
60,51,516740,2,0,P|112:28|164:39,1,110.499994941712
280,126,517071,1,0,0:0:0:0:
314,148,517154,1,0,0:0:0:0:
355,154,517237,1,0,0:0:0:0:
395,144,517320,1,0,0:0:0:0:
428,118,517403,1,0,0:0:0:0:
349,57,517569,1,0,0:0:0:0:
280,126,517734,6,0,P|212:108|152:132,2,136
129,210,518698,1,0,0:0:0:0:
176,328,519049,2,0,P|208:296|232:256,1,68
255,223,519400,2,0,L|259:171,2,34
309,231,519751,1,0,0:0:0:0:
327,357,520102,1,0,0:0:0:0:
81,282,520433,5,0,0:0:0:0:
104,192,520598,1,0,0:0:0:0:
163,247,520764,1,0,0:0:0:0:
196,160,520930,1,0,0:0:0:0:
249,100,521095,1,0,0:0:0:0:
316,32,521261,1,0,0:0:0:0:
393,61,521427,1,0,0:0:0:0:
488,52,521593,1,0,0:0:0:0:
460,136,521758,1,0,0:0:0:0:
72,152,522090,5,0,0:0:0:0:
196,316,522233,1,0,0:0:0:0:
276,188,522400,1,0,0:0:0:0:
84,268,522567,1,0,0:0:0:0:
196,112,522733,1,0,0:0:0:0:
196,316,522900,1,0,0:0:0:0:
106,218,523067,2,0,P|171:160|291:208,1,203.999993774414
368,268,523567,6,0,P|328:292|268:284,1,101.999996887207
164,192,523900,2,0,P|208:180|272:188,1,101.999996887207
368,100,524233,2,0,P|320:84|268:92,1,101.999996887207
140,36,524567,1,0,0:0:0:0:
140,36,524650,1,0,0:0:0:0:
140,36,524733,1,0,0:0:0:0:
40,128,524900,2,0,L|40:240,2,101.999996887207
140,320,525400,5,0,0:0:0:0:
256,192,525567,1,0,0:0:0:0:
196,116,525733,2,0,P|300:104|372:176,1,203.999993774414
438,273,526233,5,0,0:0:0:0:
328,336,526400,2,0,L|216:336,1,101.999996887207
60,260,526733,2,0,L|164:260,1,101.999996887207
328,184,527067,2,0,L|220:184,1,101.999996887207
60,104,527400,2,0,P|120:104|172:104,1,101.999996887207
284,36,527733,5,0,0:0:0:0:
284,36,527817,1,0,0:0:0:0:
284,36,527900,1,0,0:0:0:0:
424,108,528067,5,0,0:0:0:0:
256,220,528233,1,0,0:0:0:0:
116,264,528400,2,0,B|184:196|56:160|152:80,1,203.999993774414
268,24,528900,1,0,0:0:0:0:
404,104,529067,1,0,0:0:0:0:
240,212,529233,1,0,0:0:0:0:
96,148,529400,1,0,0:0:0:0:
116,292,529567,2,0,P|176:320|240:312,1,101.999996887207
304,272,529900,2,0,P|360:264|408:280,1,101.999996887207
424,116,530233,6,0,P|444:172|440:220,2,101.999996887207
304,52,530733,1,0,0:0:0:0:
132,84,530900,1,0,0:0:0:0:
264,188,531067,1,0,0:0:0:0:
264,188,531150,1,0,0:0:0:0:
264,188,531233,1,0,0:0:0:0:
276,292,531400,6,0,L|168:324,2,101.999996887207
48,248,531900,2,0,L|152:220,2,101.999996887207
128,112,532400,1,0,0:0:0:0:
336,332,532733,1,0,0:0:0:0:
376,60,533067,1,0,0:0:0:0:
256,312,533733,5,0,0:0:0:0:
336,352,533886,1,0,0:0:0:0:
424,348,534053,1,0,0:0:0:0:
488,284,534220,1,0,0:0:0:0:
488,120,534386,5,0,0:0:0:0:
408,80,534553,1,0,0:0:0:0:
320,84,534720,1,0,0:0:0:0:
256,148,534886,1,0,0:0:0:0:
224,232,535053,5,0,0:0:0:0:
67,199,535220,1,0,0:0:0:0:
214,134,535386,1,0,0:0:0:0:
134,272,535553,1,0,0:0:0:0:
117,113,535720,1,0,0:0:0:0:
232,248,535886,1,0,0:0:0:0:
232,248,535970,1,0,0:0:0:0:
232,248,536053,1,0,0:0:0:0:
296,336,536220,1,0,0:0:0:0:
404,352,536386,6,0,P|440:312|456:272,1,85
480,184,536720,2,0,P|472:132|448:92,1,85
396,32,537053,2,0,P|352:20|304:24,1,85
200,32,537386,2,0,P|156:60|140:92,1,85
23,73,537720,5,0,0:0:0:0:
179,106,537886,1,0,0:0:0:0:
33,170,538053,1,0,0:0:0:0:
112,32,538220,1,0,0:0:0:0:
115,177,538386,1,0,0:0:0:0:
115,177,538470,1,0,0:0:0:0:
120,180,538553,1,0,0:0:0:0:
120,180,538636,1,0,0:0:0:0:
120,180,538720,1,0,0:0:0:0:
184,308,538886,1,0,0:0:0:0:
304,344,539053,6,0,P|356:352|404:332,1,85
488,228,539386,2,0,P|440:216|388:236,1,85
304,108,539720,2,0,P|356:116|404:96,1,85
208,60,540053,2,0,P|160:48|108:68,1,85
36,88,540386,5,0,0:0:0:0:
200,136,540553,1,0,0:0:0:0:
56,212,540720,1,0,0:0:0:0:
148,80,540886,1,0,0:0:0:0:
160,196,541053,2,0,P|164:244|188:280,1,85
202,289,541303,1,0,0:0:0:0:
216,303,541386,1,0,0:0:0:0:
352,348,541553,1,0,0:0:0:0:
464,260,541720,5,0,0:0:0:0:
428,140,541886,1,0,0:0:0:0:
324,72,542053,1,0,0:0:0:0:
324,196,542220,1,0,0:0:0:0:
200,228,542386,2,0,P|156:244|104:232,1,85
48,212,542720,2,0,P|40:164|56:124,1,85
120,56,543053,5,0,0:0:0:0:
296,56,543220,1,0,0:0:0:0:
208,56,543386,5,0,0:0:0:0:
388,56,543553,1,0,0:0:0:0:
344,132,543720,1,0,0:0:0:0:
73,82,544386,6,0,P|34:155|56:225,1,152.999995330811
119,270,545035,1,0,0:0:0:0:
163,152,545202,2,0,P|134:150|104:161,1,50.9999984436036
253,214,545535,1,0,0:0:0:0:
227,111,545702,6,0,P|326:152|343:246,1,203.999993774414
316,306,546535,1,0,0:0:0:0:
243,342,546702,1,0,0:0:0:0:
164,325,546869,1,0,0:0:0:0:
102,271,547035,6,0,L|92:164,1,101.999996887207
84,82,547535,1,0,0:0:0:0:
173,183,547702,2,0,P|205:195|233:187,1,50.9999984436036
309,125,548035,1,0,0:0:0:0:
282,243,548202,2,0,P|316:240|344:216,1,50.9999984436036
440,102,548535,2,0,P|404:100|372:112,1,50.9999984436036
381,310,548869,2,0,P|405:262|405:210,1,101.999996887207
301,289,549369,2,0,P|285:321|289:349,1,50.9999984436036
329,212,549702,5,0,0:0:0:0:
209,232,549869,1,0,0:0:0:0:
310,198,550035,1,0,0:0:0:0:
187,151,550202,2,0,P|140:188|124:244,1,95.6250036478044
128,259,550535,1,0,0:0:0:0:
52,127,550702,1,0,0:0:0:0:
69,312,550869,6,0,P|120:352|188:328,1,136
243,223,551369,1,0,0:0:0:0:
266,350,551535,2,0,P|328:360|372:300,1,136
356,238,552035,2,0,P|316:256|300:288,1,68
431,274,552369,6,0,B|484:200|472:132|384:136|327:182|327:182|359:114|352:52|264:56,1,408
170,106,553535,6,0,P|220:116|200:56,1,140.25000428009
100,162,553869,2,0,P|48:148|92:104,1,140.25000428009
173,228,554202,2,0,L|232:236,1,46.7500014266968
75,329,554369,2,0,L|24:336,1,46.7500014266968
453,167,555035,5,0,0:0:0:0:
369,227,555202,2,0,L|280:256,1,85
144,251,555535,5,0,0:0:0:0:
228,361,555702,2,0,L|320:336,1,85
437,323,556035,5,0,0:0:0:0:
304,208,556202,2,0,P|244:208|300:272,1,170
402,238,556702,1,0,0:0:0:0:
306,121,556869,2,0,L|130:101,1,170
105,226,557369,2,0,P|148:212|180:160,1,85
252,41,557702,5,0,0:0:0:0:
285,193,557869,2,0,L|289:285,1,85
149,341,558202,5,0,0:0:0:0:
182,189,558369,2,0,L|172:104,1,85
96,40,558702,5,0,0:0:0:0:
258,153,558869,2,0,L|344:164,1,85
435,109,559202,1,0,0:0:0:0:
331,69,559369,1,0,0:0:0:0:
427,196,559535,2,0,P|411:284|336:312,1,170
224,244,560035,1,0,0:0:0:0:
349,224,560202,1,0,0:0:0:0:
203,311,560369,6,0,L|72:324,1,127.5
44,325,560702,1,0,0:0:0:0:
111,205,560869,2,0,P|43:193|87:237,1,170
222,175,561369,1,0,0:0:0:0:
139,85,561535,1,0,0:0:0:0:
177,243,561702,6,0,P|244:252|296:196,1,127.5
308,171,562035,1,0,0:0:0:0:
383,48,562202,2,0,P|460:76|464:156,1,170
388,125,562702,1,0,0:0:0:0:
391,128,562869,1,0,0:0:0:0:
395,132,563035,6,0,P|344:128|312:96,1,93.5000028533936
249,0,563369,1,0,0:0:0:0:
183,108,563535,1,0,0:0:0:0:
175,146,563619,1,0,0:0:0:0:
167,185,563702,1,0,0:0:0:0:
114,50,563869,1,0,0:0:0:0:
260,157,564035,1,0,0:0:0:0:
55,158,564202,6,0,P|19:206|8:264,1,101.999996887207
113,248,564535,2,0,P|100:300|117:352,1,101.999996887207
200,297,564869,2,0,P|232:349|280:353,1,101.999996887207
420,297,565202,1,0,0:0:0:0:
306,290,565369,1,0,0:0:0:0:
454,229,565535,1,0,0:0:0:0:
80,280,565922,5,0,0:0:0:0:
16,232,566088,1,0,0:0:0:0:
16,152,566254,1,0,0:0:0:0:
80,104,566419,6,0,B|164:104|164:104|180:92|180:92|248:92,1,170
112,32,566917,2,0,L|200:32,1,85
192,168,567248,2,0,L|104:168,1,85
352,168,567580,1,0,0:0:0:0:
432,280,567745,6,0,B|348:280|348:280|332:292|332:292|264:292,1,170
400,352,568243,2,0,L|312:352,1,85
320,216,568574,2,0,L|408:216,1,85
160,216,568906,1,0,0:0:0:0:
320,352,569071,6,0,P|404:332|452:248,1,170
472,192,569569,1,0,0:0:0:0:
128,32,569900,5,0,0:0:0:0:
192,80,570066,1,0,0:0:0:0:
256,32,570232,1,0,0:0:0:0:
256,352,570563,1,0,0:0:0:0:
320,304,570729,1,0,0:0:0:0:
384,352,570895,6,0,B|412:288|412:288|432:272|432:272|460:196,1,170
480,136,571392,1,0,0:0:0:0:
424,72,571558,2,0,B|388:144|388:144|368:160|368:160|336:232,1,170
328,288,572055,1,0,0:0:0:0:
192,152,572221,6,0,L|208:236,1,85
320,80,572552,2,0,L|300:172,1,85
88,72,572884,6,0,B|116:140|116:140|116:172|116:172|144:236,1,170
46,207,573381,2,0,B|72:276|72:276|104:296|104:296|128:360,1,170
256,192,573878,12,0,575867,0:0:0:0:
264,240,576116,6,0,L|272:332,1,85
492,340,576446,6,0,P|508:292|500:236,1,85
352,65,576777,2,0,P|336:113|344:169,1,85
420,252,577109,1,0,0:0:0:0:
332,360,577275,1,0,0:0:0:0:
264,240,577440,1,0,0:0:0:0:
184,356,577606,6,0,P|100:360|20:312,1,170
4,164,578103,1,0,0:0:0:0:
156,80,578269,2,0,P|180:164|152:240,1,170
56,244,578766,1,0,0:0:0:0:
149,73,578932,5,0,0:0:0:0:
152,76,579015,1,0,0:0:0:0:
156,80,579098,2,0,P|196:72|244:84,1,85
472,176,579429,2,0,P|420:184|372:168,1,85
428,80,579761,1,0,0:0:0:0:
460,284,579927,1,0,0:0:0:0:
268,208,580092,1,0,0:0:0:0:
472,176,580258,6,0,P|500:260|468:344,1,170
356,292,580755,1,0,0:0:0:0:
220,364,580921,2,0,P|172:364|120:344,1,85
121,97,581253,1,0,0:0:0:0:
124,100,581335,1,0,0:0:0:0:
128,104,581418,2,0,P|180:96|216:100,1,85
400,168,581750,5,0,0:0:0:0:
400,168,581833,1,0,0:0:0:0:
400,168,581916,1,0,0:0:0:0:
256,300,582081,1,0,0:0:0:0:
256,300,582164,1,0,0:0:0:0:
256,300,582247,1,0,0:0:0:0:
116,196,582413,5,0,0:0:0:0:
256,84,582579,1,0,0:0:0:0:
396,196,582744,1,0,0:0:0:0:
256,300,582910,1,0,0:0:0:0:
191,156,583076,6,0,L|107:200,1,85
28,116,583407,1,0,0:0:0:0:
128,48,583573,2,0,P|208:20|284:48,1,170
384,116,584070,1,0,0:0:0:0:
296,184,584236,1,0,0:0:0:0:
196,116,584402,5,0,0:0:0:0:
40,200,584568,1,0,0:0:0:0:
188,288,584733,1,0,0:0:0:0:
196,116,584899,2,0,P|232:88|288:88,1,85
400,128,585231,1,0,0:0:0:0:
400,128,585313,1,0,0:0:0:0:
400,128,585396,1,0,0:0:0:0:
332,280,585562,5,0,0:0:0:0:
192,344,585728,1,0,0:0:0:0:
244,160,585894,1,0,0:0:0:0:
328,276,586059,1,0,0:0:0:0:
136,268,586225,2,0,B|4:244|4:124|152:112,1,255
336,52,587054,6,0,P|288:40|244:52,1,85
376,140,587363,2,0,P|412:112|428:56,1,85
280,128,587694,2,0,P|268:176|280:220,1,85
428,252,588026,1,0,0:0:0:0:
432,256,588192,6,0,P|340:248|252:260,1,170
132,328,588689,2,0,P|88:252|124:184,1,170
48,104,589186,1,0,0:0:0:0:
68,240,589352,1,0,0:0:0:0:
224,92,589518,5,0,0:0:0:0:
228,96,589849,2,0,L|324:84,1,85
420,64,590181,1,0,0:0:0:0:
212,112,590346,2,0,L|308:100,1,85
420,64,590678,1,0,0:0:0:0:
396,236,590844,5,0,0:0:0:0:
400,240,591175,1,0,0:0:0:0:
356,340,591341,1,0,0:0:0:0:
484,296,591507,1,0,0:0:0:0:
320,176,591672,2,0,L|228:184,1,85
156,272,592004,1,0,0:0:0:0:
93,73,592170,1,0,0:0:0:0:
104,192,592335,5,0,0:0:0:0:
200,256,592585,1,0,0:0:0:0:
208,264,592668,1,0,0:0:0:0:
216,272,592751,1,0,0:0:0:0:
264,192,592918,5,0,0:0:0:0:
272,192,593001,1,0,0:0:0:0:
280,192,593085,1,0,0:0:0:0:
200,128,593251,5,0,0:0:0:0:
208,120,593335,1,0,0:0:0:0:
216,112,593418,1,0,0:0:0:0:
420,188,593668,5,0,0:0:0:0:
424,192,593751,1,0,0:0:0:0:
400,104,593918,2,0,P|360:136|336:176,1,85
360,256,594251,2,0,P|280:228|256:152,1,170
304,72,594751,1,0,0:0:0:0:
216,72,594918,1,0,0:0:0:0:
80,196,595251,5,0,0:0:0:0:
168,196,595418,1,0,0:0:0:0:
256,192,595585,1,0,0:0:0:0:
344,192,595751,1,0,0:0:0:0:
469,313,596085,5,0,0:0:0:0:
472,316,596168,1,0,0:0:0:0:
476,320,596251,2,0,L|304:320,1,170
212,320,596751,1,0,0:0:0:0:
124,320,596918,1,0,0:0:0:0:
36,320,597085,1,0,0:0:0:0:
386,208,597418,5,0,0:0:0:0:
224,352,597559,1,0,0:0:0:0:
252,148,597726,6,0,P|264:112|300:80,1,85
302,82,597976,1,0,0:0:0:0:
305,85,598059,1,0,0:0:0:0:
372,236,598226,1,0,0:0:0:0:
252,148,598393,1,0,0:0:0:0:
224,296,598559,1,0,0:0:0:0:
124,172,598726,1,0,0:0:0:0:
84,312,598893,1,0,0:0:0:0:
128,176,599059,6,0,P|168:160|204:116,1,85
298,78,599393,2,0,P|336:64|382:70,1,85
463,118,599726,1,0,0:0:0:0:
468,280,599893,1,0,0:0:0:0:
312,232,600059,1,0,0:0:0:0:
176,320,600226,1,0,0:0:0:0:
92,192,600393,6,0,P|96:152|120:112,1,85
116,116,600643,1,0,0:0:0:0:
119,119,600726,1,0,0:0:0:0:
240,192,600893,2,0,P|272:220|316:232,1,85
412,160,601226,1,0,0:0:0:0:
424,24,601393,1,0,0:0:0:0:
284,80,601559,1,0,0:0:0:0:
412,160,601726,1,0,0:0:0:0:
288,328,602059,6,0,P|220:332|160:296,1,127.5
144,280,602425,1,0,0:0:0:0:
416,72,602758,6,0,P|404:116|412:164,1,85
438,246,603092,1,0,0:0:0:0:
442,250,603258,1,0,0:0:0:0:
445,253,603342,1,0,0:0:0:0:
448,256,603425,2,0,P|392:268|348:256,1,85
242,192,603758,5,0,0:0:0:0:
246,196,603925,1,0,0:0:0:0:
249,199,604008,1,0,0:0:0:0:
252,202,604092,2,0,P|196:190|148:202,1,85
64,240,604425,5,0,0:0:0:0:
196,320,604592,1,0,0:0:0:0:
288,192,604758,1,0,0:0:0:0:
164,104,604925,1,0,0:0:0:0:
64,240,605092,1,0,0:0:0:0:
64,240,605258,1,0,0:0:0:0:
64,240,605342,1,0,0:0:0:0:
64,240,605425,2,0,P|104:220|136:180,1,85
304,120,605758,5,0,0:0:0:0:
144,320,606092,1,0,0:0:0:0:
424,308,606425,2,0,P|452:268|456:232,1,85
444,204,606675,1,0,0:0:0:0:
424,172,606758,2,0,P|420:128|432:88,1,85
348,56,607092,2,0,P|300:68|252:60,1,85
176,44,607425,2,0,P|132:28|88:56,1,85
40,132,607758,1,0,0:0:0:0:
212,64,608092,5,0,0:0:0:0:
217,217,608258,1,0,0:0:0:0:
220,220,608342,1,0,0:0:0:0:
224,224,608425,6,0,P|268:252|320:240,1,85
356,136,608758,1,0,0:0:0:0:
456,264,608925,2,0,L|500:296,2,46.7500014266968
304,204,609258,1,0,0:0:0:0:
448,128,609425,5,0,0:0:0:0:
284,285,609592,1,0,0:0:0:0:
164,96,609758,6,0,P|212:80|260:104,2,85
92,240,610258,1,0,0:0:0:0:
0,288,610425,2,0,L|24:204,1,85
172,232,610758,2,0,L|148:320,1,85
208,384,611092,6,0,L|252:216,1,170
213,33,611592,1,0,0:0:0:0:
216,36,611675,1,0,0:0:0:0:
220,40,611758,1,0,0:0:0:0:
360,120,611925,1,0,0:0:0:0:
200,128,612092,5,0,0:0:0:0:
428,76,612258,1,0,0:0:0:0:
356,296,612425,6,0,P|268:312|208:256,1,170
297,129,612925,1,0,0:0:0:0:
300,132,613008,1,0,0:0:0:0:
304,136,613092,2,0,P|304:88|288:52,1,85
132,4,613425,2,0,P|140:56|168:104,1,85
236,224,613758,5,0,0:0:0:0:
96,140,613925,1,0,0:0:0:0:
244,68,614092,1,0,0:0:0:0:
373,265,614258,5,0,0:0:0:0:
376,268,614342,1,0,0:0:0:0:
380,272,614425,1,0,0:0:0:0:
312,124,614592,1,0,0:0:0:0:
256,276,614758,1,0,0:0:0:0:
369,57,614925,5,0,0:0:0:0:
372,60,615008,1,0,0:0:0:0:
376,64,615092,1,0,0:0:0:0:
404,224,615258,1,0,0:0:0:0:
500,92,615425,1,0,0:0:0:0:
268,168,615592,5,0,0:0:0:0:
144,144,615758,2,0,L|148:232,1,85
276,340,616092,2,0,L|272:256,1,85
256,192,616425,12,0,617758,0:0:0:0:
167,218,618425,6,0,L|144:300,1,85
226,342,618771,1,0,0:0:0:0:
425,280,619102,2,0,P|376:224|280:192,1,170
196,160,619600,1,0,0:0:0:0:
116,120,619765,2,0,P|144:84|196:68,2,85
104,240,620263,1,0,0:0:0:0:
212,312,620428,6,0,P|296:300|352:232,1,170
388,144,620926,1,0,0:0:0:0:
288,80,621091,2,0,P|260:116|256:160,2,85
388,144,621589,1,0,0:0:0:0:
464,228,621754,2,0,P|388:276|300:268,1,170
204,216,622252,1,0,0:0:0:0:
276,136,622417,2,0,P|352:88|440:96,1,170
500,176,622915,1,0,0:0:0:0:
448,272,623080,2,0,P|364:312|284:292,1,170
188,232,623578,5,0,0:0:0:0:
100,124,623743,1,0,0:0:0:0:
192,20,623909,1,0,0:0:0:0:
192,20,623992,1,0,0:0:0:0:
192,20,624075,2,0,P|240:20|288:52,1,85
376,100,624406,6,0,B|332:152|412:196|368:276,1,170
292,332,624904,1,0,0:0:0:0:
200,264,625069,2,0,B|244:212|164:168|208:88,1,170
292,40,625567,1,0,0:0:0:0:
388,100,625732,2,0,P|312:148|220:132,1,170
120,84,626230,5,0,0:0:0:0:
16,160,626395,2,0,B|48:208|32:252|32:252|72:224|116:248,1,170
208,280,626893,1,0,0:0:0:0:
256,192,627058,12,0,628053,0:0:0:0:
360,104,628219,5,0,0:0:0:0:
256,192,628384,2,0,P|208:200|160:188,1,85
92,120,628716,1,0,0:0:0:0:
176,36,628881,2,0,P|272:36|336:84,1,170
400,164,629379,1,0,0:0:0:0:
292,169,629690,5,0,0:0:0:0:
317,60,629854,1,0,0:0:0:0:
124,167,630019,1,0,0:0:0:0:
102,54,630184,1,0,0:0:0:0:
292,169,630349,5,0,0:0:0:0:
312,265,630514,1,0,0:0:0:0:
296,273,630596,1,0,0:0:0:0:
279,281,630679,1,0,0:0:0:0:
171,204,630843,1,0,0:0:0:0:
232,110,631008,6,0,P|272:108|312:136,1,85
408,288,631338,1,0,0:0:0:0:
411,291,631420,1,0,0:0:0:0:
415,295,631503,2,0,L|455:327,2,42.5
151,314,631832,5,0,0:0:0:0:
345,163,631997,1,0,0:0:0:0:
155,318,632162,1,0,0:0:0:0:
349,167,632327,6,0,L|357:259,1,85
156,321,632657,2,0,L|148:225,1,85
320,343,632986,5,0,0:0:0:0:
364,336,633069,1,0,0:0:0:0:
401,312,633151,1,0,0:0:0:0:
426,275,633233,1,0,0:0:0:0:
433,231,633316,1,0,0:0:0:0:
334,132,633563,1,0,0:0:0:0:
327,266,633728,5,0,0:0:0:0:
214,55,633893,1,0,0:0:0:0:
90,267,634058,1,0,0:0:0:0:
93,270,634140,1,0,0:0:0:0:
97,274,634222,2,0,L|88:208,2,42.5
268,368,634552,5,0,0:0:0:0:
308,152,634717,2,0,P|344:96|304:24,1,127.5
276,88,635047,6,0,P|228:84|172:92,1,85
151,106,635376,1,0,0:0:0:0:
358,179,635541,1,0,0:0:0:0:
366,186,635706,6,0,P|378:234|366:274,1,85
133,192,636036,2,0,P|136:144|152:104,1,85
199,274,636365,5,0,0:0:0:0:
307,156,636530,1,0,0:0:0:0:
437,303,636695,2,0,P|393:323|345:319,1,85
396,127,637025,6,0,P|408:171|396:211,1,85
388,228,637272,1,0,0:0:0:0:
378,248,637354,1,0,0:0:0:0:
263,162,637519,1,0,0:0:0:0:
125,323,637684,6,0,P|173:335|217:323,1,85
242,313,637931,2,0,P|290:305|326:317,1,85
367,295,638179,2,0,L|391:211,1,85
408,170,638426,2,0,L|388:84,1,85
354,63,638673,2,0,P|302:55|254:67,1,85
59,145,639003,5,0,0:0:0:0:
135,291,639168,1,0,0:0:0:0:
138,294,639250,1,0,0:0:0:0:
142,298,639332,1,0,0:0:0:0:
261,227,639497,1,0,0:0:0:0:
170,80,639662,1,0,0:0:0:0:
196,80,639744,6,0,L|332:92,2,127.5
164,320,640410,6,0,P|148:264|108:232,1,101.999996887207
36,124,640744,1,0,0:0:0:0:
76,292,640910,1,0,0:0:0:0:
132,117,641077,2,0,L|28:124,1,101.999996887207
228,220,641410,2,0,L|332:228,1,101.999996887207
372,84,641744,6,0,L|268:88,1,101.999996887207
436,160,642077,1,0,0:0:0:0:
476,8,642244,1,0,0:0:0:0:
480,12,642410,2,0,P|420:8|368:32,1,101.999996887207
232,160,642744,1,0,0:0:0:0:
97,17,642910,1,0,0:0:0:0:
100,20,642994,1,0,0:0:0:0:
104,24,643077,6,0,L|128:136,1,101.999996887207
216,264,643410,1,0,0:0:0:0:
60,192,643577,1,0,0:0:0:0:
64,196,643744,1,0,0:0:0:0:
228,156,643910,1,0,0:0:0:0:
108,280,644077,1,0,0:0:0:0:
232,160,644244,1,0,0:0:0:0:
320,296,644410,6,0,L|432:288,1,101.999996887207
472,164,644744,1,0,0:0:0:0:
348,108,644910,1,0,0:0:0:0:
284,224,645077,2,0,L|396:216,1,101.999996887207
348,108,645410,1,0,0:0:0:0:
149,193,645577,1,0,0:0:0:0:
152,196,645660,1,0,0:0:0:0:
156,200,645744,5,0,0:0:0:0:
415,284,646077,1,0,0:0:0:0:
256,32,646410,2,0,L|272:136,1,101.999996887207
308,372,646910,6,0,L|332:156,1,203.999993774414
415,284,647410,1,0,0:0:0:0:
222,318,647577,2,0,L|250:106,1,203.999993774414
344,36,648077,1,0,0:0:0:0:
141,53,648244,1,0,0:0:0:0:
144,56,648327,1,0,0:0:0:0:
148,60,648410,6,0,P|76:120|108:224,1,203.999993774414
100,216,649077,1,0,0:0:0:0:
340,256,649244,1,0,0:0:0:0:
168,152,649410,1,0,0:0:0:0:
296,336,649577,2,0,L|508:336,1,203.999993774414
491,343,650077,1,0,0:0:0:0:
436,200,650244,2,0,L|420:96,2,101.999996887207
170,180,650910,1,0,0:0:0:0:
48,128,651077,6,0,P|80:88|116:76,1,85
220,36,651424,1,0,0:0:0:0:
372,72,651591,2,0,P|340:156|252:192,1,170
160,204,652091,1,0,0:0:0:0:
60,280,652257,6,0,P|128:332|224:320,1,170
328,272,652757,1,0,0:0:0:0:
432,196,652924,2,0,P|352:144|264:152,1,170
160,204,653424,1,0,0:0:0:0:
44,324,653757,5,0,0:0:0:0:
312,144,654091,1,0,0:0:0:0:
56,40,654424,2,0,B|80:100|80:100|76:136|76:136|116:200,1,170
204,244,654924,1,0,0:0:0:0:
300,200,655091,2,0,B|324:140|324:140|320:104|320:104|360:40,1,170
460,32,655757,5,0,0:0:0:0:
204,244,656091,1,0,0:0:0:0:
64,204,656424,6,0,P|112:128|184:96,1,170
304,76,656924,2,0,L|408:96,1,85
392,96,657424,1,0,0:0:0:0:
424,224,657757,6,0,P|336:252|256:220,1,170
328,152,658257,2,0,P|280:140|228:156,1,85
272,228,658591,2,0,P|228:240|180:224,1,85
136,292,658924,2,0,P|108:212|156:148,1,170
248,92,659424,5,0,0:0:0:0:
396,232,659591,1,0,0:0:0:0:
200,292,659757,1,0,0:0:0:0:
248,92,659924,1,0,0:0:0:0:
396,232,660091,1,0,0:0:0:0:
200,292,660257,1,0,0:0:0:0:
256,192,660341,12,0,661424,0:0:0:0:
256,120,661727,5,0,0:0:0:0:
214,253,661893,1,0,0:0:0:0:
322,171,662060,1,0,0:0:0:0:
189,171,662227,1,0,0:0:0:0:
296,252,662393,1,0,0:0:0:0:
432,236,662560,1,0,0:0:0:0:
464,216,662643,1,0,0:0:0:0:
488,188,662727,2,0,P|508:144|508:92,1,85
348,28,663060,6,0,P|324:76|320:116,1,85
324,144,663310,1,0,0:0:0:0:
344,172,663393,1,0,0:0:0:0:
468,308,663560,1,0,0:0:0:0:
436,332,663643,1,0,0:0:0:0:
404,344,663727,2,0,P|352:344|304:320,1,85
228,268,664060,2,0,P|184:236|168:196,1,85
284,76,664393,6,0,B|328:36|344:120|424:68,1,127.500004863739
480,164,664893,1,0,0:0:0:0:
416,248,665060,1,0,0:0:0:0:
316,208,665227,1,0,0:0:0:0:
276,208,665310,1,0,0:0:0:0:
240,224,665393,1,0,0:0:0:0:
148,316,665560,1,0,0:0:0:0:
12,228,665727,6,0,L|12:140,1,85
116,164,666060,2,0,L|116:248,1,85
220,280,666393,2,0,L|220:192,1,85
324,220,666727,2,0,L|324:308,1,85
496,336,667060,5,0,0:0:0:0:
428,252,667227,1,0,0:0:0:0:
324,220,667393,2,0,P|272:224|224:252,2,85
480,128,667893,1,0,0:0:0:0:
452,96,667977,1,0,0:0:0:0:
420,72,668060,2,0,P|376:48|336:40,1,85
192,124,668393,6,0,B|228:160|228:160|268:172,1,85
224,288,668727,2,0,B|200:240|200:240|156:224,1,85
156,124,669060,2,0,B|108:156|92:192|92:192|76:156|28:128,1,170
196,24,669560,1,0,0:0:0:0:
232,44,669643,1,0,0:0:0:0:
256,76,669727,6,0,P|268:144|248:200,1,127.500004863739
80,276,670227,1,0,0:0:0:0:
164,344,670393,2,0,P|208:364|248:360,1,85
348,316,670727,1,0,0:0:0:0:
352,320,670810,2,0,L|400:300,2,42.5
308,312,671060,6,0,P|260:296|232:260,2,85
316,204,671560,1,0,0:0:0:0:
200,104,671727,2,0,P|160:136|144:188,1,85
312,280,672060,2,0,P|344:252|364:188,1,85
256,192,672393,5,0,0:0:0:0:
256,192,672477,12,0,674727,0:0:0:0:
216,144,675065,6,0,P|188:192|152:212,1,85
80,144,675731,2,0,P|104:108|152:88,1,85
152,56,676398,6,0,P|196:40|240:40,1,85
284,36,676898,1,0,0:0:0:0:
288,40,677065,2,0,P|304:84|300:124,1,85
312,208,677731,5,0,0:0:0:0:
265,305,678065,1,0,0:0:0:0:
268,308,678231,1,0,0:0:0:0:
272,312,678398,2,0,P|224:300|192:272,1,85
120,208,679065,5,0,0:0:0:0:
104,184,679398,1,0,0:0:0:0:
96,152,679731,1,0,0:0:0:0:
168,48,679898,1,0,0:0:0:0:
208,168,680065,1,0,0:0:0:0:
288,64,680231,1,0,0:0:0:0:
336,184,680398,5,0,0:0:0:0:
392,72,680565,1,0,0:0:0:0:
264,40,680731,2,0,P|240:80|232:128,1,85
224,232,681065,1,0,0:0:0:0:
320,248,681231,2,0,L|380:248,2,42.5
176,80,681731,5,0,0:0:0:0:
280,48,681898,1,0,0:0:0:0:
360,120,682065,2,0,P|376:168|372:204,1,85
336,264,682398,1,0,0:0:0:0:
248,256,682565,2,0,L|204:224,2,42.5
248,344,682898,1,0,0:0:0:0:
168,312,683065,6,0,L|120:280,2,42.5
128,208,683398,2,0,L|88:180,2,42.5
120,112,683731,1,0,0:0:0:0:
176,40,683898,1,0,0:0:0:0:
269,37,684065,1,0,0:0:0:0:
352,80,684231,1,0,0:0:0:0:
392,192,684398,6,0,P|404:104|468:56,2,170
424,280,685398,1,0,0:0:0:0:
232,224,685731,5,0,0:0:0:0:
160,112,685898,1,0,0:0:0:0:
280,152,686065,1,0,0:0:0:0:
160,192,686231,1,0,0:0:0:0:
240,88,686398,1,0,0:0:0:0:
288,120,688392,6,0,P|308:168|304:208,1,85
296,272,688725,2,0,P|252:288|208:280,1,85
36,108,689058,1,0,0:0:0:0:
40,112,689142,2,0,L|52:168,1,42.5
96,216,689392,2,0,P|140:232|184:232,1,85
336,46,689725,5,0,0:0:0:0:
160,160,689892,1,0,0:0:0:0:
256,336,690058,2,0,L|296:352,1,42.5
368,320,690308,2,0,L|408:336,1,42.5
244,100,690558,1,0,0:0:0:0:
248,104,690725,1,0,0:0:0:0:
112,304,690892,1,0,0:0:0:0:
160,160,691058,6,0,P|208:152|248:168,1,85
304,208,691392,2,0,P|312:256|296:296,1,85
248,344,691725,2,0,P|200:352|160:336,1,85
88,168,692058,1,0,0:0:0:0:
264,40,692225,6,0,P|348:56|384:136,1,170
408,272,692725,1,0,0:0:0:0:
248,344,692892,1,0,0:0:0:0:
224,176,693058,2,0,P|240:136|288:104,1,85
356,120,693392,2,0,P|320:168|284:184,1,85
120,96,693725,6,0,P|68:92|28:104,1,85
0,192,694058,2,0,P|16:236|52:264,1,85
244,340,694392,1,0,0:0:0:0:
248,344,694475,2,0,L|300:360,1,42.5
320,264,694725,2,0,P|372:244|404:248,1,85
192,144,695058,5,0,0:0:0:0:
384,304,695225,1,0,0:0:0:0:
164,212,695392,2,0,L|100:212,1,42.5
136,288,695642,2,0,L|72:288,1,42.5
212,68,695892,1,0,0:0:0:0:
216,72,696058,1,0,0:0:0:0:
304,280,696225,1,0,0:0:0:0:
328,64,696392,6,0,P|372:52|420:64,1,85
480,80,696725,2,0,P|492:124|480:172,1,85
456,224,697058,2,0,P|412:236|364:224,1,85
216,72,697392,1,0,0:0:0:0:
56,240,697558,6,0,P|100:288|200:316,1,170
392,272,698058,1,0,0:0:0:0:
336,104,698225,1,0,0:0:0:0:
216,236,698392,2,0,P|168:236|120:200,1,85
109,138,698725,2,0,P|156:144|200:176,1,85
256,344,699058,5,0,0:0:0:0:
311,159,699225,1,0,0:0:0:0:
314,162,699308,1,0,0:0:0:0:
318,166,699392,2,0,P|356:140|400:136,1,85
292,68,699725,1,0,0:0:0:0:
380,212,699892,1,0,0:0:0:0:
300,60,700058,1,0,0:0:0:0:
372,220,700225,1,0,0:0:0:0:
448,56,700392,5,0,0:0:0:0:
433,249,700558,1,0,0:0:0:0:
436,252,700642,1,0,0:0:0:0:
440,256,700725,2,0,P|400:276|352:272,1,85
140,164,701058,1,0,0:0:0:0:
284,76,701225,1,0,0:0:0:0:
372,220,701392,1,0,0:0:0:0:
228,308,701558,2,0,P|180:312|140:292,1,85
193,113,701892,5,0,0:0:0:0:
196,116,701975,1,0,0:0:0:0:
200,120,702058,2,0,P|212:168|200:208,1,85
136,240,702392,2,0,L|40:280,1,85
48,192,702725,2,0,L|124:156,1,85
200,208,703058,6,0,P|232:236|292:240,1,85
228,308,703392,2,0,P|268:332|324:332,1,85
384,236,703725,1,0,0:0:0:0:
320,104,703892,1,0,0:0:0:0:
200,208,704058,1,0,0:0:0:0:
392,152,704225,1,0,0:0:0:0:
256,32,704392,5,0,0:0:0:0:
72,256,704725,1,0,0:0:0:0:
380,316,705058,2,0,L|392:256,1,42.5
296,304,705308,2,0,L|296:248,1,42.5
224,360,705558,6,0,P|208:280|264:196,1,170
432,88,706058,1,0,0:0:0:0:
352,240,706225,1,0,0:0:0:0:
248,88,706392,2,0,B|160:48|108:84|132:144|204:136|212:80|96:20,1,255.000009727478
468,256,707142,6,0,P|391:195|275:223,1,203.999993774414
204,248,707599,1,0,0:0:0:0:
204,248,707682,1,0,0:0:0:0:
204,248,707764,1,0,0:0:0:0:
76,344,707930,1,0,0:0:0:0:
204,248,708096,1,0,0:0:0:0:
76,140,708262,1,0,0:0:0:0:
204,64,708427,5,0,0:0:0:0:
204,64,708510,1,0,0:0:0:0:
204,64,708593,2,0,P|256:52|316:72,1,101.999996887207
400,112,708925,1,0,0:0:0:0:
360,220,709090,1,0,0:0:0:0:
360,220,709173,1,0,0:0:0:0:
360,220,709256,2,0,P|308:272|260:284,1,101.999996887207
200,344,709671,1,0,0:0:0:0:
200,344,709753,6,0,P|196:240|276:188,1,203.999993774414
460,240,710251,1,0,0:0:0:0:
460,240,710334,1,0,0:0:0:0:
460,240,710416,2,0,P|376:264|312:236,1,152.999995330811
388,168,710914,2,0,P|332:156|272:172,1,101.999996887207
168,68,711411,2,0,L|188:180,1,101.999996887207
288,136,711742,2,0,L|268:248,1,101.999996887207
168,196,712074,2,0,L|188:308,1,101.999996887207
64,152,712571,5,0,0:0:0:0:
64,152,712737,2,0,P|108:124|164:120,1,101.999996887207
184,116,712985,1,0,0:0:0:0:
212,120,713068,2,0,P|264:136|312:128,1,101.999996887207
392,80,713400,1,0,0:0:0:0:
392,80,713566,1,0,0:0:0:0:
448,232,713897,5,0,0:0:0:0:
448,232,714063,2,0,P|404:260|348:264,1,101.999996887207
328,268,714311,1,0,0:0:0:0:
300,264,714394,2,0,P|248:248|200:256,1,101.999996887207
120,304,714726,1,0,0:0:0:0:
120,304,714892,1,0,0:0:0:0:
44,172,715223,5,0,0:0:0:0:
328,88,715389,1,0,0:0:0:0:
176,28,715886,5,0,0:0:0:0:
320,284,716052,1,0,0:0:0:0:
184,152,716383,6,0,P|140:188|136:240,1,101.999996887207
136,264,716632,2,0,P|180:296|232:296,1,101.999996887207
256,280,716881,2,0,L|280:208,1,50.9999984436036
308,212,717046,2,0,B|352:240|392:264|372:316|324:304|312:264|424:208,1,203.999993774414
256,272,717709,6,0,P|200:248|160:256,1,101.999996887207
144,248,717975,1,0,0:0:0:0:
132,252,718058,2,0,L|108:144,1,101.999996887207
280,96,718391,2,0,P|292:148|272:192,1,101.999996887207
184,128,718725,2,0,P|176:76|200:28,1,101.999996887207
356,52,719058,6,0,L|468:44,1,101.999996887207
467,44,719308,1,0,0:0:0:0:
470,47,719391,1,0,0:0:0:0:
424,132,719558,1,0,0:0:0:0:
312,128,719725,2,0,P|300:180|316:228,1,101.999996887207
200,256,720058,2,0,P|212:204|196:156,1,101.999996887207
116,192,720391,5,0,0:0:0:0:
120,196,720558,2,0,L|12:188,1,101.999996887207
112,296,720891,1,0,0:0:0:0:
184,344,721058,2,0,L|292:356,1,101.999996887207
312,344,721308,1,0,0:0:0:0:
316,348,721391,2,0,L|424:356,1,101.999996887207
384,292,721725,5,0,0:0:0:0:
252,268,721891,1,0,0:0:0:0:
256,272,721975,1,0,0:0:0:0:
172,164,722141,1,0,0:0:0:0:
176,168,722225,1,0,0:0:0:0:
264,72,722391,2,0,L|368:32,1,101.999996887207
366,31,722641,1,0,0:0:0:0:
369,34,722725,1,0,0:0:0:0:
145,37,722891,5,0,0:0:0:0:
148,40,722975,1,0,0:0:0:0:
152,44,723058,2,0,P|132:100|152:156,1,101.999996887207
272,272,723391,2,0,P|292:216|272:160,1,101.999996887207
84,264,723725,2,0,P|116:304|172:312,1,101.999996887207
167,320,723975,2,0,L|332:344,1,152.999995330811
400,320,724391,5,0,0:0:0:0:
484,244,724558,1,0,0:0:0:0:
488,248,724641,1,0,0:0:0:0:
376,196,724808,1,0,0:0:0:0:
380,200,724891,1,0,0:0:0:0:
468,112,725058,6,0,P|412:100|340:104,1,101.999996887207
332,100,725308,1,0,0:0:0:0:
300,108,725391,1,0,0:0:0:0:
268,104,725475,1,0,0:0:0:0:
240,92,725558,1,0,0:0:0:0:
208,88,725641,1,0,0:0:0:0:
176,84,725725,2,0,P|116:104|60:100,1,101.999996887207
44,88,725975,1,0,0:0:0:0:
48,92,726058,2,0,L|64:196,1,101.999996887207
48,312,726391,5,0,0:0:0:0:
140,252,726558,1,0,0:0:0:0:
152,256,726641,1,0,0:0:0:0:
164,260,726725,1,0,0:0:0:0:
176,264,726808,1,0,0:0:0:0:
188,268,726891,1,0,0:0:0:0:
200,272,726975,1,0,0:0:0:0:
212,276,727058,1,0,0:0:0:0:
376,220,727308,1,0,0:0:0:0:
232,104,727558,1,0,0:0:0:0:
324,136,727725,5,0,0:0:0:0:
245,205,727891,1,0,0:0:0:0:
248,208,727975,1,0,0:0:0:0:
252,212,728058,1,0,0:0:0:0:
328,292,728225,1,0,0:0:0:0:
149,337,728391,6,0,P|132:276|140:232,1,101.999996887207
138,238,728641,1,0,0:0:0:0:
142,242,728725,2,0,P|152:192|132:136,1,101.999996887207
56,72,729058,1,0,0:0:0:0:
160,36,729225,1,0,0:0:0:0:
268,112,729391,1,0,0:0:0:0:
388,48,729558,1,0,0:0:0:0:
461,121,729725,6,0,P|412:164|396:212,1,101.999996887207
398,203,729975,1,0,0:0:0:0:
402,207,730058,2,0,P|409:256|417:312,1,101.999996887207
312,280,730391,1,0,0:0:0:0:
224,336,730558,1,0,0:0:0:0:
228,256,730725,1,0,0:0:0:0:
304,196,730891,1,0,0:0:0:0:
360,120,731058,6,0,P|408:100|440:100,1,85
448,101,731391,1,0,0:0:0:0:
208,64,731725,6,0,P|152:36|80:40,1,127.5
84,39,732058,1,0,0:0:0:0:
256,248,732391,5,0,0:0:0:0:
340,200,732558,1,0,0:0:0:0:
248,116,732725,1,0,0:0:0:0:
208,216,732891,1,0,0:0:0:0:
208,64,733058,5,0,0:0:0:0:
281,185,733225,1,0,0:0:0:0:
284,188,733308,1,0,0:0:0:0:
288,192,733391,2,0,L|384:204,1,85
464,132,733725,5,0,0:0:0:0:
440,272,733891,1,0,0:0:0:0:
353,313,734058,1,0,0:0:0:0:
356,316,734141,2,0,P|315:299|256:312,1,85
274,301,734391,2,0,L|184:336,1,85
204,184,734725,2,0,L|116:200,1,85
256,60,735058,5,0,0:0:0:0:
168,48,735225,1,0,0:0:0:0:
284,140,735391,1,0,0:0:0:0:
288,144,735475,2,0,L|300:240,1,85
272,264,735725,1,0,0:0:0:0:
376,204,735891,1,0,0:0:0:0:
368,320,736058,1,0,0:0:0:0:
272,264,736225,1,0,0:0:0:0:
436,288,736391,5,0,0:0:0:0:
473,201,736558,1,0,0:0:0:0:
476,204,736641,1,0,0:0:0:0:
476,208,736725,2,0,L|476:112,1,85
321,61,737058,1,0,0:0:0:0:
325,65,737141,1,0,0:0:0:0:
329,69,737225,1,0,0:0:0:0:
332,72,737308,1,0,0:0:0:0:
336,76,737391,2,0,L|336:160,1,85
252,248,737725,6,0,P|260:192|232:140,1,101.999996887207
152,156,737975,2,0,P|136:208|168:268,1,101.999996887207
208,320,738225,1,0,0:0:0:0:
316,304,738391,1,0,0:0:0:0:
348,296,738475,1,0,0:0:0:0:
380,292,738558,1,0,0:0:0:0:
412,292,738641,1,0,0:0:0:0:
440,292,738725,1,0,0:0:0:0:
444,269,739058,2,0,P|380:205|404:133,1,170
425,73,739558,5,0,0:0:0:0:
428,76,739641,1,0,0:0:0:0:
432,80,739725,2,0,P|376:144|296:128,1,170
249,33,740225,5,0,0:0:0:0:
252,36,740308,1,0,0:0:0:0:
256,40,740391,2,0,L|240:212,1,170
317,261,740891,5,0,0:0:0:0:
320,264,740975,1,0,0:0:0:0:
324,268,741058,2,0,P|324:216|332:168,1,85
160,164,741391,2,0,P|160:216|152:264,1,85
208,336,741725,5,0,0:0:0:0:
324,268,741891,1,0,0:0:0:0:
212,216,742058,1,0,0:0:0:0:
184,192,742141,1,0,0:0:0:0:
180,156,742225,1,0,0:0:0:0:
196,124,742308,1,0,0:0:0:0:
228,108,742391,2,0,P|176:112|132:120,1,85
284,276,742725,2,0,P|332:268|380:272,1,85
316,184,743058,5,0,0:0:0:0:
332,348,743225,1,0,0:0:0:0:
176,296,743391,1,0,0:0:0:0:
292,108,743725,5,0,0:0:0:0:
392,216,743891,1,0,0:0:0:0:
256,240,744058,1,0,0:0:0:0:
252,40,744391,5,0,0:0:0:0:
292,108,744558,1,0,0:0:0:0:
220,148,744725,1,0,0:0:0:0:
180,80,744891,1,0,0:0:0:0:
232,96,745058,1,0,0:0:0:0:
161,205,745225,5,0,0:0:0:0:
164,208,745308,1,0,0:0:0:0:
168,212,745391,2,0,P|168:256|124:304,1,85
