osu file format v14

[General]
AudioFilename: Jinsei OP Jinsei Opening -- OP -- Opening.mp3
AudioLeadIn: 0
PreviewTime: 66534
Countdown: 0
SampleSet: Soft
StackLeniency: 0.7
Mode: 3
LetterboxInBreaks: 0
SpecialStyle: 0
WidescreenStoryboard: 0

[Editor]
DistanceSpacing: 1
BeatDivisor: 8
GridSize: 8
TimelineZoom: 1.4

[Metadata]
Title:Dekoboko Kaiketsu Sensation (TV Size)
TitleUnicode:凸凹解決せんせーしょん (TV Size)
Artist:Ayame to Yurika from Otome Shintou
ArtistUnicode:あやめと優里花 from 乙女新党
Creator:kuuderes_shadow
Version:Hard
Source:人生相談テレビアニメーション「人生」
Tags:jinsei op
BeatmapID:470334
BeatmapSetID:198292

[Difficulty]
HPDrainRate:8
CircleSize:5
OverallDifficulty:8
ApproachRate:5
SliderMultiplier:1.4
SliderTickRate:1

[Events]
//Background and Video events
0,0,"jinsei img.png",0,0
Video,0,"jinsei ver 16.mp4"
//Break Periods
//Storyboard Layer 0 (Background)
//Storyboard Layer 1 (Fail)
//Storyboard Layer 2 (Pass)
//Storyboard Layer 3 (Foreground)
//Storyboard Layer 4 (Overlay)
//Storyboard Sound Samples

[TimingPoints]
-512,402.684563758389,4,2,1,40,1,0
54253,-100,4,2,1,40,0,1
83246,-100,4,2,1,40,0,0

[HitObjects]
49,192,92,128,0,293:0:0:0:0:
458,192,92,128,0,293:0:0:0:0:
151,192,494,1,0,0:0:0:0:
254,192,696,1,0,0:0:0:0:
356,192,897,1,0,0:0:0:0:
458,192,1098,1,0,0:0:0:50:bassdrum.wav
49,192,1098,1,0,0:0:0:50:cymbol.wav
254,192,1300,1,0,0:0:0:0:
151,192,1400,1,0,0:0:0:0:
254,192,1501,1,0,0:0:0:50:bassdrum.wav
49,192,1702,1,0,0:0:0:0:
458,192,1702,1,0,0:0:0:0:
254,192,1904,1,0,0:0:0:50:bassdrum.wav
356,192,2004,1,0,0:0:0:0:
254,192,2105,1,0,0:0:0:0:
49,192,2306,1,0,0:0:0:50:bassdrum.wav
356,192,2306,1,0,0:0:0:0:
254,192,2508,1,0,0:0:0:0:
151,192,2709,1,0,0:0:0:0:
458,192,2709,1,0,0:0:0:50:bassdrum.wav
254,192,2910,1,0,0:0:0:0:
356,192,3112,1,0,0:0:0:0:
49,192,3112,1,0,0:0:0:50:bassdrum.wav
151,192,3313,1,0,0:0:0:0:
458,192,3313,1,0,0:0:0:0:
254,192,3514,1,0,0:0:0:50:bassdrum.wav
356,192,3716,1,0,0:0:0:0:
49,192,3716,1,0,0:0:0:0:
458,192,3917,1,0,0:0:0:50:bassdrum.wav
151,192,4118,1,0,0:0:0:40:snare.wav
49,192,4320,1,0,0:0:0:50:bassdrum.wav
254,192,4320,1,0,0:0:0:0:
356,192,4521,1,0,0:0:0:0:
254,192,4622,1,0,0:0:0:0:
153,192,4722,1,0,0:0:0:50:bassdrum.wav
254,192,4924,1,0,0:0:0:0:
458,192,4924,1,0,0:0:0:0:
153,192,5125,1,0,0:0:0:50:bassdrum.wav
254,192,5226,1,0,0:0:0:0:
356,192,5326,1,0,0:0:0:0:
51,192,5528,1,0,0:0:0:50:bassdrum.wav
358,192,5729,1,0,0:0:0:50:cymbol.wav
460,192,5729,1,0,0:0:0:50:bassdrum.wav
51,192,6132,1,0,0:0:0:50:bassdrum.wav
153,192,6232,1,0,0:0:0:50:bassdrum.wav
254,192,6333,1,0,0:0:0:50:bassdrum.wav
356,192,6333,1,0,0:0:0:0:
460,192,6534,1,0,0:0:0:50:bassdrum.wav
151,192,6736,1,0,0:0:0:50:bassdrum.wav
254,192,6736,1,0,0:0:0:0:
356,192,6937,1,0,0:0:0:40:snare.wav
49,192,7139,1,0,0:0:0:40:snare.wav
151,192,7139,1,0,0:0:0:0:
254,192,7340,1,0,0:0:0:40:snare.wav
358,192,7541,1,0,0:0:0:50:cymbol.wav
460,192,7541,1,0,0:0:0:50:bassdrum.wav
153,192,7743,1,0,0:0:0:70:hihat.wav
254,192,7944,1,0,0:0:0:0:
460,192,7944,1,0,0:0:0:50:bassdrum.wav
356,192,8145,1,0,0:0:0:70:hihat.wav
153,192,8347,1,0,0:0:0:50:bassdrum.wav
254,192,8548,1,0,0:0:0:0:
43,192,8548,1,0,0:0:0:70:hihat.wav
458,192,8749,1,0,0:0:0:50:bassdrum.wav
153,192,8951,1,0,0:0:0:70:hihat.wav
49,192,9152,1,0,0:0:0:50:bassdrum.wav
358,192,9152,1,0,0:0:0:0:
151,192,9353,1,0,0:0:0:70:hihat.wav
254,192,9555,1,0,0:0:0:50:bassdrum.wav
356,192,9756,1,0,0:0:0:0:
460,192,9756,1,0,0:0:0:0:
151,192,9957,1,0,0:0:0:50:bassdrum.wav
51,192,10159,1,0,0:0:0:0:
460,192,10360,1,0,0:0:0:50:bassdrum.wav
254,192,10561,1,0,0:0:0:0:
153,192,10763,1,0,0:0:0:50:cymbol.wav
358,192,10964,1,0,0:0:0:50:bassdrum.wav
460,192,11165,1,0,0:0:0:50:bassdrum.wav
153,192,11367,1,0,0:0:0:50:bassdrum.wav
51,192,11568,1,0,0:0:0:0:50
460,192,11568,1,0,0:0:0:70:hihat.wav
358,192,11769,1,0,0:0:0:0:bassdrum.wav
256,192,11870,1,0,0:0:0:0:0
153,192,11971,1,0,0:0:0:0:bassdrum.wav
358,192,12172,1,0,0:0:0:50:bassdrum.wav
460,192,12373,1,0,0:0:0:50:bassdrum.wav
256,192,12575,1,0,0:0:0:50:bassdrum.wav
153,192,12776,1,0,0:0:0:50:bassdrum.wav
51,192,12977,1,0,0:0:0:50:bassdrum.wav
153,192,13179,128,0,13481:0:0:0:50:bassdrum.wav
358,192,13581,128,0,13883:0:0:0:40:snare.wav
256,192,13984,1,0,0:0:0:50:bassdrum.wav
51,192,13984,1,0,0:0:0:30:hihat02.wav
460,192,14185,1,0,0:0:0:0:
153,192,14387,1,0,0:0:0:30:hihat02.wav
358,192,14387,1,0,0:0:0:50:bassdrum.wav
51,192,14588,1,0,0:0:0:0:
256,192,14790,1,0,0:0:0:30:hihat02.wav
460,192,14790,1,0,0:0:0:50:bassdrum.wav
153,192,15192,1,0,0:0:0:30:hihat02.wav
358,192,15192,1,0,0:0:0:50:bassdrum.wav
51,192,15394,1,0,0:0:0:0:
256,192,15595,1,0,0:0:0:30:hihat02.wav
460,192,15595,1,0,0:0:0:50:bassdrum.wav
153,192,15897,1,0,0:0:0:30:hihat02.wav
358,192,15897,1,0,0:0:0:50:bassdrum.wav
256,192,16199,1,0,0:0:0:0:hihat02.wav
51,192,16199,1,0,0:0:0:0:bassdrum.wav
153,192,16702,1,0,0:0:0:50:bassdrum.wav
256,192,16753,1,0,0:0:0:0:bassdrum.wav
358,192,16803,1,0,0:0:0:50:bassdrum.wav
51,192,17206,1,0,0:0:0:50:cymbol.wav
460,192,17206,1,0,0:0:0:50:bassdrum.wav
358,192,17306,1,0,0:0:0:0:
256,192,17508,1,0,0:0:0:0:
153,192,17810,1,0,0:0:0:70:hihat.wav
460,192,18011,1,0,0:0:0:50:bassdrum.wav
153,192,18112,1,0,0:0:0:0:
256,192,18313,1,0,0:0:0:0:
358,192,18615,1,0,0:0:0:70:hihat.wav
51,192,18816,1,0,0:0:0:50:bassdrum.wav
460,192,18917,1,0,0:0:0:0:
358,192,19118,1,0,0:0:0:0:
256,192,19420,1,0,0:0:0:70:hihat.wav
153,192,19622,1,0,0:0:0:30:hihat02.wav
358,192,19622,1,0,0:0:0:50:bassdrum.wav
460,192,19823,1,0,0:0:0:70:hihat.wav
256,192,20024,1,0,0:0:0:70:hihat.wav
51,192,20226,1,0,0:0:0:70:hihat.wav
256,192,20427,1,0,0:0:0:50:cymbol.wav
358,192,20528,1,0,0:0:0:0:
51,192,20729,1,0,0:0:0:0:
460,192,21031,1,0,0:0:0:70:hihat.wav
256,192,21232,1,0,0:0:0:50:bassdrum.wav
153,192,21333,1,0,0:0:0:0:
460,192,21534,1,0,0:0:0:0:
51,192,21836,1,0,0:0:0:70:hihat.wav
153,192,22038,1,0,0:0:0:30:hihat02.wav
358,192,22038,1,0,0:0:0:50:bassdrum.wav
256,192,22441,1,0,0:0:0:0:
153,192,22642,1,0,0:0:0:0:
358,192,22743,1,0,0:0:0:0:
57,192,22843,1,0,0:0:0:0:
159,192,23045,1,0,0:0:0:0:
262,192,23246,1,0,0:0:0:50:bassdrum.wav
364,192,23447,1,0,0:0:0:0:
153,192,23649,1,0,0:0:0:0:
460,192,23649,1,0,0:0:0:50:bassdrum.wav
358,192,24051,1,0,0:0:0:0:
256,192,24253,1,0,0:0:0:0:
153,192,24454,1,0,0:0:0:0:
51,192,24555,1,0,0:0:0:0:
256,192,24756,1,0,0:0:0:0:
153,192,25058,1,0,0:0:0:0:
460,192,25058,1,0,0:0:0:0:
51,192,25259,1,0,0:0:0:50:bassdrum.wav
358,192,25259,1,0,0:0:0:0:
256,192,25662,1,0,0:0:0:0:
460,192,25863,1,0,0:0:0:0:
51,192,26065,1,0,0:0:0:0:
358,192,26266,1,0,0:0:0:0:
153,192,26367,1,0,0:0:0:0:
460,192,26467,1,0,0:0:0:40:snare.wav
256,192,26669,1,0,0:0:0:0:
460,192,26870,128,0,28481:0:0:0:50:cymbol.wav
358,192,26870,1,0,0:0:0:50:bassdrum.wav
51,192,27071,1,0,0:0:0:0:
153,192,27273,1,0,0:0:0:40:snare.wav
358,192,27474,1,0,0:0:0:0:
256,192,27675,1,0,0:0:0:50:bassdrum.wav
51,192,27977,1,0,0:0:0:0:
153,192,28279,1,0,0:0:0:0:
256,192,28481,1,0,0:0:0:50:bassdrum.wav
362,192,28883,1,0,0:0:0:50:bassdrum.wav
460,192,29286,1,0,0:0:0:50:bassdrum.wav
358,192,29689,1,0,0:0:0:40:snare.wav
256,192,29890,1,0,0:0:0:40:snare.wav
153,192,30092,1,0,0:0:0:50:bassdrum.wav
460,192,30092,1,0,0:0:0:30:hihat02.wav
51,192,30494,1,0,0:0:0:0:
153,192,30696,1,0,0:0:0:0:
256,192,30897,1,0,0:0:0:0:
153,192,31199,1,0,0:0:0:0:
51,192,31501,1,0,0:0:0:0:
460,192,31501,1,0,0:0:0:0:
153,192,31702,1,0,0:0:0:50:bassdrum.wav
358,192,31702,1,0,0:0:0:30:hihat02.wav
256,192,32105,1,0,0:0:0:0:
460,192,32306,1,0,0:0:0:0:
51,192,32508,1,0,0:0:0:0:
153,192,32810,1,0,0:0:0:0:
358,192,33112,1,0,0:0:0:0:
460,192,33313,1,0,0:0:0:0:50
256,192,33313,1,0,0:0:0:50:bassdrum.wav
51,192,33514,1,0,0:0:0:70:hihat.wav
153,192,33716,1,0,0:0:0:40:snare.wav
256,192,33917,1,0,0:0:0:70:hihat.wav
358,192,34118,1,0,0:0:0:50:bassdrum.wav
460,192,34320,1,0,0:0:0:0:
349,192,34521,1,0,0:0:0:40:snare.wav
153,192,34521,1,0,0:0:0:0:
256,192,34722,1,0,0:0:0:0:
51,192,34924,1,0,0:0:0:0:
153,192,35024,1,0,0:0:0:50:ride.wav
256,192,35125,1,0,0:0:0:50:ride.wav
358,192,35226,1,0,0:0:0:50:ride.wav
460,192,35528,1,0,0:0:0:0:
358,192,35628,1,0,0:0:0:50:ride.wav
256,192,35729,1,0,0:0:0:50:ride.wav
153,192,35830,1,0,0:0:0:50:ride.wav
51,192,36132,1,0,0:0:0:50:tom01.wav
153,192,36333,1,0,0:0:0:0:
358,192,36434,1,0,0:0:0:0:
256,192,36534,1,0,0:0:0:50:cymbol.wav
460,192,36534,1,0,0:0:0:50:bassdrum.wav
44,192,36736,1,0,0:0:0:40:snare.wav
358,192,36937,1,0,0:0:0:50:bassdrum.wav
153,192,37139,1,0,0:0:0:40:snare.wav
460,192,37340,1,0,0:0:0:50:bassdrum.wav
51,192,37541,1,0,0:0:0:40:snare.wav
256,192,37743,1,0,0:0:0:50:bassdrum.wav
358,192,37944,1,0,0:0:0:40:snare.wav
460,192,38145,1,0,0:0:0:50:cymbol.wav
51,192,38145,1,0,0:0:0:50:bassdrum.wav
153,192,38347,1,0,0:0:0:40:snare.wav
358,192,38548,1,0,0:0:0:50:bassdrum.wav
51,192,38749,1,0,0:0:0:40:snare.wav
256,192,38951,1,0,0:0:0:50:bassdrum.wav
460,192,38951,1,0,0:0:0:0:
51,192,39353,1,0,0:0:0:40:snare.wav
153,192,39353,1,0,0:0:0:0:
358,192,39756,1,0,0:0:0:0:
460,192,39756,1,0,0:0:0:0:
153,192,40159,1,0,0:0:0:50:cymbol.wav
358,192,40159,1,0,0:0:0:50:bassdrum.wav
358,192,40561,1,0,0:0:0:0:
256,192,40662,1,0,0:0:0:0:
153,192,40763,1,0,0:0:0:0:
51,192,40863,1,0,0:0:0:0:
460,192,40964,1,0,0:0:0:40:snare.wav
256,192,41165,1,0,0:0:0:70:hihat.wav
153,192,41367,1,0,0:0:0:50:bassdrum.wav
358,192,41367,1,0,0:0:0:0:
51,192,41769,1,0,0:0:0:40:snare.wav
256,192,41971,1,0,0:0:0:40:snare.wav
153,192,42172,1,0,0:0:0:40:snare.wav
256,192,42373,1,0,0:0:0:70:hihat.wav
460,192,42575,1,0,0:0:0:0:
358,192,42575,1,0,0:0:0:40:snare.wav
256,192,42776,1,0,0:0:0:40:snare.wav
153,192,42977,1,0,0:0:0:30:hihat02.wav
51,192,42977,1,0,0:0:0:50:bassdrum.wav
153,192,43380,1,0,0:0:0:50:cymbol.wav
358,192,43380,1,0,0:0:0:50:bassdrum.wav
153,192,43783,1,0,0:0:0:50:bassdrum.wav
256,192,43883,1,0,0:0:0:50:bassdrum.wav
358,192,43984,1,0,0:0:0:0:
460,192,44085,1,0,0:0:0:0:
51,192,44185,1,0,0:0:0:40:snare.wav
358,192,44387,1,0,0:0:0:70:hihat.wav
256,192,44588,1,0,0:0:0:0:50
460,192,44588,1,0,0:0:0:0:
153,192,44790,1,0,0:0:0:0:hihat.wav
51,192,44991,1,0,0:0:0:40:snare.wav
358,192,45192,1,0,0:0:0:0:
153,192,45293,1,0,0:0:0:40:snare.wav
460,192,45394,1,0,0:0:0:50:bassdrum.wav
51,192,45394,1,0,0:0:0:0:
153,192,45595,1,0,0:0:0:0:snare.wav
256,192,45696,1,0,0:0:0:0:snare.wav
358,192,45796,1,0,0:0:0:40:snare.wav
256,192,46199,1,0,0:0:0:50:cymbol.wav
460,192,46199,1,0,0:0:0:50:bassdrum.wav
358,192,46501,1,0,0:0:0:50:cymbol.wav
153,192,46501,1,0,0:0:0:50:bassdrum.wav
256,192,46803,1,0,0:0:0:50:cymbol.wav
51,192,46803,1,0,0:0:0:0:cymbol.wav
460,192,47206,1,0,0:0:0:50:bassdrum.wav
358,192,47407,1,0,0:0:0:50:bassdrum.wav
153,192,47608,1,0,0:0:0:50:bassdrum.wav
51,192,47810,1,0,0:0:0:50:cymbol.wav
256,192,47810,1,0,0:0:0:50:bassdrum.wav
153,192,48112,1,0,0:0:0:50:cymbol.wav
358,192,48112,1,0,0:0:0:50:bassdrum.wav
256,192,48414,1,0,0:0:0:50:cymbol.wav
460,192,48414,1,0,0:0:0:0:bassdrum.wav
51,192,48816,1,0,0:0:0:50:bassdrum.wav
153,192,49018,1,0,0:0:0:0:
358,192,49219,1,0,0:0:0:40:snare.wav
460,192,49622,1,0,0:0:0:0:
358,192,49823,1,0,0:0:0:0:
256,192,50024,1,0,0:0:0:0:
153,192,50226,1,0,0:0:0:0:
51,192,50528,1,0,0:0:0:0:
153,192,50830,1,0,0:0:0:0:
460,192,51031,1,0,0:0:0:50:bassdrum.wav
256,192,51031,128,0,52239:0:0:0:50:cymbol.wav
358,192,51232,1,0,0:0:0:50:bassdrum.wav
51,192,51434,1,0,0:0:0:40:snare.wav
153,192,51635,1,0,0:0:0:50:bassdrum.wav
358,192,51836,1,0,0:0:0:40:snare.wav
460,192,52038,1,0,0:0:0:50:bassdrum.wav
153,192,52239,1,0,0:0:0:40:snare.wav
51,192,52441,1,0,0:0:0:50:bassdrum.wav
460,192,52642,1,0,0:0:0:30:hihat02.wav
256,192,52642,1,0,0:0:0:50:bassdrum.wav
358,192,53045,1,0,0:0:0:30:hihat02.wav
153,192,53045,1,0,0:0:0:50:bassdrum.wav
51,192,53447,1,0,0:0:0:30:hihat02.wav
256,192,53447,1,0,0:0:0:50:bassdrum.wav
358,192,53649,1,0,0:0:0:0:
256,192,53850,1,0,0:0:0:0:
153,192,54051,1,0,0:0:0:0:
51,192,54253,1,0,0:0:0:50:cymbol.wav
460,192,54253,1,0,0:0:0:50:bassdrum.wav
358,192,54454,1,0,0:0:0:0:
153,192,54655,1,0,0:0:0:50:bassdrum.wav
460,192,54857,1,0,0:0:0:0:
51,192,54857,1,0,0:0:0:0:
153,192,55058,1,0,0:0:0:50:bassdrum.wav
358,192,55259,1,0,0:0:0:0:
256,192,55461,1,0,0:0:0:50:bassdrum.wav
51,192,55461,1,0,0:0:0:0:
358,192,55662,1,0,0:0:0:0:
256,192,55863,1,0,0:0:0:50:bassdrum.wav
460,192,55863,1,0,0:0:0:0:
153,192,56065,1,0,0:0:0:0:
51,192,56266,1,0,0:0:0:50:bassdrum.wav
256,192,56266,1,0,0:0:0:0:
358,192,56467,1,0,0:0:0:0:
153,192,56669,1,0,0:0:0:50:bassdrum.wav
460,192,56870,1,0,0:0:0:0:
256,192,57071,1,0,0:0:0:50:bassdrum.wav
153,192,57273,1,0,0:0:0:40:snare.wav
358,192,57474,1,0,0:0:0:50:bassdrum.wav
51,192,57474,1,0,0:0:0:0:
256,192,57675,1,0,0:0:0:0:
153,192,57776,1,0,0:0:0:0:
51,192,57877,1,0,0:0:0:50:bassdrum.wav
153,192,58078,1,0,0:0:0:0:
460,192,58078,1,0,0:0:0:0:
256,192,58279,1,0,0:0:0:50:bassdrum.wav
358,192,58380,1,0,0:0:0:0:
460,192,58481,1,0,0:0:0:0:
51,192,58682,1,0,0:0:0:50:bassdrum.wav
153,192,58883,128,0,59286:0:0:0:50:cymbol.wav
358,192,58883,1,0,0:0:0:50:bassdrum.wav
460,192,59286,1,0,0:0:0:50:bassdrum.wav
358,192,59387,1,0,0:0:0:50:bassdrum.wav
256,192,59487,128,0,59890:0:0:0:50:bassdrum.wav
51,192,59689,1,0,0:0:0:0:
358,192,59890,128,0,60293:0:0:0:50:bassdrum.wav
153,192,59890,1,0,0:0:0:0:
51,192,60293,1,0,0:0:0:40:snare.wav
460,192,60293,128,0,60696:0:0:0:0:
51,192,60696,1,0,0:0:0:50:cymbol.wav
256,192,60897,1,0,0:0:0:70:hihat.wav
358,192,61098,1,0,0:0:0:50:bassdrum.wav
460,192,61300,1,0,0:0:0:70:hihat.wav
256,192,61501,1,0,0:0:0:50:bassdrum.wav
153,192,61702,1,0,0:0:0:70:hihat.wav
51,192,61904,1,0,0:0:0:50:bassdrum.wav
256,192,62105,1,0,0:0:0:70:hihat.wav
460,192,62306,1,0,0:0:0:50:bassdrum.wav
358,192,62508,1,0,0:0:0:70:hihat.wav
256,192,62709,1,0,0:0:0:50:bassdrum.wav
51,192,62910,1,0,0:0:0:0:hihat.wav
358,192,63112,1,0,0:0:0:50:bassdrum.wav
153,192,63313,1,0,0:0:0:0:
460,192,63514,1,0,0:0:0:0:
358,192,63716,1,0,0:0:0:0:
51,192,63917,128,0,64118:0:0:0:50:bassdrum.wav
256,192,63917,128,0,64118:0:0:0:50:cymbol.wav
153,192,64320,128,0,64521:0:0:0:50:bassdrum.wav
358,192,64320,128,0,64521:0:0:0:50:cymbol.wav
256,192,64722,128,0,64924:0:0:0:50:bassdrum.wav
460,192,64722,128,0,64924:0:0:0:50:cymbol.wav
51,192,65125,128,0,65326:0:0:0:50:bassdrum.wav
358,192,65125,128,0,65326:0:0:0:50:cymbol.wav
153,192,65528,1,0,0:0:0:50:bassdrum.wav
460,192,65528,1,0,0:0:0:0:
256,192,65729,1,0,0:0:0:70:hihat.wav
358,192,65930,1,0,0:0:0:50:bassdrum.wav
51,192,65930,1,0,0:0:0:0:
256,192,66132,1,0,0:0:0:50:ride.wav
460,192,66333,1,0,0:0:0:70:hihat.wav
51,192,66534,1,0,0:0:0:70:bassdrum.wav
460,192,66736,1,0,0:0:0:0:
358,192,66836,1,0,0:0:0:0:
256,192,66937,1,0,0:0:0:0:
153,192,67038,1,0,0:0:0:0:
460,192,67139,1,0,0:0:0:50:bassdrum.wav
51,192,67139,1,0,0:0:0:50:cymbol.wav
153,192,67340,1,0,0:0:0:0:
358,192,67441,1,0,0:0:0:0:
153,192,67541,1,0,0:0:0:50:bassdrum.wav
51,192,67743,1,0,0:0:0:0:
460,192,67743,1,0,0:0:0:0:
358,192,67944,1,0,0:0:0:50:bassdrum.wav
153,192,68045,1,0,0:0:0:0:
358,192,68145,1,0,0:0:0:0:
51,192,68347,128,0,68548:0:0:0:50:bassdrum.wav
153,192,68548,128,0,68749:0:0:0:0:
460,192,68749,128,0,68951:0:0:0:50:bassdrum.wav
358,192,68951,128,0,69152:0:0:0:0:
256,192,69152,128,0,69353:0:0:0:50:bassdrum.wav
153,192,69353,128,0,69756:0:0:0:0:
358,192,69555,1,0,0:0:0:50:bassdrum.wav
256,192,69756,128,0,70159:0:0:0:0:
460,192,69957,1,0,0:0:0:50:bassdrum.wav
358,192,70159,1,0,0:0:0:40:snare.wav
51,192,70360,1,0,0:0:0:50:bassdrum.wav
460,192,70360,1,0,0:0:0:0:
358,192,70561,1,0,0:0:0:0:
153,192,70662,1,0,0:0:0:0:
358,192,70763,1,0,0:0:0:50:bassdrum.wav
51,192,70964,1,0,0:0:0:0:
460,192,70964,1,0,0:0:0:0:
153,192,71165,1,0,0:0:0:50:bassdrum.wav
358,192,71266,1,0,0:0:0:0:
153,192,71367,1,0,0:0:0:0:
51,192,71568,1,0,0:0:0:0:
256,192,71568,1,0,0:0:0:50:bassdrum.wav
153,192,71769,128,0,72172:0:0:0:50:cymbol.wav
358,192,71769,128,0,72172:0:0:0:50:bassdrum.wav
256,192,72373,128,0,72776:0:0:0:50:bassdrum.wav
460,192,72373,1,0,0:0:0:0:
358,192,72776,1,0,0:0:0:0:
153,192,72776,128,0,73179:0:0:0:50:bassdrum.wav
51,192,73179,128,0,73581:0:0:0:0:
256,192,73179,1,0,0:0:0:40:snare.wav
153,192,73581,1,0,0:0:0:50:bassdrum.wav
460,192,73581,1,0,0:0:0:50:cymbol.wav
256,192,73783,1,0,0:0:0:70:hihat.wav
153,192,73984,1,0,0:0:0:50:bassdrum.wav
358,192,74185,1,0,0:0:0:70:hihat.wav
51,192,74185,1,0,0:0:0:0:
153,192,74387,1,0,0:0:0:50:bassdrum.wav
460,192,74588,1,0,0:0:0:70:hihat.wav
256,192,74790,1,0,0:0:0:50:bassdrum.wav
51,192,74790,128,0,74991:0:0:0:0:
153,192,74991,128,0,75192:0:0:0:0:hihat.wav
460,192,75192,1,0,0:0:0:0:
256,192,75192,128,0,75394:0:0:0:0:bassdrum.wav
153,192,75394,128,0,75595:0:0:0:0:hihat.wav
358,192,75394,1,0,0:0:0:0:
51,192,75595,128,0,75796:0:0:0:0:bassdrum.wav
460,192,75595,1,0,0:0:0:0:
153,192,75796,128,0,76199:0:0:0:0:
358,192,75998,1,0,0:0:0:50:bassdrum.wav
460,192,76199,128,0,76803:0:0:0:0:
358,192,76400,1,0,0:0:0:50:bassdrum.wav
153,192,76602,1,0,0:0:0:0:
256,192,76803,1,0,0:0:0:50:cymbol.wav
460,192,77004,1,0,0:0:0:50:bassdrum.wav
153,192,77206,1,0,0:0:0:50:bassdrum.wav
358,192,77407,1,0,0:0:0:50:bassdrum.wav
51,192,77608,1,0,0:0:0:0:bassdrum.wav
256,192,77910,1,0,0:0:0:0:
358,192,78212,1,0,0:0:0:50:bassdrum.wav
460,192,78414,1,0,0:0:0:50:bassdrum.wav
358,192,78615,1,0,0:0:0:50:bassdrum.wav
153,192,78816,1,0,0:0:0:50:bassdrum.wav
51,192,79018,1,0,0:0:0:50:bassdrum.wav
256,192,79219,1,0,0:0:0:0:
153,192,79420,1,0,0:0:0:40:snare.wav
256,192,79521,1,0,0:0:0:40:snare.wav
358,192,79622,1,0,0:0:0:40:snare.wav
51,192,79823,1,0,0:0:0:40:snare.wav
460,192,80024,1,0,0:0:0:30:hihat02.wav
256,192,80024,1,0,0:0:0:50:bassdrum.wav
51,192,80226,1,0,0:0:0:0:
358,192,80427,1,0,0:0:0:30:hihat02.wav
153,192,80427,1,0,0:0:0:50:bassdrum.wav
460,192,80628,1,0,0:0:0:0:
51,192,80830,1,0,0:0:0:30:hihat02.wav
256,192,80830,1,0,0:0:0:50:bassdrum.wav
153,192,81232,1,0,0:0:0:30:hihat02.wav
358,192,81232,1,0,0:0:0:50:bassdrum.wav
256,192,81434,1,0,0:0:0:0:
460,192,81635,1,0,0:0:0:30:hihat02.wav
51,192,81635,1,0,0:0:0:50:bassdrum.wav
358,192,81937,1,0,0:0:0:30:hihat02.wav
153,192,81937,1,0,0:0:0:50:bassdrum.wav
51,192,82239,1,0,0:0:0:30:hihat02.wav
256,192,82239,1,0,0:0:0:0:
460,192,82239,1,0,0:0:0:50:bassdrum.wav
153,192,82743,1,0,0:0:0:40:snare.wav
256,192,82793,1,0,0:0:0:40:snare.wav
358,192,82843,128,0,83246:0:0:0:40:snare.wav
