osu file format v14

[General]
AudioFilename: audio.mp3
AudioLeadIn: 0
PreviewTime: 71589
Countdown: 0
SampleSet: Normal
StackLeniency: 0.7
Mode: 2
LetterboxInBreaks: 0
WidescreenStoryboard: 1

[Editor]
DistanceSpacing: 1.1
BeatDivisor: 4
GridSize: 4
TimelineZoom: 1.8

[Metadata]
Title:Ai o Chikaishi Hime Kazari
TitleUnicode:愛を誓いしヒメ飾り
Artist:Ayalis
ArtistUnicode:あやりす
Creator:Spectator
Version:Rain
Source:
Tags:afb alienflybot autofanboy megpoid gumi vocaloid japanese rock pop jpop j-pop jrock j-rock anata ga
BeatmapID:2741770
BeatmapSetID:784412

[Difficulty]
HPDrainRate:6
CircleSize:3.8
OverallDifficulty:9.1
ApproachRate:9.1
SliderMultiplier:1.65
SliderTickRate:1

[Events]
//Background and Video events
0,0,"ayalis.jpg",0,0
//Break Periods
2,192289,200648
//Storyboard Layer 0 (Background)
//Storyboard Layer 1 (Fail)
//Storyboard Layer 2 (Pass)
//Storyboard Layer 3 (Foreground)
//Storyboard Layer 4 (Overlay)
//Storyboard Sound Samples

[TimingPoints]
1232,285.714285714286,4,1,5,60,1,0
1374,-100,4,2,5,60,0,0
2374,-100,4,2,5,65,0,0
2946,-100,4,2,5,70,0,0
3518,-100,4,2,1,70,0,0
14946,-100,4,2,1,70,0,0
17232,-100,4,1,1,65,0,0
26375,-100,4,2,1,65,0,0
30946,-100,4,1,1,70,0,0
53803,-100,4,2,1,60,0,0
61660,-100,4,2,1,65,0,0
71518,-90.9090909090909,4,2,1,65,0,0
72089,-100,4,1,1,70,0,1
72946,-100,4,1,2,70,0,1
73018,-100,4,1,1,70,0,1
80089,-90.9090909090909,4,1,1,70,0,1
81160,-90.9090909090909,4,1,1,70,0,0
81232,-100,4,1,1,70,0,1
97232,-100,4,1,1,65,0,0
129232,-100,4,1,1,55,0,0
132089,-100,4,1,2,55,0,0
132232,-100,4,1,1,55,0,0
138375,-100,4,1,1,60,0,0
147517,-100,4,1,1,70,0,1
148375,-100,4,1,2,70,0,1
148518,-100,4,1,1,70,0,1
155518,-90.9090909090909,4,1,1,70,0,1
156589,-90.9090909090909,4,1,1,70,0,0
156660,-100,4,1,1,70,0,1
172518,-83.3333333333333,4,1,1,70,0,1
172660,-100,4,2,1,65,0,0
201232,-100,4,2,1,55,0,0
208232,-100,4,2,1,45,0,0
208518,-100,4,2,1,48,0,0
208803,-100,4,2,1,50,0,0
209089,-100,4,2,1,52,0,0
209375,-100,4,2,1,54,0,0
209660,-100,4,2,1,57,0,0
209946,-100,4,2,1,60,0,0
210518,-100,4,2,1,65,0,0
211375,285.714285714286,4,2,1,65,1,0
212089,-90.9090909090909,4,1,1,65,0,0
212946,-76.9230769230769,4,1,1,65,0,0
213232,285.714285714286,4,1,1,70,1,1
213232,-90.9090909090909,4,1,1,70,0,1
220017,-90.9090909090909,4,1,1,70,0,0
220089,-90.9090909090909,4,1,1,70,0,1
238374,-100,4,1,1,65,0,0
247517,-100,4,2,1,65,0,0
250803,-100,4,2,10,65,0,0
250874,-100,4,2,1,65,0,0

[Colours]
Combo1 : 87,101,223
Combo2 : 234,96,96
Combo3 : 254,251,114
Combo4 : 120,192,252
Combo5 : 218,150,248

[HitObjects]
98,231,1232,6,0,L|270:209,1,165,4|0,1:0|0:0,0:0:0:0:
361,114,1660,2,0,L|185:93,1,165,8|0,2:0|0:0,0:0:0:0:
98,61,2089,1,8,0:0:0:0:
93,152,2232,1,0,0:0:0:0:
325,289,2374,5,2,0:0:0:0:
424,244,2517,2,0,L|477:252,2,41.25,2|0|0,0:0|0:0|0:0,0:0:0:0:
321,270,2803,1,2,0:0:0:0:
197,247,2946,1,2,0:0:0:0:
203,166,3089,1,0,0:0:0:0:
261,97,3232,1,2,0:0:0:0:
359,80,3374,1,0,0:0:0:0:
144,216,3517,6,0,P|92:187|150:127,1,165,4|2,0:0|0:0,0:0:0:0:
222,112,3946,1,0,0:0:0:0:
358,120,4089,2,0,L|187:93,1,165,2|2,0:0|0:0,0:0:0:0:
318,223,4518,2,0,P|374:216|417:103,1,165,2|0,0:0|0:0,0:0:0:0:
310,62,4946,1,2,0:0:0:0:
233,98,5089,1,0,0:0:0:0:
216,173,5232,1,2,0:0:0:0:
244,252,5375,1,0,0:0:0:0:
320,284,5518,1,2,0:0:0:0:
421,296,5660,1,0,0:0:0:0:
204,309,5803,6,0,L|25:321,1,165,4|2,0:0|0:0,0:0:0:0:
35,225,6232,1,0,0:0:0:0:
179,131,6375,2,0,L|184:222,1,82.5,2|0,0:0|0:0,0:0:0:0:
90,241,6660,1,2,0:0:0:0:
241,234,6803,2,0,L|431:255,1,165,2|0,0:0|0:0,0:0:0:0:
282,303,7232,1,2,0:0:0:0:
270,210,7375,1,0,0:0:0:0:
416,224,7518,1,2,0:0:0:0:
457,148,7660,1,0,0:0:0:0:
418,64,7803,1,0,0:0:0:0:
312,34,7946,1,0,0:0:0:0:
59,216,8089,6,0,P|69:158|183:111,1,165,4|2,0:0|0:0,0:0:0:0:
248,135,8518,1,0,0:0:0:0:
378,181,8660,2,0,L|191:175,1,165,2|0,0:0|0:0,0:0:0:0:
340,142,9089,2,0,L|342:312,1,165,2|0,0:0|0:0,0:0:0:0:
200,343,9518,1,2,0:0:0:0:
119,308,9660,1,0,0:0:0:0:
80,232,9803,1,2,0:0:0:0:
72,151,9946,1,0,0:0:0:0:
115,69,10089,1,2,0:0:0:0:
199,38,10232,1,0,0:0:0:0:
416,239,10375,6,0,L|423:67,1,165,4|0,0:0|0:0,0:0:0:0:
338,45,10803,1,0,0:0:0:0:
194,103,10946,2,0,L|83:110,2,82.5,2|0|0,0:0|0:0|0:0,0:0:0:0:
339,180,11375,2,0,P|388:170|443:64,1,165,2|0,0:0|0:0,0:0:0:0:
348,79,11803,1,0,0:0:0:0:
125,78,11946,1,2,0:0:0:0:
221,312,14518,5,0,1:0:0:0:
225,231,14660,1,0,1:0:0:0:
97,204,14803,1,0,1:0:0:0:
93,117,14946,1,0,1:0:0:0:
336,346,15089,6,0,P|383:321|319:248,1,165,4|0,1:2|1:0,0:0:0:0:
92,216,15518,2,0,P|45:191|112:123,1,165,4|0,1:2|1:0,0:0:0:0:
314,173,15946,2,0,L|147:152,1,165,4|10,1:2|1:0,0:0:0:0:
24,216,16375,5,4,1:0:0:0:
26,258,16518,1,10,1:0:0:0:
151,247,16660,1,0,1:0:0:0:
361,255,16803,1,10,1:0:0:0:
407,237,16875,1,0,1:0:0:0:
432,195,16946,1,4,1:0:0:0:
428,145,17018,1,0,1:0:0:0:
396,107,17089,1,4,1:0:0:0:
347,96,17160,1,0,1:0:0:0:
167,274,17232,5,4,1:2:0:0:
73,244,17375,1,0,2:0:0:0:
46,163,17518,1,10,1:0:0:0:
85,91,17660,1,4,1:0:0:0:
215,69,17803,2,0,L|306:60,1,82.5,0|2,1:0|1:0,0:0:0:0:
161,151,18089,2,0,L|70:142,1,82.5,8|4,1:0|1:0,0:0:0:0:
299,149,18375,6,0,L|308:250,1,82.5,2|4,0:0|0:0,0:0:0:0:
224,264,18660,1,10,0:0:0:0:
101,288,18803,2,0,P|106:228|207:168,1,165,2|2,0:0|1:1,0:0:0:0:
310,181,19232,2,0,L|404:197,1,82.5,10|0,1:1|0:0,0:0:0:0:
126,338,19518,5,4,1:2:0:0:
88,250,19660,1,0,2:0:0:0:
126,171,19803,1,10,1:0:0:0:
217,140,19946,1,4,1:0:0:0:
356,101,20089,2,0,L|360:206,1,82.5,0|2,1:0|1:0,0:0:0:0:
224,246,20375,2,0,L|137:240,1,82.5,8|4,1:0|1:0,0:0:0:0:
356,331,20660,6,0,L|443:325,2,82.5,4|4|8,1:2|1:0|1:0,0:0:0:0:
235,304,21089,2,0,P|237:254|341:207,1,165,4|0,1:2|0:0,0:0:0:0:
455,166,21518,2,0,L|459:283,1,82.5,8|0,1:0|0:0,0:0:0:0:
213,247,21803,5,4,1:2:0:0:
135,217,21946,1,0,1:0:0:0:
110,142,22089,1,10,1:1:0:0:
142,73,22232,1,0,1:0:0:0:
263,88,22375,2,0,L|166:74,1,82.5,4|2,1:0|1:0,0:0:0:0:
46,165,22660,2,0,L|154:150,1,82.5,10|0,1:0|1:0,0:0:0:0:
348,177,22946,6,0,L|456:162,2,82.5,4|0|10,1:2|1:0|1:0,0:0:0:0:
125,283,23375,2,0,P|74:260|135:198,1,165,4|2,1:2|1:0,0:0:0:0:
250,220,23803,2,0,L|358:205,1,82.5,8|4,1:0|1:0,0:0:0:0:
63,332,24089,5,4,1:2:0:0:
69,253,24232,1,0,0:0:0:0:
118,182,24375,1,10,1:0:0:0:
212,152,24518,1,0,1:0:0:0:
365,153,24660,2,0,L|259:143,1,82.5,2|4,0:0|0:0,0:0:0:0:
161,199,24946,2,0,L|55:189,1,82.5,10|0,1:0|1:0,0:0:0:0:
296,264,25232,6,0,L|354:262,2,41.25,0|0|4,1:0|0:0|1:0,0:0:0:0:
206,267,25518,1,8,1:0:0:0:
85,203,25660,2,0,L|27:201,2,41.25
175,206,25946,1,0,0:0:0:0:
320,154,26089,1,4,0:0:0:0:
325,202,26160,1,0,0:0:0:0:
330,251,26232,1,4,0:0:0:0:
96,283,26375,6,0,L|-3:278,2,82.5,4|2|8,2:0|2:0|0:1,0:0:0:0:
228,260,26803,2,0,P|217:209|104:162,1,165,2|4,0:0|0:3,0:0:0:0:
205,134,27232,1,8,0:1:0:0:
339,172,27375,2,0,P|389:149|321:89,1,165,2|4,0:0|2:3,0:0:0:0:
200,66,27803,2,0,L|194:161,1,82.5,8|2,2:1|0:0,0:0:0:0:
329,198,28089,2,0,L|239:192,1,82.5,4|2,0:3|0:0,0:0:0:0:
134,220,28375,2,0,L|44:214,1,82.5,8|4,2:1|2:1,0:0:0:0:
303,313,28660,6,0,L|402:308,2,82.5,4|2|8,0:0|0:0|0:1,0:0:0:0:
169,290,29089,2,0,P|180:239|293:192,1,165,4|4,0:3|0:3,0:0:0:0:
376,219,29517,1,8,0:1:0:0:
117,131,29660,1,4,0:0:0:0:
176,234,30518,5,4,1:0:0:0:
301,190,30661,2,0,L|306:285,1,82.5,8|0,1:0|0:0,0:0:0:0:
51,227,30946,6,0,P|53:171|167:130,1,165,4|8,0:2|0:0,0:0:0:0:
251,109,31375,2,0,L|59:97,1,165,0|4,0:0|0:1,0:0:0:0:
316,328,31946,1,0,0:0:0:0:
407,307,32089,5,4,1:0:0:0:
440,228,32232,1,0,1:0:0:0:
400,154,32375,1,8,0:0:0:0:
257,193,32518,2,0,P|266:134|371:100,1,165,0|4,0:0|1:0,0:0:0:0:
476,105,32946,2,0,L|380:97,1,82.5,8|0,0:0|0:0,0:0:0:0:
250,68,33232,6,0,L|240:257,1,165,4|8,0:2|0:0,0:0:0:0:
331,205,33660,1,4,0:1:0:0:
177,289,33803,2,0,L|85:280,2,82.5,4|0|8,0:1|0:2|0:0,0:0:0:0:
389,173,34375,6,0,L|394:285,1,82.5,4|4,1:0|1:0,0:0:0:0:
305,292,34660,1,8,2:0:0:0:
161,296,34803,2,0,P|168:250|283:204,1,165,0|0,0:0|1:0,0:0:0:0:
485,181,35232,2,0,L|486:270,1,82.5,8|4,0:0|1:0,0:0:0:0:
276,327,35518,6,0,P|229:304|295:239,1,165,4|8,0:2|0:0,0:0:0:0:
411,204,35946,2,0,L|221:174,1,165,0|0,0:0|1:0,0:0:0:0:
49,273,36518,6,0,L|239:243,1,165,0|0,0:0|1:0,0:0:0:0:
292,278,36946,1,8,0:0:0:0:
159,232,37089,2,0,P|114:201|186:124,1,165,0|4,0:0|1:0,0:0:0:0:
273,104,37518,1,8,0:0:0:0:
387,77,37660,1,0,0:0:0:0:
183,265,37803,6,0,P|131:239|201:184,1,165,4|8,0:2|0:0,0:0:0:0:
307,155,38232,2,0,L|105:165,1,165,0|0,0:0|1:0,0:0:0:0:
20,119,38660,2,0,L|15:225,1,82.5,8|0,0:0|0:0,0:0:0:0:
329,337,38946,5,8,1:0:0:0:
406,315,39089,1,4,0:0:0:0:
329,337,39232,1,4,0:0:0:0:
189,323,39375,1,8,1:0:0:0:
115,303,39518,1,0,1:0:0:0:
189,323,39661,1,0,1:0:0:0:
336,279,39803,1,8,1:0:0:0:
407,258,39946,1,4,1:1:0:0:
157,187,40089,6,0,P|105:157|178:104,1,165,4|8,0:2|0:0,0:0:0:0:
288,98,40518,2,0,L|97:82,1,165,0|4,0:0|1:0,0:0:0:0:
315,193,41089,1,0,0:0:0:0:
440,229,41232,6,0,P|433:176|319:122,1,165,4|8,1:0|1:0,0:0:0:0:
218,184,41660,2,0,L|383:172,1,165,4|4,1:0|1:0,0:0:0:0:
270,141,42089,1,8,0:0:0:0:
158,109,42232,1,0,0:0:0:0:
388,224,42375,6,0,P|429:204|376:118,1,165,4|8,0:2|0:0,0:0:0:0:
258,195,42803,2,0,L|79:180,1,165,4|4,0:0|1:0,0:0:0:0:
173,163,43232,1,8,2:0:0:0:
311,123,43375,1,0,1:0:0:0:
96,302,43518,6,0,P|98:257|217:198,1,165,4|8,1:2|0:0,0:0:0:0:
313,223,43946,2,0,L|129:218,1,165,0|4,0:0|1:0,0:0:0:0:
377,158,44375,1,8,0:0:0:0:
380,242,44518,1,4,0:0:0:0:
143,318,44660,6,0,P|94:288|160:221,1,165,4|8,0:2|0:0,0:0:0:0:
270,239,45089,2,0,L|440:221,1,165,0|4,0:0|1:0,0:0:0:0:
330,186,45518,1,8,0:0:0:0:
206,202,45660,6,0,P|160:175|230:101,1,165,4|0,1:0|0:0,0:0:0:0:
289,95,46089,1,8,0:0:0:0:
408,96,46232,1,4,1:0:0:0:
218,260,46518,2,0,P|224:212|346:170,1,165,4|0,1:0|0:0,0:0:0:0:
450,132,46946,6,0,L|452:307,1,165,4|8,1:2|0:0,0:0:0:0:
317,319,47375,2,0,L|124:307,2,165,4|4|0,0:1|0:1|0:0,0:0:0:0:
93,252,48089,6,0,L|91:154,1,82.5,8|8,1:0|1:0,0:0:0:0:
172,145,48375,1,0,1:0:0:0:
311,181,48518,2,0,L|136:155,1,165,8|4,1:0|1:0,0:0:0:0:
273,128,48946,1,8,1:0:0:0:
399,89,49089,1,0,1:0:0:0:
194,268,49232,6,0,P|148:245|211:176,1,165,6|2,1:2|1:2,0:0:0:0:
278,187,49660,1,0,0:0:0:0:
166,200,49803,2,0,L|56:209,2,82.5,2|2|8,1:2|1:2|0:0,0:0:0:0:
385,291,50232,6,0,P|382:245|275:183,1,165,2|2,1:2|1:2,0:0:0:0:
171,160,50660,1,8,1:0:0:0:
291,114,50803,1,0,0:2:0:0:
411,56,50946,2,0,L|307:61,1,82.5,4|2,1:0|0:2,0:0:0:0:
219,98,51232,2,0,L|115:103,1,82.5,8|4,1:0|1:0,0:0:0:0:
349,345,51518,6,0,P|395:322|332:253,1,165,6|8,2:0|0:0,0:0:0:0:
264,215,51946,1,0,0:1:0:0:
398,164,52089,2,0,L|495:172,2,82.5,0|4|8,1:0|1:0|0:0,0:0:0:0:
165,298,52518,6,0,P|98:263|186:73,1,330,4|0,0:0|0:0,0:0:0:0:
260,74,53232,1,8,1:0:0:0:
119,73,53375,2,0,L|120:248,1,165,4|4,1:0|1:0,0:0:0:0:
370,308,53803,6,0,P|446:274|368:92,1,330,4|8,1:2|1:0,0:0:0:0:
169,190,54660,1,0,0:0:0:0:
72,180,54803,2,0,P|66:137|234:41,1,247.5,0|4,1:0|1:0,0:0:0:0:
467,94,55518,2,0,L|473:269,1,165,8|0,1:0|1:0,0:0:0:0:
115,317,56089,6,0,P|59:294|92:204,1,165,4|0,1:2|1:0,0:0:0:0:
170,203,56518,2,0,L|-5:176,1,165,0|0,1:0|1:0,0:0:0:0:
186,324,57089,1,0,1:0:0:0:
265,279,57232,1,4,1:0:0:0:
294,198,57375,1,0,0:0:0:0:
268,119,57518,1,4,1:0:0:0:
174,78,57660,1,0,0:0:0:0:
313,59,57803,2,0,L|318:257,1,165,8|0,1:0|1:0,0:0:0:0:
120,275,58375,5,4,1:2:0:0:
17,241,58518,2,0,P|19:187|116:137,1,165
214,157,58946,1,8,1:0:0:0:
358,239,59232,1,0,1:0:0:0:
251,233,59375,2,0,P|197:209|280:77,1,247.5,0|0,1:0|1:0,0:0:0:0:
42,227,60089,2,0,L|35:60,1,165,8|0,1:0|1:0,0:0:0:0:
254,136,60660,6,0,L|445:156,1,165,4|0,1:2|0:0,0:0:0:0:
336,184,61089,1,4,1:0:0:0:
207,191,61232,2,0,L|101:197,1,82.5,0|4,0:0|1:0,0:0:0:0:
256,270,61518,2,0,L|362:276,1,82.5,12|4,1:0|1:2,0:0:0:0:
105,336,61803,5,0,1:0:0:0:
73,245,61946,1,0,1:0:0:0:
106,160,62089,1,0,1:0:0:0:
209,138,62232,1,0,1:0:0:0:
358,152,62375,2,0,L|243:145,1,82.5,8|0,1:0|0:0,0:0:0:0:
143,195,62660,2,0,L|91:198,2,41.25,0|0|0,1:0|1:0|1:0,0:0:0:0:
385,293,62946,6,0,P|428:267|362:184,1,165,4|8,1:2|1:0,0:0:0:0:
308,160,63375,1,0,1:0:0:0:
182,221,63518,2,0,L|360:204,1,165,4|8,1:0|1:0,0:0:0:0:
223,166,63946,6,0,P|180:140|246:57,1,165,0|0,1:0|0:0,0:0:0:0:
350,84,64375,2,0,L|150:63,1,165,10|6,1:0|1:0,0:0:0:0:
285,112,64803,1,0,0:0:0:0:
421,89,64946,2,0,L|425:183,1,82.5,10|0,1:0|1:0,0:0:0:0:
178,288,65232,6,0,P|123:274|87:147,1,165,6|8,1:1|1:0,0:0:0:0:
201,185,65660,2,0,P|248:163|177:101,1,165,2|0,1:0|1:0,0:0:0:0:
82,41,66089,1,8,1:0:0:0:
79,129,66232,1,2,1:0:0:0:
205,285,66375,5,4,1:0:0:0:
289,252,66518,1,0,0:0:0:0:
317,169,66660,1,8,1:0:0:0:
314,88,66803,1,0,0:0:0:0:
262,30,66946,1,4,1:0:0:0:
172,23,67089,1,0,0:0:0:0:
308,44,67232,1,8,1:0:0:0:
311,131,67375,1,2,1:0:0:0:
86,238,67518,6,0,P|42:215|102:137,1,165,4|10,1:2|1:0,0:0:0:0:
212,172,67946,2,0,L|402:160,1,165,2|0,1:0|1:0,0:0:0:0:
262,121,68375,1,8,1:0:0:0:
148,94,68518,1,2,1:0:0:0:
426,238,68660,6,0,P|470:215|410:137,1,165,4|8,1:2|1:0,0:0:0:0:
300,172,69089,2,0,L|110:160,1,165,2|0,1:0|1:0,0:0:0:0:
250,121,69517,1,10,1:0:0:0:
364,94,69660,1,0,1:0:0:0:
92,323,69803,5,6,1:1:0:0:
51,249,69946,1,0,1:0:0:0:
87,175,70089,1,8,1:0:0:0:
174,149,70232,1,2,1:0:0:0:
394,263,70375,1,6,1:0:0:0:
295,274,70518,1,0,1:0:0:0:
197,285,70660,1,8,1:0:0:0:
98,297,70803,1,0,1:0:0:0:
349,333,70946,5,8,1:0:0:0:
395,315,71018,1,0,1:0:0:0:
415,270,71089,1,4,1:0:0:0:
399,223,71160,1,0,1:0:0:0:
352,204,71232,1,0,1:0:0:0:
108,314,71375,1,4,1:3:0:0:
59,303,71446,1,4,1:3:0:0:
19,294,71518,1,0,1:0:0:0:
126,298,71660,1,2,1:2:0:0:
351,107,71803,2,0,L|435:102,2,45.3750013847352,8|0|8,1:0|1:0|1:0,0:0:0:0:
96,193,72089,6,0,P|49:172|106:104,1,165,4|8,1:2|0:0,0:0:0:0:
219,104,72518,2,0,L|42:84,2,165
477,134,73232,6,0,L|482:238,1,82.5,4|4,0:1|0:0,0:0:0:0:
395,238,73518,1,8,0:0:0:0:
266,254,73660,2,0,P|220:233|297:176,1,165,0|4,0:0|0:0,0:0:0:0:
403,168,74089,2,0,L|505:178,1,82.5,8|4,0:0|0:0,0:0:0:0:
218,345,74375,6,0,L|214:155,1,165,4|8,0:2|0:0,0:0:0:0:
332,182,74803,2,0,P|379:153|314:83,1,165,4|0,0:0|0:0,0:0:0:0:
199,115,75232,2,0,L|103:103,1,82.5,8|0,0:0|0:0,0:0:0:0:
323,290,75518,6,0,L|497:271,1,165,0|8,0:0|0:0,0:0:0:0:
362,229,75946,2,0,P|300:213|268:119,1,165,0|4,0:0|0:0,0:0:0:0:
401,104,76375,1,8,0:0:0:0:
406,189,76518,1,0,0:0:0:0:
194,227,76660,6,0,L|25:218,1,165,4|8,0:2|0:0,0:0:0:0:
146,175,77089,2,0,L|315:166,1,165,4|6,0:0|0:0,0:0:0:0:
422,203,77518,1,8,0:0:0:0:
185,306,77660,6,0,P|134:286|205:153,1,247.5,2|8,0:1|0:0,0:0:0:0:
408,214,78232,2,0,P|461:188|394:128,1,165,6|6,0:0|0:0,0:0:0:0:
291,141,78660,1,10,0:0:0:0:
171,158,78803,1,0,0:0:0:0:
426,317,78946,6,0,P|416:268|312:211,1,165,4|8,0:2|0:0,0:0:0:0:
111,217,79375,2,0,P|64:186|132:114,1,165,2|4,0:0|0:0,0:0:0:0:
223,77,79803,1,10,0:0:0:0:
111,110,79946,1,0,0:0:0:0:
337,152,80089,5,8,0:0:0:0:
381,156,80160,1,0,0:0:0:0:
426,161,80232,1,0,0:0:0:0:
332,192,80375,1,4,0:0:0:0:
123,270,80518,1,8,0:0:0:0:
121,224,80589,1,0,0:0:0:0:
119,178,80660,1,0,0:0:0:0:
211,167,80803,1,4,0:0:0:0:
436,272,80946,2,0,L|494:268,2,45.3750013847352,8|0|4,0:0|0:0|0:0,0:0:0:0:
183,325,81232,6,0,P|131:306|162:200,1,165,4|8,0:2|0:0,0:0:0:0:
259,230,81660,2,0,L|442:214,1,165,6|6,0:0|0:0,0:0:0:0:
308,197,82089,1,8,0:0:0:0:
193,178,82232,1,2,0:0:0:0:
414,158,82375,6,0,P|459:135|399:60,1,165,6|8,0:0|0:0,0:0:0:0:
287,98,82803,2,0,L|104:86,1,165,6|6,0:0|0:0,0:0:0:0:
238,73,83232,1,8,1:0:0:0:
352,59,83375,1,0,0:0:0:0:
124,252,83518,6,0,P|67:224|138:186,1,165,6|8,0:1|0:0,0:0:0:0:
254,219,83946,2,0,L|360:217,1,82.5,2|4,0:0|0:0,0:0:0:0:
454,136,84232,2,0,L|348:134,1,82.5,2|8,0:0|0:0,0:0:0:0:
137,281,84518,6,0,P|146:229|263:178,1,165,2|2,0:0|0:0,0:0:0:0:
321,198,84946,1,8,0:0:0:0:
191,221,85089,2,0,L|189:134,1,82.5,2|4,0:0|0:0,0:0:0:0:
274,107,85375,1,2,0:0:0:0:
403,85,85518,2,0,L|283:71,1,82.5,8|2,0:0|0:0,0:0:0:0:
89,289,85803,6,0,P|96:242|217:192,1,165,4|8,0:2|0:0,0:0:0:0:
286,189,86232,2,0,L|100:182,1,165,0|4,0:0|0:0,0:0:0:0:
24,148,86660,1,8,0:0:0:0:
20,231,86803,1,0,0:0:0:0:
249,290,86946,6,0,L|357:283,2,82.5,4|0|10,0:2|0:0|0:0,0:0:0:0:
20,274,87375,2,0,P|28:218|138:178,1,165,2|4,0:1|0:0,0:0:0:0:
243,137,87803,2,0,L|135:130,1,82.5,8|2,0:0|0:0,0:0:0:0:
374,312,88089,5,4,0:2:0:0:
456,286,88232,1,0,0:0:0:0:
483,203,88375,1,8,0:0:0:0:
451,122,88518,1,0,0:0:0:0:
329,88,88660,1,2,0:2:0:0:
323,170,88803,1,4,0:0:0:0:
449,169,88946,1,8,0:0:0:0:
455,251,89089,1,2,0:2:0:0:
215,268,89232,5,2,0:2:0:0:
125,279,89375,1,2,2:0:0:0:
38,293,89518,1,8,0:0:0:0:
148,212,89660,2,0,L|337:233,1,165,4|4,0:0|0:0,0:0:0:0:
59,95,90089,1,10,0:0:0:0:
54,181,90232,1,0,2:0:0:0:
309,320,90375,6,0,P|357:312|416:209,1,165,6|8,0:1|0:0,0:0:0:0:
291,196,90803,2,0,L|121:172,1,165,2|4,0:0|0:0,0:0:0:0:
254,128,91232,1,10,0:0:0:0:
259,210,91375,1,0,0:0:0:0:
25,200,91518,6,0,P|34:149|149:98,1,165,6|8,0:1|0:0,0:0:0:0:
262,123,91946,2,0,L|84:113,1,165,6|4,0:0|0:0,0:0:0:0:
212,99,92375,1,10,0:0:0:0:
326,85,92518,1,0,0:0:0:0:
102,271,92660,6,0,P|51:237|119:175,1,165,6|8,0:1|0:0,0:0:0:0:
227,206,93089,2,0,L|413:189,1,165,2|4,0:0|0:0,0:0:0:0:
266,129,93518,1,10,0:0:0:0:
263,207,93660,1,0,0:0:0:0:
480,190,93803,6,0,P|474:136|352:87,1,165,6|8,0:1|0:0,0:0:0:0:
266,129,94232,2,0,L|94:121,1,165,6|4,0:0|0:0,0:0:0:0:
212,89,94660,1,10,0:0:0:0:
323,58,94803,1,0,0:0:0:0:
104,314,94946,5,8,0:0:0:0:
75,231,95089,1,0,0:0:0:0:
106,151,95232,1,8,0:0:0:0:
202,126,95375,1,0,0:0:0:0:
449,89,95518,1,8,0:0:0:0:
460,182,95660,1,0,0:0:0:0:
201,233,95803,1,8,0:0:0:0:
100,221,95946,1,0,0:0:0:0:
363,349,96089,5,8,0:0:0:0:
444,330,96232,1,0,0:0:0:0:
474,246,96375,1,8,0:0:0:0:
444,163,96518,1,0,0:0:0:0:
340,137,96660,1,8,0:0:0:0:
68,136,96803,1,8,0:0:0:0:
345,274,97232,5,4,1:2:0:0:
439,244,97375,1,0,2:0:0:0:
466,163,97518,1,10,1:0:0:0:
427,91,97660,1,4,1:0:0:0:
297,69,97803,2,0,L|206:60,1,82.5,0|2,1:0|1:0,0:0:0:0:
351,151,98089,2,0,L|442:142,1,82.5,8|4,1:0|1:0,0:0:0:0:
213,149,98375,6,0,L|204:250,1,82.5,2|4,0:0|0:0,0:0:0:0:
288,264,98660,1,10,0:0:0:0:
411,288,98803,2,0,L|220:312,1,165,2|2,0:0|1:1,0:0:0:0:
115,307,99232,2,0,L|111:216,1,82.5,10|0,1:1|0:0,0:0:0:0:
386,338,99518,5,4,1:2:0:0:
424,250,99660,1,0,2:0:0:0:
386,171,99803,1,10,1:0:0:0:
295,140,99946,1,0,1:0:0:0:
156,101,100089,2,0,L|152:206,1,82.5,0|2,1:0|1:0,0:0:0:0:
288,246,100375,2,0,L|375:240,1,82.5,8|4,1:0|1:0,0:0:0:0:
156,331,100660,6,0,L|69:325,2,82.5,6|4|8,1:1|1:0|1:0,0:0:0:0:
277,304,101089,2,0,P|275:254|171:207,1,165,6|0,1:1|0:0,0:0:0:0:
57,166,101518,2,0,L|53:283,1,82.5,8|0,1:0|0:0,0:0:0:0:
299,247,101803,5,4,1:2:0:0:
377,217,101946,1,0,1:0:0:0:
402,142,102089,1,10,1:1:0:0:
370,73,102232,1,0,1:0:0:0:
249,88,102375,2,0,L|243:-7,1,82.5,4|2,1:0|1:0,0:0:0:0:
374,29,102660,2,0,L|456:41,1,82.5,8|0,1:0|1:0,0:0:0:0:
220,179,102946,6,0,L|112:164,2,82.5,6|0|8,1:1|1:0|1:0,0:0:0:0:
441,276,103375,2,0,L|250:250,1,165,6|0,1:1|1:0,0:0:0:0:
152,283,103803,2,0,L|233:294,1,82.5,10|4,1:0|1:0,0:0:0:0:
449,332,104089,5,4,1:2:0:0:
443,253,104232,1,0,0:0:0:0:
394,182,104375,1,10,1:0:0:0:
300,152,104518,1,0,1:0:0:0:
167,154,104660,2,0,L|48:145,1,82.5,0|6,0:0|0:0,0:0:0:0:
196,79,104946,2,0,L|302:69,1,82.5,8|0,1:0|1:0,0:0:0:0:
43,275,105232,5,6,1:0:0:0:
43,275,105303,1,0,0:0:0:0:
43,275,105375,1,4,1:0:0:0:
149,275,105518,1,8,1:0:0:0:
382,168,105660,1,10,0:0:0:0:
382,168,105731,1,0,0:0:0:0:
382,168,105803,1,4,0:0:0:0:
276,168,105946,1,8,0:0:0:0:
69,121,106089,2,0,L|5:121,2,41.25,10|0|4,0:0|0:0|0:0,0:0:0:0:
322,251,106375,6,0,P|376:224|316:164,1,165,4|8,0:2|0:0,0:0:0:0:
217,126,106804,2,0,L|409:114,1,165
180,327,107375,1,4,0:0:0:0:
89,306,107518,5,4,0:2:0:0:
56,227,107661,1,0,0:0:0:0:
96,153,107804,1,8,0:0:0:0:
239,192,107947,2,0,P|230:133|125:99,1,165,4|4,0:0|0:0,0:0:0:0:
21,104,108375,2,0,L|15:196,1,82.5,8|0,0:0|0:0,0:0:0:0:
151,134,108661,6,0,L|318:127,1,165,4|8,0:0|0:0,0:0:0:0:
228,165,109089,1,0,0:0:0:0:
98,235,109232,2,0,L|6:226,2,82.5,4|0|8,0:0|0:0|0:0,0:0:0:0:
304,207,109804,6,0,L|299:319,1,82.5,4|4,0:0|0:0,0:0:0:0:
207,292,110089,1,8,0:0:0:0:
335,339,110232,2,0,P|385:326|436:213,1,165,4|4,0:0|0:0,0:0:0:0:
219,167,110661,2,0,L|124:169,1,82.5,8|4,0:0|0:0,0:0:0:0:
376,185,110947,6,0,P|423:162|357:97,1,165,4|8,0:2|0:0,0:0:0:0:
278,71,111375,2,0,L|468:41,1,165,4|4,0:0|0:0,0:0:0:0:
262,279,111947,6,0,L|72:249,1,165,4|4,0:0|0:0,0:0:0:0:
179,204,112375,1,8,0:0:0:0:
312,206,112518,2,0,P|357:175|285:98,1,165,4|4,0:0|0:0,0:0:0:0:
186,91,112947,1,0,0:0:0:0:
181,174,113089,1,0,0:0:0:0:
435,331,113232,6,0,P|424:273|317:227,1,165,4|8,0:0|0:0,0:0:0:0:
211,219,113660,2,0,P|222:161|329:115,1,165,4|4,0:0|0:0,0:0:0:0:
436,111,114089,2,0,L|441:217,1,82.5,8|0,0:0|0:0,0:0:0:0:
183,337,114375,5,4,0:1:0:0:
106,315,114518,1,0,0:0:0:0:
183,337,114661,1,4,0:0:0:0:
323,323,114804,1,8,0:0:0:0:
397,303,114947,1,0,0:0:0:0:
323,323,115090,1,4,0:0:0:0:
176,279,115232,1,8,0:0:0:0:
105,258,115375,1,4,0:0:0:0:
355,187,115518,6,0,P|407:157|334:104,1,165,4|8,0:2|0:0,0:0:0:0:
224,98,115947,2,0,L|415:82,1,165,4|4,0:0|0:0,0:0:0:0:
197,193,116518,1,0,0:0:0:0:
72,229,116661,6,0,P|79:176|193:122,1,165,4|8,0:0|0:0,0:0:0:0:
294,184,117089,2,0,L|129:172,1,165,4|4,0:0|0:0,0:0:0:0:
249,141,117518,1,8,0:0:0:0:
253,57,117661,1,0,0:0:0:0:
124,224,117804,6,0,P|83:204|136:118,1,165,4|8,0:2|0:0,0:0:0:0:
254,195,118232,2,0,L|433:180,1,165,4|4,0:2|0:0,0:0:0:0:
339,163,118661,1,8,0:0:0:0:
201,123,118804,1,4,0:0:0:0:
417,307,118946,6,0,L|430:107,1,165,4|8,0:2|0:0,0:0:0:0:
283,202,119375,2,0,L|119:207,1,165,4|4,0:0|0:0,0:0:0:0:
221,164,119804,1,8,0:0:0:0:
329,119,119947,1,4,0:0:0:0:
90,250,120089,6,0,P|41:220|107:153,1,165,4|8,0:2|0:0,0:0:0:0:
206,119,120518,2,0,L|36:101,1,165,4|4,0:0|0:0,0:0:0:0:
126,69,120947,1,0,0:0:0:0:
259,138,121089,6,0,P|305:111|235:37,1,165,4|4,0:0|0:0,0:0:0:0:
176,31,121518,1,8,0:0:0:0:
57,32,121661,1,4,0:0:0:0:
294,260,121947,2,0,P|288:212|166:170,1,165
62,132,122375,6,0,L|60:307,1,165,4|8,0:2|0:0,0:0:0:0:
195,319,122804,2,0,L|388:307,2,165,2|2|2,0:2|0:2|0:2,0:0:0:0:
455,140,123518,6,0,L|459:250,1,82.5,8|4,0:0|0:0,0:0:0:0:
367,244,123803,1,4,0:0:0:0:
234,238,123946,2,0,P|186:208|248:134,1,165,8|4,0:0|0:0,0:0:0:0:
348,128,124375,1,8,0:0:0:0:
463,124,124518,1,4,0:0:0:0:
194,268,124661,6,0,P|148:245|211:176,1,165,4|10,0:2|1:2,0:0:0:0:
279,138,125089,1,0,2:0:0:0:
145,87,125232,2,0,L|140:188,1,82.5,2|2,1:2|1:2,0:0:0:0:
261,218,125517,1,8,0:0:0:0:
385,291,125661,6,0,P|382:245|275:183,1,165,2|0,1:2|1:0,0:0:0:0:
171,160,126089,1,10,1:2:0:0:
291,114,126232,1,4,0:0:0:0:
416,45,126375,2,0,L|418:136,1,82.5,10|4,1:2|0:0,0:0:0:0:
296,172,126660,2,0,L|401:177,1,82.5,8|4,0:0|0:0,0:0:0:0:
163,345,126947,6,0,P|117:322|180:253,1,165,4|10,0:2|1:2,0:0:0:0:
248,215,127375,1,0,2:0:0:0:
114,164,127518,2,0,L|17:172,2,82.5,10|4|8,1:2|1:0|0:0,0:0:0:0:
347,298,127947,6,0,P|414:263|326:73,1,330,4|4,0:0|0:0,0:0:0:0:
243,153,128661,1,8,0:0:0:0:
384,146,128804,2,0,L|387:323,1,165,4|0,0:0|0:0,0:0:0:0:
142,308,129232,6,0,P|66:274|144:92,1,330,4|8,0:2|0:0,0:0:0:0:
343,190,130089,1,0,0:0:0:0:
440,180,130232,2,0,P|446:137|278:41,1,247.5,4|4,0:0|0:0,0:0:0:0:
45,94,130947,2,0,L|216:104,1,165,8|4,0:0|0:0,0:0:0:0:
397,317,131518,6,0,P|453:294|420:204,1,165,4|4,0:2|0:0,0:0:0:0:
342,203,131947,2,0,L|517:176,1,165,0|4,0:0|0:0,0:0:0:0:
326,324,132518,1,0,0:0:0:0:
247,279,132661,1,4,0:0:0:0:
218,198,132804,1,0,2:0:0:0:
244,119,132947,1,4,0:0:0:0:
338,78,133089,1,4,1:0:0:0:
199,59,133232,2,0,L|28:74,1,165,8|8,0:0|0:0,0:0:0:0:
260,274,133804,5,4,0:2:0:0:
362,223,133946,2,0,L|368:33,1,165
248,48,134375,1,8,0:0:0:0:
62,184,134660,1,4,0:0:0:0:
155,244,134803,2,0,P|224:207|133:94,1,247.5,4|4,0:0|0:0,0:0:0:0:
338,160,135518,2,0,L|525:140,1,165,8|4,0:0|0:0,0:0:0:0:
242,141,136089,6,0,L|51:161,1,165,4|4,0:2|0:0,0:0:0:0:
160,189,136518,1,2,0:2:0:0:
289,196,136661,2,0,L|395:202,1,82.5,8|2,0:0|0:2,0:0:0:0:
240,275,136947,2,0,L|134:281,1,82.5,0|4,0:0|0:0,0:0:0:0:
407,336,137232,5,4,0:2:0:0:
439,245,137375,1,2,0:2:0:0:
406,160,137518,1,8,0:0:0:0:
303,138,137661,1,4,0:0:0:0:
154,152,137804,2,0,L|269:145,1,82.5,8|4,0:0|0:0,0:0:0:0:
369,195,138089,2,0,L|421:198,2,41.25,4|0|0,0:0|0:0|0:0,0:0:0:0:
127,293,138375,6,0,P|84:267|150:184,1,165,4|8,0:2|0:0,0:0:0:0:
204,160,138804,1,0,0:0:0:0:
330,221,138947,2,0,L|152:204,1,165,6|10,0:0|0:0,0:0:0:0:
289,166,139375,6,0,P|332:140|266:57,1,165,2|4,0:0|0:0,0:0:0:0:
162,84,139804,2,0,L|362:63,1,165,10|6,0:0|0:0,0:0:0:0:
227,112,140232,1,0,2:0:0:0:
91,89,140375,2,0,L|87:183,1,82.5,10|4,0:0|0:0,0:0:0:0:
334,288,140661,6,0,P|389:274|425:147,1,165,4|8,0:2|0:0,0:0:0:0:
311,185,141089,2,0,L|129:163,1,165,2|4,0:0|0:0,0:0:0:0:
280,127,141518,2,0,L|376:115,1,82.5,8|2,0:0|0:0,0:0:0:0:
129,302,141803,5,4,0:0:0:0:
130,219,141946,1,0,0:0:0:0:
166,144,142089,1,8,0:0:0:0:
237,103,142232,1,0,0:0:0:0:
355,86,142375,1,4,0:0:0:0:
232,64,142518,1,0,0:0:0:0:
129,90,142660,1,8,0:0:0:0:
126,182,142803,1,6,0:0:0:0:
426,238,142947,6,0,P|470:215|410:137,1,165,2|8,0:1|0:0,0:0:0:0:
300,172,143375,2,0,L|110:160,1,165,6|4,0:0|0:0,0:0:0:0:
250,121,143804,1,8,0:0:0:0:
364,94,143947,1,6,0:0:0:0:
86,238,144089,6,0,P|42:215|102:137,1,165,2|8,0:1|0:0,0:0:0:0:
212,172,144517,2,0,L|402:160,1,165,6|4,0:0|0:0,0:0:0:0:
262,121,144946,1,8,0:0:0:0:
148,94,145089,1,2,0:0:0:0:
399,320,145232,5,6,0:1:0:0:
437,228,145375,1,4,0:0:0:0:
401,135,145518,1,8,0:0:0:0:
305,111,145660,1,6,0:0:0:0:
66,267,145803,1,8,0:0:0:0:
163,252,145946,1,4,0:0:0:0:
279,235,146089,1,8,0:0:0:0:
377,220,146232,1,4,0:0:0:0:
106,151,146375,1,4,2:2:0:0:
339,244,147089,5,2,2:0:0:0:
243,217,147232,1,2,2:0:0:0:
147,190,147375,1,0,2:0:0:0:
416,193,147518,6,0,P|463:172|406:104,1,165,4|8,1:2|1:0,0:0:0:0:
293,104,147947,2,0,L|470:84,2,165,0|0|0,1:0|0:0|0:0,0:0:0:0:
35,134,148661,6,0,L|30:238,1,82.5,4|0,0:0|0:0,0:0:0:0:
117,238,148947,1,8,0:0:0:0:
246,254,149089,2,0,P|292:233|215:176,1,165,4|4,0:0|0:0,0:0:0:0:
109,168,149518,2,0,L|7:178,1,82.5,8|4,0:0|0:0,0:0:0:0:
294,345,149804,6,0,L|487:334,1,165,4|8,0:2|0:0,0:0:0:0:
354,290,150232,2,0,P|307:261|372:191,1,165,0|4,0:0|0:0,0:0:0:0:
464,130,150661,2,0,L|382:140,1,82.5,8|0,0:0|0:0,0:0:0:0:
136,339,150947,6,0,P|81:332|36:229,1,165,4|8,0:0|0:0,0:0:0:0:
142,238,151375,2,0,P|192:223|134:165,1,165,4|4,0:0|0:0,0:0:0:0:
30,97,151804,1,8,0:0:0:0:
25,182,151947,1,0,0:0:0:0:
318,227,152089,6,0,L|487:218,1,165,4|8,0:2|0:0,0:0:0:0:
366,175,152518,2,0,L|197:166,1,165,4|2,0:0|0:0,0:0:0:0:
90,203,152947,1,8,0:0:0:0:
327,306,153089,6,0,P|378:286|307:153,1,247.5,2|8,0:0|0:0,0:0:0:0:
104,214,153661,2,0,P|51:188|118:128,1,165,6|4,0:0|0:0,0:0:0:0:
221,141,154089,1,10,0:0:0:0:
341,158,154232,1,0,0:0:0:0:
86,317,154375,6,0,P|96:268|200:211,1,165,4|8,0:2|0:0,0:0:0:0:
401,217,154804,2,0,P|448:186|380:114,1,165,2|4,0:0|0:0,0:0:0:0:
286,93,155232,1,10,0:0:0:0:
171,76,155375,1,0,0:0:0:0:
399,261,155518,6,0,L|454:256,2,45.3750013847352,8|0|4,0:0|0:0|0:0,0:0:0:0:
297,224,155803,1,4,0:0:0:0:
81,260,155946,2,0,L|26:255,2,45.3750013847352,8|0|0,0:0|0:0|0:0,0:0:0:0:
187,218,156232,1,0,1:0:0:0:
407,98,156375,1,8,1:0:0:0:
412,161,156446,1,0,1:0:0:0:
417,224,156518,1,0,1:0:0:0:
183,325,156661,6,0,P|131:306|162:200,1,165,4|8,0:2|0:0,0:0:0:0:
259,230,157089,2,0,L|442:214,1,165,6|2,0:0|0:0,0:0:0:0:
308,197,157518,1,8,0:0:0:0:
193,178,157661,1,6,0:0:0:0:
414,158,157804,6,0,P|459:135|399:60,1,165,2|8,0:0|0:0,0:0:0:0:
287,98,158232,2,0,L|104:86,1,165,6|4,0:0|0:0,0:0:0:0:
238,73,158661,1,10,0:0:0:0:
352,59,158804,1,0,0:0:0:0:
124,252,158947,6,0,P|67:224|138:186,1,165,6|10,0:0|0:0,0:0:0:0:
254,219,159375,2,0,L|360:217,1,82.5,2|0,0:0|0:0,0:0:0:0:
454,136,159661,2,0,L|348:134,1,82.5,6|10,0:0|0:0,0:0:0:0:
152,319,159946,6,0,L|326:301,1,165,2|2,0:0|0:0,0:0:0:0:
227,253,160375,1,8,0:0:0:0:
86,277,160518,2,0,L|84:190,1,82.5,2|4,0:0|0:0,0:0:0:0:
194,156,160804,1,2,0:0:0:0:
335,95,160947,2,0,L|339:209,1,82.5,0|6,0:0|0:0,0:0:0:0:
89,289,161232,6,0,P|96:242|217:192,1,165,4|8,0:2|0:0,0:0:0:0:
286,189,161661,2,0,L|100:182,1,165,0|4,0:0|0:0,0:0:0:0:
24,148,162089,1,8,0:0:0:0:
20,231,162232,1,0,0:0:0:0:
249,290,162375,6,0,L|357:283,2,82.5,4|2|10,0:0|0:2|0:0,0:0:0:0:
31,332,162803,2,0,L|200:321,1,165,2|4,0:0|0:0,0:0:0:0:
326,348,163232,2,0,L|435:338,1,82.5,8|6,0:0|0:0,0:0:0:0:
138,312,163518,5,2,0:2:0:0:
56,286,163661,1,0,0:0:0:0:
29,203,163804,1,8,0:0:0:0:
61,122,163947,1,0,0:0:0:0:
183,88,164089,1,2,0:2:0:0:
294,88,164232,1,4,0:0:0:0:
183,153,164375,1,8,0:0:0:0:
72,149,164518,1,2,0:2:0:0:
276,268,164661,5,4,0:0:0:0:
366,279,164804,1,4,0:0:0:0:
276,268,164947,1,8,0:0:0:0:
149,309,165089,2,0,P|97:279|160:219,1,165,4|4,0:0|0:0,0:0:0:0:
403,92,165518,1,10,0:1:0:0:
408,178,165661,1,4,0:0:0:0:
166,322,165804,6,0,P|118:314|59:211,1,165,6|8,0:1|0:0,0:0:0:0:
170,213,166232,2,0,L|340:189,1,165,2|4,0:0|0:0,0:0:0:0:
467,151,166661,1,10,0:0:0:0:
472,233,166804,1,0,0:0:0:0:
249,337,166946,6,0,P|202:306|273:236,1,165,6|8,0:1|0:0,0:0:0:0:
375,186,167375,2,0,L|197:176,1,165,2|4,0:0|0:0,0:0:0:0:
324,152,167804,1,10,0:0:0:0:
434,117,167947,1,0,0:0:0:0:
206,207,168089,6,0,P|155:173|223:111,1,165,6|8,0:1|0:0,0:0:0:0:
336,97,168518,2,0,L|150:80,1,165,2|0,0:0|0:0,0:0:0:0:
40,69,168947,1,10,0:0:0:0:
35,156,169089,1,0,0:0:0:0:
273,271,169232,6,0,P|320:245|259:170,1,165,6|8,0:1|0:0,0:0:0:0:
147,173,169660,2,0,P|100:147|161:72,1,165,2|4,0:0|0:0,0:0:0:0:
284,117,170089,1,10,0:0:0:0:
290,201,170232,1,0,0:0:0:0:
59,310,170375,5,2,0:2:0:0:
30,227,170518,1,4,0:0:0:0:
61,147,170661,1,2,0:2:0:0:
157,122,170804,1,4,0:0:0:0:
376,69,170946,1,2,0:2:0:0:
383,178,171089,1,4,0:0:0:0:
250,188,171232,1,2,0:2:0:0:
243,297,171375,1,4,0:0:0:0:
463,245,171518,5,2,0:2:0:0:
350,223,171660,1,4,0:0:0:0:
236,201,171803,1,2,0:2:0:0:
122,179,171946,1,4,0:0:0:0:
362,135,172089,1,2,0:2:0:0:
470,116,172232,1,4,0:0:0:0:
362,135,172375,1,8,0:0:0:0:
136,102,172518,2,0,L|130:37,1,49.4999984893799,8|0,0:0|0:0,0:0:0:0:
310,266,172660,6,0,P|356:238|292:164,1,165,4|8,2:0|0:0,0:0:0:0:
217,146,173089,1,0,0:0:0:0:
81,205,173232,1,4,0:1:0:0:
91,126,173375,1,4,0:1:0:0:
160,58,173518,1,8,0:0:0:0:
262,41,173660,1,2,0:0:0:0:
389,112,173803,6,0,L|201:92,1,165,4|8,0:1|0:0,0:0:0:0:
343,189,174232,2,0,P|390:183|447:77,1,165,2|4,0:2|0:1,0:0:0:0:
314,59,174660,2,0,L|215:50,1,82.5,8|2,0:0|0:0,0:0:0:0:
24,231,174946,5,4,0:0:0:0:
37,141,175089,1,0,0:0:0:0:
95,71,175232,1,8,0:0:0:0:
182,48,175375,1,0,0:0:0:0:
314,118,175518,2,0,L|223:110,1,82.5,2|2,0:0|0:0,0:0:0:0:
112,190,175803,2,0,L|228:188,1,82.5,8|2,0:0|0:0,0:0:0:0:
324,147,176089,5,4,0:1:0:0:
327,239,176232,1,4,0:1:0:0:
332,328,176375,1,8,0:0:0:0:
197,319,176518,2,0,P|140:291|207:245,1,165,2|4,0:0|0:1,0:0:0:0:
457,206,176946,1,8,0:0:0:0:
464,300,177089,1,2,0:0:0:0:
228,184,177232,6,0,P|173:172|125:66,1,165,4|8,0:0|0:0,0:0:0:0:
249,61,177660,2,0,P|296:86|237:159,1,165,4|4,0:1|0:1,0:0:0:0:
121,218,178089,2,0,L|239:228,1,82.5,8|0,0:0|0:0,0:0:0:0:
439,144,178375,6,0,P|486:169|427:242,1,165,4|8,0:1|0:0,0:0:0:0:
309,301,178803,2,0,L|304:114,1,165,2|4,0:0|0:1,0:0:0:0:
429,107,179232,2,0,L|323:102,1,82.5,8|0,0:0|0:0,0:0:0:0:
107,182,179518,6,0,P|61:152|134:81,1,165,4|8,0:0|0:0,0:0:0:0:
212,99,179946,2,0,L|28:84,1,165,4|4,0:1|0:1,0:0:0:0:
294,198,180375,2,0,P|348:184|397:84,1,165,8|8,0:0|0:0,0:0:0:0:
268,45,180803,5,4,0:1:0:0:
269,90,180875,1,0,0:0:0:0:
270,135,180946,1,4,0:1:0:0:
354,167,181089,1,4,0:1:0:0:
135,269,181232,1,8,0:0:0:0:
75,246,181327,1,0,0:0:0:0:
45,193,181422,1,0,0:0:0:0:
43,132,181518,1,8,0:0:0:0:
77,82,181613,1,0,0:0:0:0:
135,67,181708,1,0,0:0:0:0:
315,197,181803,6,0,P|371:169|296:130,1,165,4|8,0:0|0:0,0:0:0:0:
161,150,182279,1,2,0:0:0:0:
156,235,182470,1,2,0:0:0:0:
317,233,182660,1,8,0:0:0:0:
322,318,182851,1,2,0:0:0:0:
163,354,183041,6,0,L|419:319,2,220,2|0|8,0:0|0:0|0:0,0:0:0:0:
55,307,183946,1,0,0:0:0:0:
302,202,184089,6,0,P|351:180|279:120,1,165,4|8,0:0|0:0,0:0:0:0:
170,135,184518,2,0,L|0:129,1,165,2|4,0:0|0:1,0:0:0:0:
130,209,184946,2,0,L|225:213,1,82.5,8|0,0:0|0:0,0:0:0:0:
340,151,185232,6,0,L|415:155,2,41.25,2|0|0,0:0|0:0|0:0,0:0:0:0:
206,261,185518,1,8,0:0:0:0:
215,182,185660,1,4,0:1:0:0:
263,106,185803,1,2,0:0:0:0:
367,74,185946,1,4,0:1:0:0:
148,65,186089,1,8,0:0:0:0:
145,152,186232,1,4,0:2:0:0:
380,283,186375,6,0,P|431:261|359:205,1,165,4|8,0:2|0:0,0:0:0:0:
251,253,186803,2,0,L|79:238,1,165,2|4,0:0|0:1,0:0:0:0:
213,173,187232,2,0,L|310:169,1,82.5,8|0,0:0|0:0,0:0:0:0:
50,328,187518,6,0,P|53:280|168:229,1,165,4|8,0:1|0:0,0:0:0:0:
277,263,187946,2,0,L|476:249,1,165,2|4,0:0|0:1,0:0:0:0:
323,204,188375,1,8,0:0:0:0:
443,177,188518,1,0,0:0:0:0:
190,240,188660,6,0,P|148:212|220:135,1,165,4|8,0:0|0:0,0:0:0:0:
282,148,189089,1,4,0:1:0:0:
427,89,189232,2,0,L|431:189,1,82.5,4|0,0:1|0:0,0:0:0:0:
296,221,189518,2,0,L|193:227,1,82.5,8|4,0:0|0:1,0:0:0:0:
476,199,189803,5,8,0:0:0:0:
478,244,189875,1,0,0:0:0:0:
480,289,189946,1,0,0:0:0:0:
389,298,190089,1,0,0:0:0:0:
180,124,190232,1,8,0:0:0:0:
178,169,190304,1,0,0:0:0:0:
176,214,190375,1,0,0:0:0:0:
267,223,190518,1,0,0:0:0:0:
405,259,190660,2,0,L|297:272,1,82.5,8|0,0:0|0:0,0:0:0:0:
43,267,190946,5,8,0:0:0:0:
43,206,191041,1,0,0:0:0:0:
56,146,191137,1,2,0:0:0:0:
94,99,191232,1,8,0:0:0:0:
148,72,191327,1,0,0:0:0:0:
207,63,191422,1,2,0:0:0:0:
276,74,191518,1,8,0:0:0:0:
170,97,191660,1,4,0:1:0:0:
36,159,191803,1,8,0:0:0:0:
142,182,191945,1,4,0:1:0:0:
405,135,192089,1,2,0:0:0:0:
250,253,201232,6,0,P|185:228|208:137,1,165,0|2,1:0|0:0,0:0:0:0:
292,120,201660,2,0,L|123:114,1,165
360,238,202232,1,0,0:0:0:0:
457,221,202375,6,0,P|448:166|344:121,1,165,0|2,1:0|0:0,0:0:0:0:
254,155,202803,2,0,L|441:145,1,165
328,129,203232,1,2,0:0:0:0:
238,112,203375,1,0,0:0:0:0:
28,201,203518,6,0,P|39:154|157:115,1,165,0|2,1:0|0:0,0:0:0:0:
234,138,203946,2,0,L|62:134,1,165,2|0,0:0|0:0,0:0:0:0:
158,114,204375,1,0,0:0:0:0:
293,182,204518,6,0,P|334:163|277:79,1,165,2|2,0:0|0:0,0:0:0:0:
88,277,205089,2,0,P|47:258|104:174,1,165,2|2,0:0|0:0,0:0:0:0:
271,219,205660,1,0,0:0:0:0:
378,176,205803,6,0,L|382:344,1,165,0|2,1:0|0:0,0:0:0:0:
271,324,206232,2,0,P|216:302|177:199,1,165
265,197,206660,1,0,0:0:0:0:
355,184,206803,1,0,0:0:0:0:
119,260,206946,6,0,P|68:233|138:177,1,165,0|2,1:0|0:0,0:0:0:0:
256,199,207375,2,0,L|425:190,1,165,2|0,0:0|0:0,0:0:0:0:
286,109,207803,2,0,L|189:100,1,82.5,2|0,0:0|0:0,0:0:0:0:
416,55,208089,5,2,0:0:0:0:
256,192,208375,12,0,210232,0:0:0:0:
311,165,210518,6,0,L|412:158,2,82.5,0|2|0,0:0|0:0|0:0,0:0:0:0:
179,214,210946,2,0,P|129:193|189:129,1,165,2|0,0:0|2:0,0:0:0:0:
467,344,211375,6,0,P|467:280|261:96,1,330,4|0,0:0|0:0,0:0:0:0:
153,326,212089,5,8,1:0:0:0:
117,320,212160,1,0,1:0:0:0:
100,281,212231,1,4,1:0:0:0:
117,242,212303,1,0,1:0:0:0:
154,236,212374,1,8,1:0:0:0:
196,235,212446,1,0,1:0:0:0:
240,235,212517,1,4,1:0:0:0:
276,229,212588,1,0,1:0:0:0:
293,190,212659,1,8,1:0:0:0:
276,151,212731,1,0,1:0:0:0:
240,145,212802,1,4,1:0:0:0:
382,94,212946,1,4,1:2:0:0:
384,180,213089,1,0,0:0:0:0:
105,350,213232,6,0,L|94:154,1,181.500005538941,4|8,1:0|1:0,0:0:0:0:
227,215,213660,2,0,P|284:186|209:116,1,181.500005538941,4|4,1:0|1:0,0:0:0:0:
94,159,214089,2,0,L|92:53,1,90.7500027694703,8|0,0:0|0:0,0:0:0:0:
302,291,214375,6,0,L|486:269,1,181.500005538941,4|8,0:0|0:0,0:0:0:0:
370,234,214803,2,0,P|308:218|258:103,1,181.500005538941,4|4,0:0|0:0,0:0:0:0:
387,88,215232,1,8,0:0:0:0:
392,173,215375,1,0,0:0:0:0:
154,283,215517,6,0,P|98:252|172:186,1,181.500005538941,4|8,0:2|0:0,0:0:0:0:
278,181,215946,2,0,L|88:157,1,181.500005538941,4|6,0:0|0:0,0:0:0:0:
214,118,216374,1,8,0:0:0:0:
477,216,216517,6,0,P|473:160|294:40,1,272.250008308411,6|8,0:0|0:0,0:0:0:0:
188,136,217089,2,0,L|382:126,1,181.500005538941,6|4,0:0|0:0,0:0:0:0:
488,183,217517,1,10,0:0:0:0:
365,130,217660,1,4,0:0:0:0:
151,247,217803,6,0,P|99:213|177:138,1,181.500005538941,4|8,0:2|0:0,0:0:0:0:
283,122,218232,2,0,L|83:95,1,181.500005538941,6|4,0:0|0:0,0:0:0:0:
360,55,218660,1,10,0:0:0:0:
366,148,218803,1,0,0:0:0:0:
155,285,218946,6,0,L|84:286,2,45.3750013847352,8|0|0,0:0|0:0|0:0,0:0:0:0:
271,315,219232,1,4,0:0:0:0:
29,213,219374,1,8,0:0:0:0:
27,162,219446,1,0,0:0:0:0:
25,112,219517,1,4,0:0:0:0:
138,97,219660,1,0,0:0:0:0:
412,215,219803,2,0,L|491:207,2,45.3750013847352,8|0|4,0:0|0:0|0:0,0:0:0:0:
171,252,220089,6,0,P|127:226|194:136,1,181.500005538941,4|8,0:2|0:0,0:0:0:0:
306,128,220517,2,0,L|201:125,1,90.7500027694703,6|0,0:0|0:0,0:0:0:0:
466,103,220803,2,0,L|470:288,1,181.500005538941,6|6,0:0|0:0,0:0:0:0:
232,330,221232,6,0,P|182:323|122:207,1,181.500005538941,6|8,0:1|0:0,0:0:0:0:
252,188,221660,2,0,L|458:176,1,181.500005538941,6|6,0:0|0:0,0:0:0:0:
315,159,222089,1,8,0:0:0:0:
198,141,222232,1,2,0:0:0:0:
460,261,222374,6,0,P|446:187|327:136,1,181.500005538941,6|10,0:0|0:0,0:0:0:0:
217,202,222803,2,0,L|407:188,1,181.500005538941,2|2,0:0|0:0,0:0:0:0:
286,148,223232,1,8,0:0:0:0:
60,140,223374,6,0,L|54:258,1,90.7500027694703,2|4,0:0|0:0,0:0:0:0:
281,248,223660,2,0,L|382:253,1,90.7500027694703,2|8,0:0|0:0,0:0:0:0:
266,167,223946,2,0,L|162:157,1,90.7500027694703,6|4,0:0|0:0,0:0:0:0:
413,223,224232,2,0,P|464:198|397:119,1,181.500005538941,2|2,0:0|0:0,0:0:0:0:
145,301,224660,6,0,P|151:251|270:192,1,181.500005538941,6|8,0:1|0:0,0:0:0:0:
398,198,225089,2,0,P|449:173|382:94,1,181.500005538941,0|4,0:0|0:0,0:0:0:0:
254,119,225517,2,0,L|139:125,1,90.7500027694703,8|0,0:0|0:0,0:0:0:0:
434,157,225803,6,0,L|436:262,1,90.7500027694703,4|4,0:0|0:0,0:0:0:0:
330,268,226089,1,10,0:0:0:0:
125,285,226232,2,0,P|64:257|146:210,1,181.500005538941,6|6,0:0|0:0,0:0:0:0:
240,209,226660,1,8,0:0:0:0:
357,223,226803,1,2,0:0:0:0:
122,311,226946,5,4,0:0:0:0:
40,285,227089,1,0,0:0:0:0:
13,202,227232,1,8,0:0:0:0:
45,121,227375,1,2,0:2:0:0:
167,87,227517,1,4,0:0:0:0:
278,87,227660,1,2,0:2:0:0:
167,152,227803,1,8,0:0:0:0:
56,148,227946,1,2,0:2:0:0:
276,265,228089,5,4,0:1:0:0:
374,242,228232,1,0,0:0:0:0:
277,216,228374,1,8,0:0:0:0:
139,245,228517,2,0,P|84:218|151:152,1,181.500005538941,4|4,0:0|0:0,0:0:0:0:
355,134,228946,1,10,0:0:0:0:
467,149,229089,1,0,0:0:0:0:
194,50,229232,6,0,L|186:267,1,181.500005538941,6|8,0:1|0:0,0:0:0:0:
310,302,229660,2,0,P|355:272|296:173,1,181.500005538941,2|4,0:0|0:0,0:0:0:0:
193,190,230089,1,10,0:0:0:0:
76,206,230232,1,0,0:0:0:0:
318,50,230374,6,0,L|326:267,1,181.500005538941,6|8,0:1|0:0,0:0:0:0:
104,318,230803,2,0,P|59:288|118:189,1,181.500005538941,2|4,0:0|0:0,0:0:0:0:
221,189,231231,1,10,0:0:0:0:
102,190,231374,1,0,0:0:0:0:
344,300,231517,6,0,P|401:287|457:159,1,181.500005538941,6|8,0:1|0:0,0:0:0:0:
339,180,231946,2,0,P|297:151|356:52,1,181.500005538941,6|4,0:0|0:0,0:0:0:0:
461,53,232374,1,10,0:0:0:0:
342,49,232517,1,0,0:0:0:0:
136,316,232660,6,0,P|79:303|23:175,1,181.500005538941,6|10,0:1|0:0,0:0:0:0:
245,193,233089,2,0,P|304:163|235:99,1,181.500005538941,2|4,0:0|0:0,0:0:0:0:
44,77,233517,1,10,0:0:0:0:
137,98,233660,1,0,0:0:0:0:
361,352,233803,5,6,0:0:0:0:
400,268,233946,1,0,0:0:0:0:
365,184,234089,1,8,0:0:0:0:
268,154,234232,1,4,0:0:0:0:
33,129,234374,1,4,0:0:0:0:
26,220,234517,1,0,0:0:0:0:
155,215,234660,1,8,0:0:0:0:
162,306,234803,1,4,0:0:0:0:
403,160,234946,5,2,0:2:0:0:
499,139,235089,1,0,0:0:0:0:
403,160,235232,1,8,0:0:0:0:
256,175,235374,2,0,P|264:112|395:59,1,181.500005538941,0|4,0:0|0:0,0:0:0:0:
475,89,235803,1,8,0:0:0:0:
357,54,235946,1,4,0:0:0:0:
100,288,236089,5,4,0:2:0:0:
217,306,236232,1,8,0:0:0:0:
333,323,236374,1,4,0:0:0:0:
450,341,236517,1,8,0:0:0:0:
213,200,236660,1,4,0:0:0:0:
96,218,236803,1,8,0:0:0:0:
213,200,236946,1,4,0:0:0:0:
96,218,237089,1,8,0:0:0:0:
334,298,237232,5,0,0:0:0:0:
430,263,237374,1,4,0:0:0:0:
460,176,237517,1,4,0:0:0:0:
430,96,237660,1,4,0:0:0:0:
334,62,237803,1,8,0:0:0:0:
71,58,237946,1,8,0:0:0:0:
345,274,238374,5,4,1:2:0:0:
439,244,238517,1,0,2:0:0:0:
466,163,238660,1,10,1:0:0:0:
427,91,238802,1,4,1:0:0:0:
297,69,238946,2,0,L|206:60,1,82.5,0|2,1:0|1:0,0:0:0:0:
351,151,239231,2,0,L|442:142,1,82.5,8|4,1:0|1:0,0:0:0:0:
213,149,239517,6,0,L|204:250,1,82.5,2|4,0:0|0:0,0:0:0:0:
288,264,239802,1,10,0:0:0:0:
411,288,239946,2,0,P|406:228|305:168,1,165,2|2,0:0|1:1,0:0:0:0:
202,181,240374,2,0,L|108:197,1,82.5,10|0,1:1|0:0,0:0:0:0:
386,338,240660,5,4,1:2:0:0:
424,250,240802,1,0,2:0:0:0:
386,171,240945,1,10,1:0:0:0:
295,140,241088,1,0,1:0:0:0:
156,101,241231,2,0,L|152:206,1,82.5,0|2,1:0|1:0,0:0:0:0:
288,246,241517,2,0,L|375:240,1,82.5,8|4,1:0|1:0,0:0:0:0:
156,331,241803,6,0,L|69:325,2,82.5,6|4|10,1:1|1:0|1:0,0:0:0:0:
277,304,242231,2,0,P|275:254|171:207,1,165,6|0,1:1|0:0,0:0:0:0:
57,166,242660,2,0,L|53:283,1,82.5,8|0,1:0|0:0,0:0:0:0:
299,247,242945,5,4,1:2:0:0:
377,217,243088,1,0,1:0:0:0:
402,142,243231,1,10,1:1:0:0:
370,73,243374,1,0,1:0:0:0:
249,88,243517,2,0,L|346:74,1,82.5,4|2,1:0|1:0,0:0:0:0:
466,165,243803,2,0,L|358:150,1,82.5,8|4,0:0|0:0,0:0:0:0:
164,177,244089,6,0,L|56:162,2,82.5,6|0|10,1:1|1:0|1:0,0:0:0:0:
387,283,244517,2,0,P|438:260|377:198,1,165,6|4,1:1|1:0,0:0:0:0:
262,220,244946,2,0,L|154:205,1,82.5,10|4,1:0|1:0,0:0:0:0:
449,332,245231,5,4,1:2:0:0:
443,253,245374,1,0,0:0:0:0:
394,182,245517,1,10,1:0:0:0:
300,152,245660,1,0,1:0:0:0:
147,153,245803,2,0,L|253:143,1,82.5,2|4,0:0|0:0,0:0:0:0:
351,199,246089,2,0,L|457:189,1,82.5,10|0,1:0|1:0,0:0:0:0:
216,264,246374,6,0,L|158:262,2,41.25,6|0|4,1:0|0:0|1:0,0:0:0:0:
306,267,246660,1,8,1:0:0:0:
427,203,246803,2,0,L|485:201,2,41.25,6|0|4,1:0|0:0|1:0,0:0:0:0:
337,206,247088,1,8,1:0:0:0:
192,154,247231,1,10,0:0:0:0:
146,156,247302,1,0,0:0:0:0:
100,158,247374,1,4,0:0:0:0:
340,287,247517,6,0,L|457:286,2,82.5,2|4|8,0:0|0:1|0:0,0:0:0:0:
213,323,247946,2,0,P|159:285|231:240,1,165,4|4,0:1|0:1,0:0:0:0:
302,207,248374,1,8,0:1:0:0:
440,141,248517,6,0,L|442:310,1,165,2|4,0:0|0:1,0:0:0:0:
300,314,248946,2,0,L|202:308,1,82.5,8|2,0:1|0:0,0:0:0:0:
345,245,249232,1,4,0:1:0:0:
243,226,249374,1,4,0:1:0:0:
189,154,249517,1,8,0:0:0:0:
179,74,249660,1,4,0:1:0:0:
399,112,249803,5,4,0:2:0:0:
411,201,249946,1,0,0:0:0:0:
139,219,250089,1,8,0:0:0:0:
127,308,250232,1,4,0:1:0:0:
261,275,250374,1,8,0:0:0:0:
370,301,250517,1,4,0:1:0:0:
261,275,250660,1,4,0:1:0:0:
27,321,250803,1,4,1:2:0:0:
