osu file format v14

[General]
AudioFilename: audio.mp3
AudioLeadIn: 0
PreviewTime: 71589
Countdown: 0
SampleSet: Normal
StackLeniency: 0.7
Mode: 2
LetterboxInBreaks: 0
WidescreenStoryboard: 0

[Editor]
DistanceSpacing: 1.1
BeatDivisor: 4
GridSize: 4
TimelineZoom: 1.7

[Metadata]
Title:Ai o Chikaishi Hime Kazari
TitleUnicode:愛を誓いしヒメ飾り
Artist:Ayalis
ArtistUnicode:あやりす
Creator:Spectator
Version:Deluge
Source:
Tags:afb alienflybot autofanboy megpoid gumi vocaloid japanese rock pop jpop j-pop jrock j-rock anata ga
BeatmapID:1646939
BeatmapSetID:784412

[Difficulty]
HPDrainRate:8
CircleSize:4.3
OverallDifficulty:9.6
ApproachRate:9.6
SliderMultiplier:1.85
SliderTickRate:2

[Events]
//Background and Video events
0,0,"ayalis.jpg",0,0
//Break Periods
2,192289,200723
//Storyboard Layer 0 (Background)
//Storyboard Layer 1 (Fail)
//Storyboard Layer 2 (Pass)
//Storyboard Layer 3 (Foreground)
//Storyboard Layer 4 (Overlay)
//Storyboard Sound Samples

[TimingPoints]
1232,285.714285714286,4,1,5,60,1,0
1374,-100,4,2,5,60,0,0
2374,-100,4,2,5,65,0,0
2946,-100,4,2,5,70,0,0
3518,-100,4,2,1,70,0,0
14946,-100,4,2,1,70,0,0
17232,-100,4,1,1,65,0,0
26375,-100,4,2,1,65,0,0
30946,-100,4,1,1,70,0,0
53803,-100,4,2,1,60,0,0
61660,-100,4,2,1,65,0,0
71518,-90.9090909090909,4,2,1,65,0,0
72089,-100,4,1,1,70,0,1
72946,-100,4,1,2,70,0,1
73018,-100,4,1,1,70,0,1
80089,-90.9090909090909,4,1,1,70,0,1
81160,-90.9090909090909,4,1,1,70,0,0
81232,-100,4,1,1,70,0,1
83160,-100,4,1,2,70,0,1
83303,-100,4,1,1,70,0,1
97232,-100,4,1,1,65,0,0
129232,-100,4,1,1,55,0,0
132089,-100,4,1,2,55,0,0
132232,-100,4,1,1,55,0,0
138375,-100,4,1,1,60,0,0
147517,-100,4,1,1,70,0,1
148375,-100,4,1,2,70,0,1
148518,-100,4,1,1,70,0,1
155518,-90.9090909090909,4,1,1,70,0,1
156589,-90.9090909090909,4,1,1,70,0,0
156660,-100,4,1,1,70,0,1
172518,-83.3333333333333,4,1,1,70,0,1
172660,-100,4,2,1,65,0,0
201232,-100,4,2,1,55,0,0
208232,-100,4,2,1,45,0,0
208518,-100,4,2,1,48,0,0
208803,-100,4,2,1,50,0,0
209089,-100,4,2,1,52,0,0
209375,-100,4,2,1,54,0,0
209660,-100,4,2,1,57,0,0
209946,-100,4,2,1,60,0,0
210518,-100,4,2,1,65,0,0
211375,285.714285714286,4,2,1,65,1,0
212089,-90.9090909090909,4,1,1,65,0,0
212946,-76.9230769230769,4,1,1,65,0,0
213232,285.714285714286,4,1,1,70,1,1
213232,-90.9090909090909,4,1,1,70,0,1
220017,-90.9090909090909,4,1,1,70,0,0
220089,-90.9090909090909,4,1,1,70,0,1
238374,-100,4,1,1,65,0,0
247517,-100,4,2,1,65,0,0
250803,-100,4,2,10,50,0,0
250874,-100,4,2,1,50,0,0

[Colours]
Combo1 : 87,101,223
Combo2 : 234,96,96
Combo3 : 254,251,114
Combo4 : 120,192,252
Combo5 : 218,150,248

[HitObjects]
126,124,1232,6,0,L|119:237,1,92.5,4|0,1:0|0:0,0:0:0:0:
231,243,1517,1,0,0:0:0:0:
386,111,1660,2,0,L|393:224,1,92.5,8|0,2:0|2:0,2:0:0:0:
281,230,1945,1,0,0:0:0:0:
120,256,2089,2,0,L|236:245,1,92.5,8|0,0:0|0:0,0:0:0:0:
467,268,2374,5,2,0:0:0:0:
365,198,2517,2,0,L|360:148,3,30.8333333333333,2|0|0|0,0:0|0:0|0:0|0:0,0:0:0:0:
240,120,2803,1,2,0:0:0:0:
26,251,2946,2,0,L|138:242,1,92.5,2|0,0:0|0:0,0:0:0:0:
320,312,3232,2,0,L|444:302,1,92.5,2|0,0:0|0:0,0:0:0:0:
132,288,3517,6,0,P|80:248|160:160,1,185,4|2,0:0|0:0,0:0:0:0:
245,157,3946,1,0,0:0:0:0:
301,227,4089,2,0,L|307:328,1,92.5,2|0,0:0|0:0,0:0:0:0:
177,326,4374,1,2,0:0:0:0:
311,326,4517,2,0,P|385:288|417:178,1,185,2|0,0:0|0:0,0:0:0:0:
304,139,4946,1,2,0:0:0:0:
296,231,5088,1,0,0:0:0:0:
440,276,5232,2,0,L|331:286,1,92.5,2|0,0:0|0:0,0:0:0:0:
200,200,5517,2,0,L|299:188,1,92.5,2|0,0:0|0:0,0:0:0:0:
78,247,5803,6,0,P|26:207|106:119,1,185,4|2,0:0|0:0,0:0:0:0:
187,116,6232,1,0,0:0:0:0:
76,76,6375,2,0,L|172:84,2,92.5,2|0|2,0:0|0:0|0:0,0:0:0:0:
278,229,6803,2,0,P|355:202|378:109,1,185,2|0,0:0|0:0,0:0:0:0:
229,91,7232,1,2,0:0:0:0:
378,108,7374,1,0,0:0:0:0:
229,91,7517,2,0,L|220:195,1,92.5,2|0,0:0|0:0,0:0:0:0:
386,264,7803,2,0,L|497:262,1,92.5
205,318,8089,6,0,L|12:293,1,185,4|2,0:0|0:0,0:0:0:0:
143,258,8517,1,0,0:0:0:0:
21,294,8660,2,0,P|25:233|149:176,1,185,2|0,0:0|0:0,0:0:0:0:
275,172,9089,2,0,L|63:157,1,185,2|0,0:0|0:0,0:0:0:0:
198,220,9517,1,2,0:0:0:0:
200,324,9659,1,0,0:0:0:0:
331,267,9803,2,0,L|453:275,1,92.5,2|0,0:0|0:0,0:0:0:0:
265,185,10089,2,0,L|153:176,1,92.5,2|0,0:0|0:0,0:0:0:0:
378,238,10374,6,0,P|412:177|317:112,1,185,4|0,0:0|0:0,0:0:0:0:
212,108,10803,1,0,0:0:0:0:
340,116,10946,2,0,L|353:214,1,92.5,2|0,0:0|0:0,0:0:0:0:
232,216,11232,1,0,0:0:0:0:
98,233,11374,2,0,L|293:252,1,185,2|0,0:0|0:0,0:0:0:0:
397,187,11803,1,0,0:0:0:0:
99,286,11946,1,2,0:0:0:0:
185,210,14517,5,0,1:0:0:0:
88,172,14660,1,0,1:0:0:0:
185,210,14803,1,0,1:0:0:0:
401,155,14946,5,0,1:0:0:0:
60,171,15089,2,0,L|49:279,1,92.5,4|0,1:2|0:0,0:0:0:0:
393,235,15375,5,0,1:0:0:0:
123,216,15518,2,0,L|112:324,1,92.5,4|0,1:2|0:0,0:0:0:0:
388,312,15803,5,0,1:0:0:0:
190,253,15946,2,0,L|179:361,1,92.5,4|4,1:2|0:0,0:0:0:0:
451,280,16232,5,10,1:0:0:0:
474,177,16375,1,4,1:0:0:0:
224,113,16518,1,10,1:0:0:0:
358,139,16660,1,0,1:0:0:0:
130,228,16803,1,10,1:0:0:0:
298,218,16875,2,4,L|371:229,1,46.25,0|4,1:0|1:0,1:0:0:0:
193,137,17018,2,4,L|111:146,1,46.25,0|4,1:0|1:0,1:0:0:0:
295,90,17160,1,0,1:0:0:0:
448,106,17232,6,0,L|460:219,1,92.5,4|0,1:2|2:0,0:0:0:0:
229,228,17518,1,10,1:0:0:0:
366,272,17660,1,4,1:0:0:0:
61,262,17803,1,0,1:0:0:0:
192,196,17946,2,0,L|258:194,1,46.25,2|0,1:0|0:0,0:0:0:0:
76,93,18089,2,0,L|189:110,1,92.5,8|4,1:0|1:0,0:0:0:0:
410,113,18375,5,2,0:0:0:0:
283,157,18518,1,4,0:0:0:0:
412,200,18660,1,10,0:0:0:0:
148,253,18803,1,2,0:0:0:0:
124,227,19089,1,2,1:1:0:0:
360,320,19232,2,0,L|494:314,1,92.5,10|0,1:1|0:0,0:0:0:0:
75,178,19518,6,0,L|71:292,1,92.5,4|0,1:2|2:0,0:0:0:0:
287,247,19803,2,0,L|169:263,1,92.5,10|4,1:0|1:0,0:0:0:0:
456,272,20089,1,0,1:0:0:0:
326,236,20232,2,0,L|266:231,1,46.25,2|0,1:0|0:0,0:0:0:0:
443,135,20375,2,0,L|329:117,1,92.5,8|4,1:0|1:0,0:0:0:0:
135,155,20660,5,4,1:2:0:0:
269,140,20803,1,4,1:0:0:0:
135,155,20946,1,8,1:0:0:0:
411,94,21089,2,0,L|424:290,1,185,4|0,1:2|0:0,0:0:0:0:
94,302,21517,2,0,L|87:176,1,92.5,8|0,1:0|0:0,0:0:0:0:
374,204,21803,6,0,L|481:200,1,92.5,4|0,1:2|1:0,0:0:0:0:
252,100,22089,2,0,L|145:96,1,92.5,10|0,1:1|1:0,0:0:0:0:
405,172,22375,1,4,1:0:0:0:
284,238,22518,2,0,L|280:184,1,46.25,2|0,1:0|0:0,0:0:0:0:
83,301,22660,1,10,1:0:0:0:
205,278,22803,1,0,1:0:0:0:
453,196,22946,5,4,1:2:0:0:
211,154,23089,1,0,1:0:0:0:
453,196,23232,1,10,1:0:0:0:
144,132,23375,2,0,L|343:103,1,185,4|2,1:2|1:0,0:0:0:0:
448,168,23803,2,0,L|344:152,1,92.5,8|4,1:0|1:0,1:0:0:0:
54,243,24089,6,0,L|42:136,1,92.5,4|0,1:2|0:0,0:0:0:0:
280,97,24375,1,10,1:0:0:0:
150,61,24518,1,0,1:0:0:0:
431,110,24660,1,2,0:0:0:0:
446,243,24803,1,4,0:0:0:0:
140,317,24946,1,10,1:0:0:0:
270,281,25089,1,0,1:0:0:0:
52,248,25232,6,0,L|40:172,1,46.25,0|0,1:0|0:0,0:0:0:0:
200,120,25375,2,0,L|100:100,1,92.5,4|8,1:0|1:0,0:0:0:0:
238,210,25660,2,0,L|311:201,1,46.25
62,172,25803,2,0,L|53:284,1,92.5
199,304,26089,2,0,L|265:293,1,46.25,4|0,0:0|0:0,0:0:0:0:
401,276,26231,2,0,L|469:264,1,46.25,4|0,0:0|0:0,0:0:0:0:
236,210,26375,6,0,L|132:192,1,92.5,4|2,2:0|2:0,0:0:0:0:
271,134,26660,1,8,0:1:0:0:
69,286,26803,2,0,L|56:82,1,185,2|4,0:0|0:3,0:0:0:0:
271,134,27232,1,8,0:1:0:0:
156,184,27375,1,2,0:0:0:0:
146,179,27660,1,4,2:3:0:0:
277,210,27803,2,0,L|289:313,1,92.5,8|2,2:1|0:0,0:0:0:0:
155,272,28089,1,4,0:3:0:0:
271,232,28232,2,0,L|344:237,1,46.25,2|0,0:0|0:0,0:0:0:0:
138,229,28375,2,0,L|28:247,1,92.5,8|4,2:1|2:1,0:0:0:0:
306,156,28660,6,0,L|438:168,1,92.5,4|2,0:0|0:0,0:0:0:0:
258,119,28946,1,8,0:1:0:0:
487,240,29089,1,4,0:3:0:0:
483,220,29375,1,4,0:3:0:0:
373,257,29518,1,8,0:1:0:0:
96,224,29660,1,4,0:0:0:0:
176,208,30518,5,4,1:0:0:0:
399,154,30661,2,0,L|414:260,1,92.5,8|0,1:0|0:0,0:0:0:0:
102,307,30946,6,0,P|75:257|174:178,1,185,4|8,0:2|0:0,0:0:0:0:
288,168,31375,2,0,L|81:158,1,185,0|4,0:0|0:1,0:0:0:0:
220,244,31803,2,0,L|124:255,1,92.5,8|0,0:0|0:0,0:0:0:0:
419,227,32089,5,4,1:0:0:0:
294,225,32232,1,0,1:0:0:0:
419,227,32375,1,8,0:0:0:0:
95,153,32518,2,0,L|82:352,1,185,0|4,0:0|1:0,0:0:0:0:
232,265,32946,2,0,L|124:282,1,92.5,8|0,0:0|0:0,0:0:0:0:
361,263,33232,6,8,P|441:243|463:128,1,185,4|8,0:2|0:0,0:0:0:0:
340,96,33660,1,4,0:1:0:0:
334,178,33803,1,4,0:1:0:0:
465,40,33946,1,0,0:2:0:0:
347,40,34089,1,8,0:0:0:0:
465,40,34232,1,0,0:0:0:0:
198,157,34375,6,0,L|81:145,2,92.5,4|4|8,1:0|1:0|2:0,0:0:0:0:
348,121,34803,2,0,P|419:169|395:272,1,185,0|0,0:0|1:0,0:0:0:0:
270,277,35232,1,8,0:0:0:0:
411,303,35375,1,4,1:0:0:0:
64,291,35518,6,0,P|76:211|181:160,1,185,4|8,0:2|0:0,0:0:0:0:
312,155,35946,2,0,L|123:141,1,185,0|0,0:0|1:0,0:0:0:0:
249,115,36375,1,8,0:0:0:0:
480,90,36518,6,0,L|491:281,1,185,0|0,0:0|1:0,0:0:0:0:
350,248,36946,1,8,0:0:0:0:
88,309,37089,1,0,0:0:0:0:
91,326,37375,1,4,1:0:0:0:
230,259,37518,2,0,L|242:364,1,92.5,8|0,0:0|0:0,0:0:0:0:
98,300,37803,6,0,L|213:283,1,92.5,4|0,0:2|0:0,0:0:0:0:
323,221,38089,2,0,L|206:204,1,92.5,8|0,0:0|0:0,0:0:0:0:
376,184,38375,2,0,L|388:308,1,92.5,4|0,0:1|1:0,0:0:0:0:
220,353,38660,2,0,L|211:247,1,92.5,8|0,0:0|0:0,0:0:0:0:
433,144,38946,5,8,1:0:0:0:
306,109,39089,1,4,0:0:0:0:
433,144,39232,1,4,0:0:0:0:
79,144,39375,1,8,1:0:0:0:
206,109,39518,1,0,1:0:0:0:
79,144,39660,1,0,1:0:0:0:
442,181,39803,1,8,1:0:0:0:
315,219,39946,1,4,1:1:0:0:
80,284,40089,6,0,L|76:86,1,185,4|8,0:2|0:0,0:0:0:0:
228,197,40518,2,0,P|308:169|293:64,1,185,0|4,0:0|1:0,0:0:0:0:
176,96,40946,2,0,L|81:106,1,92.5,8|0,0:0|0:0,0:0:0:0:
320,247,41232,5,4,1:0:0:0:
433,197,41375,1,0,1:2:0:0:
320,247,41518,1,8,1:0:0:0:
178,214,41660,2,0,L|393:251,1,185,4|4,1:0|1:0,0:0:0:0:
486,190,42089,2,0,L|493:308,1,92.5,8|0,0:0|0:0,0:0:0:0:
165,320,42375,6,0,L|368:299,1,185,4|8,0:2|0:0,0:0:0:0:
113,248,42803,2,0,P|77:192|183:122,1,185,4|4,0:0|1:0,0:0:0:0:
367,186,43232,1,8,2:0:0:0:
496,162,43375,1,0,1:0:0:0:
263,134,43518,5,4,1:2:0:0:
126,168,43660,1,0,0:0:0:0:
263,134,43803,1,8,0:0:0:0:
48,97,43946,2,0,L|43:305,1,185,0|4,0:0|1:0,0:0:0:0:
183,263,44375,1,8,0:0:0:0:
44,285,44518,1,4,0:0:0:0:
356,279,44660,6,0,P|441:242|406:139,1,185,4|8,0:2|0:0,0:0:0:0:
156,279,45089,2,0,P|71:242|106:139,1,185,0|4,0:0|1:0,0:0:0:0:
205,156,45518,1,8,0:0:0:0:
490,118,45660,6,0,L|294:90,1,185,4|0,1:0|0:0,0:0:0:0:
415,126,46089,1,8,0:0:0:0:
171,154,46232,2,0,L|166:253,1,92.5,4|0,1:0|0:0,0:0:0:0:
415,126,46518,1,4,1:0:0:0:
281,167,46660,1,8,1:0:0:0:
415,172,46803,1,0,0:0:0:0:
85,257,46946,6,0,P|89:186|211:125,1,185,4|8,1:2|0:0,0:0:0:0:
323,185,47375,2,0,P|389:161|435:44,1,185,4|4,0:1|0:1,0:0:0:0:
309,30,47803,1,8,0:0:0:0:
177,79,47946,1,0,0:0:0:0:
403,190,48089,6,0,L|484:200,1,46.25,8|0,1:0|1:0,1:0:0:0:
222,262,48232,2,0,L|91:285,1,92.5,8|0,1:0|1:0,0:0:0:0:
380,182,48518,1,8,1:0:0:0:
390,298,48660,1,4,1:0:0:0:
104,199,48803,1,4,1:0:0:0:
222,175,48946,1,8,1:0:0:0:
104,199,49089,1,0,1:0:0:0:
392,220,49232,6,0,L|493:233,1,92.5,6|0,1:2|0:0,0:0:0:0:
217,289,49518,2,0,L|318:302,1,92.5,2|0,1:2|0:0,0:0:0:0:
70,340,49803,1,2,1:2:0:0:
345,305,49946,1,2,1:2:0:0:
354,203,50089,1,8,0:0:0:0:
220,312,50232,6,0,P|128:272|172:192,1,185,2|2,1:2|1:2,0:0:0:0:
435,158,50660,1,8,1:0:0:0:
311,135,50803,1,0,0:2:0:0:
62,248,50946,2,0,L|52:133,1,92.5,4|2,1:0|0:2,0:0:0:0:
116,117,51160,1,0,0:0:0:0:
298,178,51232,1,8,1:0:0:0:
178,219,51375,1,4,1:0:0:0:
462,118,51518,6,0,L|480:227,1,92.5,6|0,2:0|2:1,0:0:0:0:
260,257,51803,2,0,L|242:366,1,92.5,8|0,0:0|0:1,0:0:0:0:
114,287,52089,1,0,1:0:0:0:
351,343,52232,2,0,L|461:317,1,92.5,4|8,1:0|0:0,0:0:0:0:
73,6,52518,6,0,L|52:393,1,370,4|0,0:0|0:0,0:0:0:0:
184,280,53232,1,8,1:0:0:0:
56,184,53375,2,0,L|40:384,1,185,4|4,1:0|1:0,0:0:0:0:
353,310,53803,6,0,P|410:264|314:199,1,185,4|2,1:2|0:0,0:0:0:0:
275,172,54232,1,0,0:0:0:0:
163,151,54375,2,0,L|152:350,1,185,8|0,1:0|0:0,0:0:0:0:
282,322,54803,2,0,P|327:278|243:195,1,185,0|0,1:0|1:0,0:0:0:0:
146,179,55232,1,4,1:0:0:0:
140,83,55374,1,0,0:0:0:0:
362,289,55518,2,0,P|427:261|388:144,1,185,8|0,1:0|1:0,0:0:0:0:
299,145,55946,1,0,1:0:0:0:
61,241,56089,6,0,P|56:177|159:103,1,185,4|0,1:2|1:0,0:0:0:0:
258,122,56518,2,0,L|54:106,2,185,0|0|0,1:0|1:0|1:0,0:0:0:0:
387,87,57232,1,4,1:0:0:0:
399,185,57375,1,0,0:0:0:0:
252,190,57518,1,4,1:0:0:0:
240,288,57661,1,0,0:0:0:0:
385,348,57803,2,0,P|433:300|363:225,1,185,8|0,1:0|1:0,0:0:0:0:
267,199,58232,1,0,1:0:0:0:
43,146,58375,6,0,L|33:360,1,185,4|0,1:2|1:0,0:0:0:0:
129,296,58803,1,0,0:0:0:0:
223,262,58946,1,8,1:0:0:0:
120,230,59232,1,0,1:0:0:0:
246,279,59375,2,0,P|298:236|226:161,1,185,0|0,1:0|0:0,0:0:0:0:
96,117,59804,2,0,L|298:131,2,185,0|8|0,1:0|1:0|1:0,0:0:0:0:
310,263,60660,6,0,P|367:238|338:135,1,185,4|0,1:2|0:0,0:0:0:0:
109,192,61089,2,0,P|59:143|127:56,1,185,4|4,1:0|1:0,0:0:0:0:
386,113,61518,1,12,1:0:0:0:
156,282,61660,2,0,L|36:262,1,92.5,4|0,1:2|1:0,0:0:0:0:
294,250,61946,6,0,L|313:190,2,46.25,0|0|0,1:0|1:0|1:0,1:0:0:0:
160,272,62232,1,0,1:0:0:0:
312,244,62375,2,0,L|330:352,1,92.5,8|0,1:0|0:0,0:0:0:0:
202,343,62660,2,0,L|135:341,1,46.25,0|0,1:0|1:0,1:0:0:0:
338,286,62803,2,0,L|419:287,1,46.25,0|0,1:0|1:0,1:0:0:0:
161,286,62946,6,0,L|151:169,1,92.5,4|0,1:2|0:0,0:0:0:0:
309,232,63232,2,0,L|414:221,1,92.5,8|0,1:0|1:0,0:0:0:0:
222,127,63518,2,0,L|116:134,1,92.5,4|0,1:0|0:0,0:0:0:0:
275,307,63803,2,0,L|139:286,1,92.5,8|0,1:0|1:0,0:0:0:0:
388,358,64089,6,0,L|404:232,1,92.5,4|0,1:0|0:0,0:0:0:0:
143,259,64375,2,0,L|127:133,1,92.5,10|0,1:0|0:0,0:0:0:0:
404,219,64660,2,0,L|514:208,1,92.5,6|0,1:0|0:0,0:0:0:0:
123,118,64946,2,0,L|13:107,1,92.5,10|0,1:0|1:0,0:0:0:0:
403,349,65232,6,0,P|450:300|368:215,1,185,6|8,1:1|1:0,0:0:0:0:
231,221,65660,2,0,P|212:158|316:94,1,185,2|0,1:0|1:0,0:0:0:0:
452,137,66089,1,8,1:0:0:0:
300,185,66232,1,2,1:0:0:0:
40,265,66375,6,0,L|30:162,1,92.5,4|0,1:0|0:0,0:0:0:0:
191,259,66660,2,0,L|300:252,1,92.5,8|0,1:0|0:0,0:0:0:0:
140,172,66946,2,0,L|31:177,1,92.5,4|0,1:0|0:0,0:0:0:0:
296,159,67232,1,8,1:0:0:0:
156,111,67375,1,2,1:0:0:0:
400,237,67518,6,0,P|427:185|322:127,1,185,4|10,1:2|1:0,0:0:0:0:
91,193,67946,2,0,L|281:215,1,185,2|0,1:0|1:0,0:0:0:0:
414,170,68375,1,8,1:0:0:0:
427,274,68518,1,2,1:0:0:0:
112,237,68660,6,0,P|85:185|190:127,1,185,4|8,1:2|1:0,0:0:0:0:
421,193,69089,2,0,L|231:215,1,185,2|0,1:0|1:0,0:0:0:0:
469,298,69517,1,10,1:0:0:0:
485,182,69660,1,0,1:0:0:0:
199,296,69803,5,6,1:1:0:0:
441,233,69946,1,0,1:0:0:0:
196,182,70089,1,8,1:0:0:0:
339,134,70232,1,2,1:0:0:0:
55,263,70375,1,6,1:0:0:0:
188,256,70518,1,0,1:0:0:0:
482,154,70660,1,8,1:0:0:0:
344,152,70803,1,0,1:0:0:0:
47,211,70946,5,8,1:0:0:0:
55,165,71018,1,0,1:0:0:0:
90,136,71089,1,4,1:0:0:0:
134,123,71160,1,0,1:0:0:0:
295,236,71232,2,0,L|376:226,1,46.25,0|0,1:0|1:0,1:0:0:0:
122,316,71375,2,4,L|46:329,1,46.25,4|4,1:3|1:3,1:3:0:0:
296,313,71518,2,0,L|172:300,1,101.750003105164,0|2,1:0|1:2,1:0:0:0:
327,322,71803,2,0,L|405:315,1,50.8750015525818,8|0,1:0|1:0,1:0:0:0:
213,218,71946,2,0,L|290:212,1,50.8750015525818,8|0,1:0|1:0,1:0:0:0:
450,243,72089,5,4,1:2:0:0:
163,249,72232,2,0,L|46:240,1,92.5,0|8,1:0|0:0,0:0:0:0:
318,238,72518,2,0,L|186:224,1,92.5,0|4,0:0|0:0,0:0:0:0:
446,219,72803,2,0,P|485:151|402:89,1,185
180,228,73232,5,4,0:1:0:0:
40,240,73375,1,4,0:0:0:0:
180,228,73518,1,8,0:0:0:0:
411,327,73660,2,0,L|420:123,1,185,0|4,0:0|0:0,0:0:0:0:
203,167,74089,1,8,0:0:0:0:
324,199,74232,1,4,0:0:0:0:
69,267,74375,6,0,P|68:198|176:137,1,185,4|8,0:2|0:0,0:0:0:0:
316,141,74803,2,0,L|121:135,1,185,4|0,0:0|0:0,0:0:0:0:
271,230,75232,2,0,L|387:221,1,92.5,8|0,0:0|0:0,0:0:0:0:
75,254,75518,5,0,0:0:0:0:
204,253,75660,1,0,0:0:0:0:
75,254,75803,1,8,0:0:0:0:
356,230,75946,2,0,P|408:192|328:128,1,185,0|4,0:0|0:0,0:0:0:0:
200,152,76375,2,0,L|75:125,1,92.5,8|0,0:0|0:0,0:0:0:0:
381,341,76660,6,0,P|434:291|368:187,1,185,4|8,0:2|0:0,0:0:0:0:
250,174,77089,2,0,L|477:197,1,185,4|6,0:0|0:0,0:0:0:0:
173,265,77517,1,8,0:0:0:0:
470,136,77660,6,0,L|482:238,1,92.5,2|4,0:1|0:0,0:0:0:0:
221,210,77946,1,0,0:0:0:0:
359,239,78089,1,8,0:0:0:0:
112,273,78232,2,0,P|48:226|117:153,1,185,6|6,0:0|0:0,0:0:0:0:
251,100,78660,2,0,L|138:87,1,92.5,10|0,0:0|0:0,0:0:0:0:
412,168,78946,5,4,0:2:0:0:
167,252,79089,1,0,0:0:0:0:
426,329,79232,1,8,0:0:0:0:
139,353,79375,2,0,P|49:307|92:247,1,185,2|4,0:0|0:0,0:0:0:0:
314,218,79803,1,10,0:0:0:0:
166,182,79946,1,0,0:0:0:0:
461,288,80089,6,0,L|449:217,1,50.8750015525818,8|0,0:0|0:0,0:0:0:0:
308,187,80232,2,0,L|235:176,1,50.8750015525818
102,258,80375,1,4,0:0:0:0:
51,288,80518,2,0,L|63:217,1,50.8750015525818,8|0,0:0|0:0,0:0:0:0:
204,187,80661,2,0,L|277:176,1,50.8750015525818
410,258,80804,1,4,0:0:0:0:
288,288,80946,2,0,L|208:280,1,50.8750015525818,8|0,0:0|0:0,0:0:0:0:
440,180,81089,2,0,L|360:172,1,50.8750015525818,4|0,0:0|0:0,0:0:0:0:
152,295,81232,6,0,L|137:168,1,92.5,4|0,0:2|0:0,0:0:0:0:
290,147,81518,1,8,0:0:0:0:
140,142,81660,2,0,L|364:164,1,185,6|6,0:0|0:0,0:0:0:0:
85,236,82089,1,8,0:0:0:0:
340,162,82232,1,2,0:0:0:0:
40,216,82375,6,0,L|32:113,1,92.5,6|0,0:0|0:0,0:0:0:0:
353,148,82660,1,8,0:0:0:0:
131,83,82803,1,6,0:0:0:0:
328,169,83089,2,0,L|127:186,1,185,6|0,0:0|0:0,0:0:0:0:
458,95,83518,6,0,L|465:297,1,185,6|8,0:1|0:0,0:0:0:0:
189,236,83946,2,0,L|87:221,1,92.5,2|4,0:0|0:0,0:0:0:0:
345,149,84232,1,2,0:0:0:0:
111,243,84375,1,8,0:0:0:0:
389,212,84518,6,0,L|502:221,1,92.5,2|4,0:0|0:0,0:0:0:0:
322,205,84803,2,0,L|445:216,1,92.5,2|8,0:0|0:0,0:0:0:0:
170,336,85089,2,0,L|161:228,1,92.5,2|4,0:0|0:0,0:0:0:0:
316,220,85375,1,2,0:0:0:0:
42,115,85518,2,0,L|147:107,1,92.5,8|2,0:0|0:0,0:0:0:0:
459,328,85803,6,0,L|470:215,1,92.5,4|0,0:2|0:0,0:0:0:0:
313,261,86089,2,0,L|318:155,1,92.5,8|0,0:0|0:0,0:0:0:0:
155,327,86375,2,0,L|254:319,1,92.5,2|4,0:2|0:0,0:0:0:0:
409,242,86660,2,0,L|309:233,1,92.5,8|0,0:0|0:0,0:0:0:0:
53,328,86946,6,0,L|42:215,1,92.5,4|0,0:2|0:0,0:0:0:0:
172,192,87232,1,10,0:0:0:0:
484,170,87375,2,0,L|268:150,1,185,2|4,0:1|0:0,0:0:0:0:
141,298,87803,2,0,L|248:283,1,92.5,8|2,0:0|0:0,0:0:0:0:
449,224,88089,6,0,L|441:356,1,92.5,4|0,0:2|0:0,0:0:0:0:
305,273,88375,2,0,L|191:288,1,92.5,8|0,0:0|0:0,0:0:0:0:
366,208,88660,2,0,L|374:340,1,92.5,2|4,0:2|0:0,0:0:0:0:
60,322,88946,1,8,0:0:0:0:
190,343,89089,1,2,0:2:0:0:
403,286,89232,5,2,0:2:0:0:
283,348,89375,1,2,2:0:0:0:
403,286,89518,1,8,0:0:0:0:
176,230,89660,2,0,L|382:248,1,185,4|4,0:0|0:0,0:0:0:0:
85,299,90089,2,0,L|79:194,1,92.5,10|0,0:0|2:0,0:0:0:0:
366,211,90375,6,0,P|425:175|338:118,1,185,6|8,0:1|0:0,0:0:0:0:
237,156,90803,2,0,P|178:120|263:68,1,185,2|4,0:0|0:0,0:0:0:0:
109,57,91232,1,10,0:0:0:0:
240,55,91375,1,0,0:0:0:0:
450,144,91518,6,0,L|462:334,1,185,6|8,0:1|0:0,0:0:0:0:
62,144,91946,2,0,L|50:334,1,185,6|4,0:0|0:0,0:0:0:0:
330,153,92375,1,10,0:0:0:0:
199,202,92518,1,0,0:0:0:0:
418,216,92660,6,0,P|430:152|317:84,1,185,6|8,0:1|0:0,0:0:0:0:
194,219,93089,2,0,P|182:155|295:87,1,185,2|4,0:0|0:0,0:0:0:0:
403,107,93518,1,10,0:0:0:0:
263,76,93660,1,0,0:0:0:0:
51,175,93803,6,0,L|41:380,1,185,6|8,0:1|0:0,0:0:0:0:
192,337,94232,2,0,L|376:350,1,185,6|4,0:0|0:0,0:0:0:0:
249,291,94660,2,0,L|127:279,1,92.5,10|0,0:0|0:0,0:0:0:0:
432,107,94946,5,8,0:0:0:0:
444,212,95089,1,0,0:0:0:0:
212,290,95232,1,8,0:0:0:0:
342,312,95375,1,0,0:0:0:0:
80,107,95518,5,8,0:0:0:0:
68,212,95661,1,0,0:0:0:0:
383,263,95804,1,8,0:0:0:0:
170,312,95947,1,0,0:0:0:0:
458,323,96089,5,8,0:0:0:0:
470,199,96232,1,0,0:0:0:0:
141,224,96375,1,8,0:0:0:0:
436,286,96518,1,0,0:0:0:0:
65,297,96660,5,8,0:0:0:0:
486,188,96803,1,8,0:0:0:0:
312,168,97089,2,0,L|240:160,1,46.25
64,106,97232,6,0,L|52:219,1,92.5,4|0,1:2|2:0,0:0:0:0:
312,268,97518,1,10,1:0:0:0:
175,312,97660,1,4,1:0:0:0:
451,262,97803,1,0,1:0:0:0:
334,196,97946,2,0,L|406:206,1,46.25,2|0,1:0|0:0,0:0:0:0:
209,283,98089,2,0,L|202:157,1,92.5,8|4,1:0|1:0,0:0:0:0:
453,171,98375,5,2,0:0:0:0:
350,219,98518,1,4,0:0:0:0:
464,257,98660,1,10,0:0:0:0:
155,285,98803,1,2,0:0:0:0:
405,153,99089,1,2,1:1:0:0:
152,320,99232,2,0,L|18:314,1,92.5,10|0,1:1|0:0,0:0:0:0:
437,178,99518,6,0,L|441:292,1,92.5,4|0,1:2|2:0,0:0:0:0:
207,299,99803,1,10,1:0:0:0:
329,271,99946,1,0,1:0:0:0:
89,261,100089,1,0,1:0:0:0:
203,231,100232,2,0,L|129:223,1,46.25,2|0,1:0|0:0,0:0:0:0:
325,327,100375,2,0,L|208:313,1,92.5,8|4,1:0|1:0,0:0:0:0:
32,164,100660,5,6,1:1:0:0:
156,150,100803,1,4,1:0:0:0:
32,164,100946,1,8,1:0:0:0:
411,94,101089,2,0,P|437:185|355:231,1,185,6|0,1:1|0:0,0:0:0:0:
101,183,101517,2,0,L|94:298,1,92.5,8|0,1:0|0:0,0:0:0:0:
296,275,101803,6,0,L|183:264,1,92.5,4|0,1:2|1:0,0:0:0:0:
73,156,102089,2,0,L|204:168,1,92.5,10|0,1:1|1:0,0:0:0:0:
405,172,102375,1,4,1:0:0:0:
284,238,102518,2,0,L|218:225,1,46.25,2|0,1:0|0:0,0:0:0:0:
443,188,102660,1,8,1:0:0:0:
328,225,102803,1,0,1:0:0:0:
36,194,102946,5,6,1:1:0:0:
324,172,103089,1,0,1:0:0:0:
453,196,103232,1,8,1:0:0:0:
144,132,103375,2,0,L|343:103,1,185,6|0,1:1|1:0,0:0:0:0:
448,168,103803,2,0,L|344:152,1,92.5,10|4,1:0|1:0,1:0:0:0:
54,243,104089,6,0,L|42:136,1,92.5,4|0,1:2|0:0,0:0:0:0:
280,97,104375,1,10,1:0:0:0:
150,61,104518,1,0,1:0:0:0:
431,110,104660,1,0,0:0:0:0:
446,243,104803,1,6,0:0:0:0:
140,317,104946,1,8,1:0:0:0:
270,281,105089,1,0,1:0:0:0:
52,248,105232,6,0,L|40:172,1,46.25,6|0,1:0|0:0,0:0:0:0:
228,118,105375,2,0,L|128:98,1,92.5,4|8,1:0|1:0,0:0:0:0:
295,203,105660,2,0,L|368:194,1,46.25,10|0,0:0|0:0,0:0:0:0:
62,172,105803,2,0,L|53:284,1,92.5,4|8,0:0|0:0,0:0:0:0:
294,274,106089,2,0,L|218:266,1,46.25,10|0,0:0|0:0,0:0:0:0:
66,211,106232,2,0,L|140:200,1,46.25,4|0,0:0|0:0,0:0:0:0:
361,139,106375,6,0,L|368:260,1,92.5,4|0,0:2|0:0,0:0:0:0:
224,220,106660,1,8,0:0:0:0:
370,253,106803,1,0,0:0:0:0:
96,336,106946,2,0,L|105:224,1,92.5,4|0,0:0|0:0,0:0:0:0:
256,244,107232,1,8,0:0:0:0:
136,272,107375,1,4,0:0:0:0:
457,203,107518,5,4,0:2:0:0:
334,222,107660,1,0,0:0:0:0:
457,203,107803,1,8,0:0:0:0:
206,282,107946,2,0,L|407:304,1,185,4|4,0:0|0:0,0:0:0:0:
253,200,108375,2,0,L|359:194,1,92.5,8|0,0:0|0:0,0:0:0:0:
78,264,108660,6,0,P|36:207|130:145,1,185,4|8,0:0|0:0,0:0:0:0:
267,173,109089,1,0,0:0:0:0:
169,142,109232,1,4,0:0:0:0:
40,93,109375,1,0,0:0:0:0:
138,62,109518,1,8,0:0:0:0:
40,93,109660,1,0,0:0:0:0:
337,308,109803,6,0,L|348:192,1,92.5,4|4,0:0|0:0,0:0:0:0:
214,239,110089,1,8,0:0:0:0:
340,221,110232,2,0,L|137:245,1,185,4|4,0:0|0:0,0:0:0:0:
433,161,110660,2,0,L|440:263,1,92.5,8|4,0:0|0:0,0:0:0:0:
135,303,110946,6,0,P|95:247|194:206,1,185,4|8,0:2|0:0,0:0:0:0:
326,171,111375,2,0,L|105:194,1,185,4|4,0:0|0:0,0:0:0:0:
264,189,111803,1,8,0:0:0:0:
467,323,111946,6,0,L|478:122,1,185,4|4,0:0|0:0,0:0:0:0:
376,132,112375,1,8,0:0:0:0:
158,190,112518,2,0,L|282:174,1,92.5,4|0,0:0|0:0,0:0:0:0:
384,273,112803,2,0,L|281:264,2,92.5,4|8|0,0:0|0:0|0:0,0:0:0:0:
141,337,113232,6,0,P|84:289|168:223,1,185,4|8,0:0|0:0,0:0:0:0:
258,216,113660,2,0,P|288:156|181:94,1,185,4|4,0:0|0:0,0:0:0:0:
77,118,114089,2,0,L|66:218,1,92.5,8|0,0:0|0:0,0:0:0:0:
311,293,114375,5,4,0:1:0:0:
246,288,114446,1,0,0:0:0:0:
186,283,114518,1,0,0:0:0:0:
399,185,114660,1,4,0:0:0:0:
178,137,114803,1,8,0:0:0:0:
243,132,114874,1,0,0:0:0:0:
303,127,114946,1,0,0:0:0:0:
64,128,115089,1,4,0:0:0:0:
188,253,115232,2,0,L|196:180,1,46.25,8|0,0:0|0:0,0:0:0:0:
55,156,115375,2,0,L|64:72,1,46.25,4|0,0:0|0:0,0:0:0:0:
245,340,115518,6,0,L|112:352,1,92.5,4|0,0:2|0:0,0:0:0:0:
35,268,115803,1,8,0:0:0:0:
288,237,115946,2,0,P|341:197|270:123,1,185,4|4,0:0|0:0,0:0:0:0:
144,117,116375,2,0,L|125:233,1,92.5,8|0,0:0|0:0,0:0:0:0:
385,284,116660,6,0,P|450:257|446:148,1,185,4|8,0:0|0:0,0:0:0:0:
316,112,117089,2,4,L|113:127,1,185
289,196,117518,2,0,L|396:213,1,92.5,8|0,0:0|0:0,0:0:0:0:
163,291,117803,6,0,P|100:246|177:184,1,185,4|8,0:2|0:0,0:0:0:0:
289,201,118232,2,0,L|302:100,1,92.5,4|0,0:2|0:0,0:0:0:0:
66,113,118518,1,4,0:0:0:0:
188,88,118660,1,8,0:0:0:0:
431,151,118803,1,4,0:0:0:0:
186,189,118946,5,4,0:2:0:0:
324,192,119089,1,2,0:2:0:0:
186,189,119232,1,8,0:0:0:0:
403,250,119375,2,0,P|460:208|391:148,1,185,4|4,0:0|0:0,0:0:0:0:
77,117,119803,1,8,0:0:0:0:
210,93,119946,1,4,0:0:0:0:
410,251,120089,6,0,P|458:189|356:146,1,185,4|8,0:2|0:0,0:0:0:0:
137,277,120518,2,0,L|122:171,1,92.5,4|0,0:0|0:0,0:0:0:0:
369,145,120803,2,0,L|384:39,1,92.5,4|8,0:0|0:0,0:0:0:0:
131,325,121089,6,0,P|94:282|185:206,1,185,4|4,0:0|0:0,0:0:0:0:
278,179,121518,1,8,0:0:0:0:
151,134,121660,2,0,L|139:334,1,185,4|4,0:0|0:0,0:0:0:0:
382,280,122089,1,8,0:0:0:0:
270,303,122232,1,0,0:0:0:0:
37,121,122375,6,0,L|33:243,1,92.5,4|0,0:2|0:0,0:0:0:0:
244,210,122660,1,8,0:0:0:0:
117,241,122803,1,2,0:2:0:0:
422,186,122946,1,4,0:0:0:0:
429,286,123089,1,2,0:2:0:0:
176,283,123232,1,8,0:0:0:0:
303,314,123375,1,2,0:2:0:0:
71,268,123518,6,0,L|151:252,1,46.25,8|0,0:0|0:0,0:0:0:0:
280,338,123660,1,4,0:0:0:0:
166,308,123803,1,4,0:0:0:0:
441,268,123946,2,0,L|361:252,1,46.25,8|0,0:0|0:0,0:0:0:0:
222,329,124089,1,4,0:0:0:0:
346,295,124232,1,4,0:0:0:0:
121,208,124375,1,8,0:0:0:0:
337,303,124518,1,4,0:0:0:0:
68,142,124660,6,0,L|52:276,1,92.5,4|0,0:2|2:0,0:0:0:0:
276,258,124946,2,0,L|292:392,1,92.5,10|0,1:2|2:0,0:0:0:0:
46,313,125232,1,2,1:2:0:0:
317,227,125375,1,2,1:2:0:0:
324,132,125517,1,8,0:0:0:0:
176,198,125660,6,0,L|395:229,1,185,2|0,1:2|1:0,0:0:0:0:
39,220,126089,1,10,1:2:0:0:
164,192,126232,1,4,0:0:0:0:
425,277,126375,2,0,L|437:152,1,92.5,10|4,1:2|0:0,0:0:0:0:
373,154,126589,1,0,0:0:0:0:
141,218,126660,1,8,0:0:0:0:
284,251,126803,1,4,0:0:0:0:
25,136,126946,6,0,L|137:115,1,92.5,4|0,0:2|2:0,0:0:0:0:
319,207,127232,1,10,1:2:0:0:
185,173,127375,1,0,2:0:0:0:
467,126,127518,1,10,1:2:0:0:
345,149,127660,1,4,1:0:0:0:
467,126,127803,1,8,0:0:0:0:
206,256,127946,2,0,L|206:186,1,46.25,4|0,0:0|0:0,0:0:0:0:
412,250,128089,6,0,L|105:207,1,277.5,0|4,0:0|0:0,0:0:0:0:
264,192,128660,1,8,0:0:0:0:
113,166,128803,2,0,L|96:368,1,185,4|0,0:0|0:0,0:0:0:0:
353,310,129232,6,0,P|410:264|314:199,1,185,4|4,0:2|0:0,0:0:0:0:
275,172,129661,1,0,0:0:0:0:
163,151,129804,2,0,L|152:350,1,185,8|0,0:0|0:0,0:0:0:0:
277,323,130232,2,0,P|322:279|238:196,1,185,4|4,0:0|0:0,0:0:0:0:
144,180,130661,1,4,0:0:0:0:
139,84,130803,1,0,0:0:0:0:
365,291,130946,2,0,P|430:263|391:146,1,185,8|4,0:0|0:0,0:0:0:0:
299,145,131375,1,0,2:0:0:0:
61,241,131518,6,0,P|56:177|159:103,1,185,4|4,0:2|0:0,0:0:0:0:
258,122,131946,2,0,L|54:106,2,185,0|4|0,0:0|0:0|0:0,0:0:0:0:
387,87,132661,1,4,0:0:0:0:
274,119,132804,1,0,2:0:0:0:
132,187,132947,1,4,0:0:0:0:
250,227,133090,1,4,1:0:0:0:
368,309,133232,2,0,P|416:261|346:186,1,185,8|8,0:0|0:0,0:0:0:0:
238,207,133661,1,4,0:0:0:0:
29,138,133804,6,0,L|19:352,1,185,4|0,0:2|0:0,0:0:0:0:
223,262,134375,1,8,0:0:0:0:
96,288,134661,1,4,0:0:0:0:
344,336,134804,2,0,P|396:293|324:218,1,185,4|4,0:0|0:0,0:0:0:0:
53,126,135232,2,0,L|255:140,2,185,4|8|4,0:0|0:0|0:0,0:0:0:0:
310,263,136089,6,0,P|367:238|338:135,1,185,4|4,0:2|0:0,0:0:0:0:
226,93,136518,2,0,L|211:189,1,92.5,2|8,0:2|0:0,0:0:0:0:
440,268,136803,2,0,L|239:255,1,185,2|4,0:2|0:0,0:0:0:0:
40,191,137232,5,4,0:2:0:0:
270,118,137375,2,0,L|352:112,2,46.25,2|0|8,0:2|0:0|0:0,0:0:0:0:
161,63,137660,1,4,0:0:0:0:
425,172,137803,2,0,L|320:187,1,92.5,8|4,0:0|0:0,0:0:0:0:
215,266,138089,2,0,L|152:257,1,46.25,4|0,0:0|0:0,0:0:0:0:
342,134,138232,2,0,L|416:125,1,46.25
161,286,138375,6,0,L|151:169,1,92.5,4|0,0:2|0:0,0:0:0:0:
298,226,138661,2,0,L|403:215,1,92.5,8|0,0:0|0:0,0:0:0:0:
242,130,138947,2,0,L|150:136,1,92.5,6|0,0:0|0:0,0:0:0:0:
280,307,139232,2,0,L|144:286,1,92.5,10|2,0:0|0:0,0:0:0:0:
461,256,139518,6,4,L|357:241,1,92.5
231,179,139804,2,4,L|329:160,1,92.5,10|0,0:0|0:0,0:0:0:0:
78,258,140089,1,6,0:0:0:0:
70,136,140232,1,0,2:0:0:0:
336,121,140375,1,10,0:0:0:0:
84,139,140518,1,4,0:0:0:0:
392,349,140661,6,0,P|439:300|357:215,1,185,4|8,0:2|0:0,0:0:0:0:
100,239,141089,2,0,L|299:226,1,185,2|4,0:0|0:0,0:0:0:0:
432,177,141518,1,8,0:0:0:0:
436,285,141661,1,2,0:0:0:0:
136,207,141804,6,0,L|126:104,1,92.5,4|0,0:0|0:0,0:0:0:0:
266,177,142089,2,0,L|375:170,1,92.5,8|0,0:0|0:0,0:0:0:0:
221,284,142375,2,0,L|112:289,1,92.5,4|0,0:0|0:0,0:0:0:0:
262,232,142660,1,8,0:0:0:0:
49,161,142804,1,6,0:0:0:0:
337,270,142946,6,0,P|402:224|320:174,1,185,2|8,0:1|0:0,0:0:0:0:
85,114,143375,2,0,L|281:88,1,185,6|4,0:0|0:0,0:0:0:0:
412,140,143804,1,8,0:0:0:0:
429,253,143946,1,6,0:0:0:0:
116,243,144089,6,0,P|85:185|191:137,1,185,2|8,0:1|0:0,0:0:0:0:
278,339,144517,2,0,L|88:308,1,185,6|4,0:0|0:0,0:0:0:0:
330,170,144946,1,8,0:0:0:0:
186,208,145089,1,2,0:0:0:0:
450,328,145232,5,6,0:1:0:0:
462,203,145375,1,4,0:0:0:0:
196,182,145518,1,8,0:0:0:0:
354,142,145661,1,6,0:0:0:0:
55,263,145804,1,8,0:0:0:0:
47,149,145947,1,4,0:0:0:0:
461,204,146089,1,8,0:0:0:0:
468,92,146232,1,4,0:0:0:0:
107,77,146375,1,4,2:2:0:0:
400,192,147089,5,2,2:0:0:0:
290,193,147232,1,2,2:0:0:0:
400,192,147375,1,0,2:0:0:0:
108,260,147518,5,4,1:2:0:0:
342,294,147660,2,0,L|359:183,1,92.5,0|8,1:0|1:0,0:0:0:0:
120,200,147946,2,0,L|20:208,1,92.5,0|4,1:0|0:0,0:0:0:0:
271,172,148232,2,0,P|327:131|257:55,1,185
29,88,148660,5,4,0:0:0:0:
160,88,148803,1,0,0:0:0:0:
29,88,148946,1,8,0:0:0:0:
370,243,149089,2,0,P|361:169|242:120,1,185,4|4,0:0|0:0,0:0:0:0:
18,142,149518,1,8,0:0:0:0:
157,143,149660,1,4,0:0:0:0:
384,302,149803,6,0,P|443:258|370:171,1,185,4|8,0:2|0:0,0:0:0:0:
244,168,150232,2,0,L|436:144,1,185,0|4,0:0|0:0,0:0:0:0:
152,272,150660,2,0,L|33:256,1,92.5,8|0,0:0|0:0,0:0:0:0:
405,229,150946,5,4,0:0:0:0:
284,237,151089,1,0,0:0:0:0:
405,229,151232,1,8,0:0:0:0:
116,303,151375,2,0,L|100:80,1,185,4|4,0:0|0:0,0:0:0:0:
312,132,151803,1,8,0:0:0:0:
189,143,151946,1,0,0:0:0:0:
443,249,152089,6,0,P|480:181|383:135,1,185,4|8,0:2|0:0,0:0:0:0:
246,154,152518,2,0,L|367:143,1,92.5,4|0,0:0|0:0,0:0:0:0:
84,121,152803,1,2,0:0:0:0:
353,225,152946,1,8,0:0:0:0:
79,158,153089,6,0,L|67:369,1,185,2|4,0:0|0:0,0:0:0:0:
215,318,153518,1,8,0:0:0:0:
472,317,153660,2,0,L|281:291,1,185,6|4,0:0|0:0,0:0:0:0:
418,202,154089,2,0,L|298:210,1,92.5,10|0,0:0|0:0,0:0:0:0:
31,108,154375,5,4,0:2:0:0:
254,175,154518,1,4,0:0:0:0:
471,238,154660,1,8,0:0:0:0:
162,276,154803,2,0,P|92:248|120:136,1,185,2|4,0:0|0:0,0:0:0:0:
347,82,155232,1,10,0:0:0:0:
207,111,155375,1,0,0:0:0:0:
440,248,155518,6,0,L|456:160,1,50.8750015525818,8|0,0:0|0:0,0:0:0:0:
309,94,155660,2,0,L|229:102,1,50.8750015525818,4|0,0:0|0:0,0:0:0:0:
109,49,155803,1,4,0:0:0:0:
316,183,155946,2,0,L|395:194,2,50.8750015525818,8|0|0,0:0|0:0|0:0,0:0:0:0:
185,228,156232,2,0,L|248:220,1,50.8750015525818,0|0,1:0|1:0,1:0:0:0:
449,283,156375,2,0,L|466:200,1,50.8750015525818,8|0,1:0|1:0,1:0:0:0:
281,299,156518,2,0,L|215:306,1,50.8750015525818,0|0,1:0|1:0,1:0:0:0:
27,209,156660,6,0,P|48:135|146:74,1,185,4|8,0:2|0:0,0:0:0:0:
282,115,157089,2,0,L|181:113,2,92.5,6|0|2,0:0|0:0|0:0,0:0:0:0:
54,178,157518,1,8,0:0:0:0:
376,236,157660,1,6,0:0:0:0:
47,317,157803,6,0,L|38:212,1,92.5,2|0,0:0|0:0,0:0:0:0:
180,223,158089,1,8,0:0:0:0:
445,273,158232,2,0,L|231:301,1,185,6|4,0:0|0:0,0:0:0:0:
97,236,158660,2,0,L|201:245,1,92.5,10|4,0:0|0:0,0:0:0:0:
468,239,158946,6,0,P|461:164|349:110,1,185,6|10,0:0|0:0,0:0:0:0:
158,137,159375,1,2,0:0:0:0:
413,213,159518,1,0,0:0:0:0:
69,177,159660,2,0,L|50:306,1,92.5,6|10,0:0|0:0,0:0:0:0:
382,301,159946,5,2,0:0:0:0:
243,326,160089,1,4,0:0:0:0:
37,312,160232,2,0,L|27:218,1,92.5,2|8,0:0|0:0,0:0:0:0:
379,162,160518,2,0,L|262:145,1,92.5,2|4,0:0|0:0,0:0:0:0:
125,106,160803,2,0,L|248:90,1,92.5,2|8,0:0|0:0,0:0:0:0:
458,205,161089,1,6,0:0:0:0:
152,331,161232,6,0,L|141:218,1,92.5,4|0,0:2|0:0,0:0:0:0:
298,264,161518,2,0,L|293:158,1,92.5,8|0,0:0|0:0,0:0:0:0:
456,330,161804,2,0,L|357:322,1,92.5,2|4,0:2|0:0,0:0:0:0:
202,245,162089,2,0,L|302:236,1,92.5,8|0,0:0|0:0,0:0:0:0:
42,137,162375,5,4,0:0:0:0:
168,134,162518,1,2,0:2:0:0:
42,137,162660,1,10,0:0:0:0:
320,238,162803,2,0,P|376:187|301:105,1,185,2|4,0:0|0:0,0:0:0:0:
97,187,163232,1,8,0:0:0:0:
220,171,163374,1,6,0:0:0:0:
443,288,163518,6,0,L|348:276,1,92.5,2|0,0:2|0:0,0:0:0:0:
220,217,163803,2,0,L|336:202,1,92.5,8|2,0:0|0:2,0:0:0:0:
51,182,164089,2,0,L|42:282,1,92.5,2|4,0:2|0:0,0:0:0:0:
176,272,164375,1,8,0:0:0:0:
43,273,164518,1,2,0:2:0:0:
370,210,164660,5,4,0:0:0:0:
249,189,164803,1,4,0:0:0:0:
128,162,164946,1,8,0:0:0:0:
447,116,165089,2,0,L|454:323,1,185,4|4,0:0|0:0,0:0:0:0:
173,169,165517,1,10,0:1:0:0:
324,211,165660,1,4,0:0:0:0:
83,230,165803,6,0,P|31:193|122:117,1,185,6|8,0:1|0:0,0:0:0:0:
336,98,166232,1,2,0:0:0:0:
198,96,166375,1,0,0:0:0:0:
336,98,166518,1,4,0:0:0:0:
61,95,166660,1,10,0:0:0:0:
45,211,166803,1,0,0:0:0:0:
317,312,166946,6,0,P|369:275|278:199,1,185,6|8,0:1|0:0,0:0:0:0:
64,180,167375,1,2,0:0:0:0:
283,180,167518,1,0,0:0:0:0:
64,180,167661,1,4,0:0:0:0:
339,177,167803,1,10,0:0:0:0:
355,293,167946,1,0,0:0:0:0:
43,190,168089,6,0,L|242:163,1,185,6|8,0:1|0:0,0:0:0:0:
459,143,168518,1,2,0:0:0:0:
338,142,168661,1,4,0:0:0:0:
459,143,168803,1,0,0:0:0:0:
195,246,168946,1,10,0:0:0:0:
79,248,169089,1,0,0:0:0:0:
384,309,169232,6,0,P|447:257|357:214,1,185,6|8,0:1|0:0,0:0:0:0:
229,196,169660,2,0,L|428:179,1,185,2|4,0:0|0:0,0:0:0:0:
119,298,170089,1,10,0:0:0:0:
106,176,170232,1,0,0:0:0:0:
445,263,170375,5,2,0:2:0:0:
362,198,170518,1,4,0:0:0:0:
148,205,170660,1,2,0:2:0:0:
278,150,170803,1,4,0:0:0:0:
67,263,170946,5,2,0:2:0:0:
150,198,171089,1,4,0:0:0:0:
364,205,171231,1,2,0:2:0:0:
146,117,171374,1,4,0:0:0:0:
445,263,171518,5,2,0:2:0:0:
479,164,171661,1,4,0:0:0:0:
148,205,171803,1,2,0:2:0:0:
411,82,171946,1,4,0:0:0:0:
60,129,172089,5,2,0:2:0:0:
208,152,172232,1,4,0:0:0:0:
60,129,172375,1,8,0:0:0:0:
381,164,172518,2,0,L|465:157,1,55.4999983062745,8|0,0:0|0:0,0:0:0:0:
191,303,172660,6,0,P|119:273|108:172,1,185,4|8,2:0|0:0,0:0:0:0:
216,137,173089,1,0,0:0:0:0:
343,167,173232,2,4,L|352:271,1,92.5,4|4,0:1|0:1,0:1:0:0:
199,308,173518,2,0,L|102:300,1,92.5,8|2,0:0|0:0,0:0:0:0:
354,269,173803,6,0,P|412:229|333:158,1,185,4|8,0:1|0:0,0:0:0:0:
235,268,174232,2,0,P|177:228|256:157,1,185,2|4,0:2|0:1,0:0:0:0:
363,139,174660,2,0,L|468:130,1,92.5,8|2,0:0|0:0,0:0:0:0:
83,145,174946,6,0,L|71:246,1,92.5,4|0,0:0|0:0,0:0:0:0:
216,261,175232,2,0,L|228:362,1,92.5,8|0,0:0|0:0,0:0:0:0:
371,223,175518,1,2,0:0:0:0:
125,164,175660,2,0,L|16:177,2,92.5,2|8|2,0:0|0:0|0:0,0:0:0:0:
363,218,176089,5,4,0:1:0:0:
242,216,176232,1,4,0:1:0:0:
364,216,176375,1,8,0:0:0:0:
157,129,176518,2,0,P|109:170|173:264,1,185,2|4,0:0|0:1,0:0:0:0:
298,283,176946,2,0,L|180:301,1,92.5,8|2,0:0|0:0,0:0:0:0:
450,212,177232,6,0,P|447:149|325:92,1,185,4|8,0:0|0:0,0:0:0:0:
211,85,177660,2,0,L|199:286,1,185,4|4,0:1|0:1,0:0:0:0:
338,311,178089,2,0,L|431:306,1,92.5,8|0,0:0|0:0,0:0:0:0:
130,261,178375,6,0,P|81:232|146:139,1,185,4|8,0:1|0:0,0:0:0:0:
256,167,178803,2,0,P|250:98|134:53,1,185,2|4,0:0|0:1,0:0:0:0:
22,61,179232,2,0,L|14:168,1,92.5,8|0,0:0|0:0,0:0:0:0:
328,276,179518,6,0,L|144:252,1,185,4|8,0:0|0:0,0:0:0:0:
364,293,179946,2,0,L|376:103,1,185,4|4,0:1|0:1,0:0:0:0:
235,147,180375,2,0,L|119:131,1,92.5,8|0,0:0|0:0,0:0:0:0:
450,171,180660,5,8,0:0:0:0:
319,204,180803,2,0,L|251:196,2,46.25,4|0|4,0:1|0:0|0:1,0:0:0:0:
450,171,181089,1,4,0:1:0:0:
145,154,181232,2,0,L|46:161,2,61.6666666666667,8|0|0,0:0|0:0|0:0,0:0:0:0:
316,157,181518,2,0,L|415:164,2,61.6666666666667,8|0|0,0:0|0:0|0:0,0:0:0:0:
93,99,181803,6,0,L|79:224,1,92.5,4|0,0:0|0:0,0:0:0:0:
208,186,182089,1,8,0:0:0:0:
83,188,182279,1,2,0:0:0:0:
364,184,182470,1,2,0:0:0:0:
208,192,182660,1,8,0:0:0:0:
364,184,182851,1,2,0:0:0:0:
100,127,183041,5,2,0:0:0:0:
99,34,183232,1,8,0:0:0:0:
306,146,183375,2,0,P|332:91|241:42,1,185,2|4,0:0|0:1,0:0:0:0:
79,95,183803,2,0,L|190:111,1,92.5,8|0,0:0|0:0,0:0:0:0:
418,269,184089,6,0,L|431:63,1,185,4|8,0:0|0:0,0:0:0:0:
285,159,184518,2,0,P|220:134|243:24,1,185,2|4,0:0|0:1,0:0:0:0:
362,75,184946,2,0,L|469:62,1,92.5,8|0,0:0|0:0,0:0:0:0:
210,226,185232,6,0,L|154:222,2,46.25,2|0|0,0:0|0:0|0:0,0:0:0:0:
348,178,185518,2,0,L|353:288,1,92.5,8|4,0:0|0:1,0:0:0:0:
204,308,185803,2,0,L|83:293,1,92.5,2|4,0:0|0:1,0:0:0:0:
251,261,186089,1,8,0:0:0:0:
111,295,186232,1,4,0:2:0:0:
440,265,186375,6,0,P|423:196|312:137,1,185,4|8,0:2|0:0,0:0:0:0:
180,142,186803,2,0,L|371:136,1,185,2|4,0:0|0:1,0:0:0:0:
246,227,187232,2,0,L|341:224,1,92.5,8|0,0:0|0:0,0:0:0:0:
71,228,187518,6,0,P|83:151|188:102,1,185,4|8,0:1|0:0,0:0:0:0:
293,92,187946,2,0,L|298:280,1,185,2|4,0:0|0:1,0:0:0:0:
437,335,188374,2,0,L|441:210,1,92.5,8|4,0:0|2:1,0:0:0:0:
156,316,188660,6,0,L|39:324,3,92.5,4|0|8|4,0:0|0:0|0:0|0:1,0:0:0:0:
210,243,189232,2,0,L|223:148,1,92.5,4|0,0:1|0:0,0:0:0:0:
76,95,189518,2,0,L|64:210,1,92.5,8|4,0:0|0:1,0:0:0:0:
371,132,189803,6,0,L|431:127,2,46.25,8|0|0,0:0|0:0|0:0,0:0:0:0:
221,92,190089,1,0,0:0:0:0:
374,218,190232,2,0,L|434:213,2,46.25,8|0|0,0:0|0:0|0:0,0:0:0:0:
224,178,190518,1,0,0:0:0:0:
382,308,190660,2,0,L|442:303,2,46.25,8|0|0,0:0|0:0|0:0,0:0:0:0:
123,181,190946,6,0,L|29:165,2,61.6666666666667,8|0|2,0:0|0:0|0:0,0:0:0:0:
203,235,191232,2,0,L|297:219,2,61.6666666666667,8|0|2,0:0|0:0|0:0,0:0:0:0:
382,281,191518,2,0,L|269:270,1,92.5,8|4,0:0|0:1,0:0:0:0:
163,329,191803,2,0,L|63:319,1,92.5,8|4,0:0|0:1,0:0:0:0:
427,185,192089,1,2,0:0:0:0:
191,255,201232,6,0,P|192:195|296:142,1,185,0|2,1:0|0:0,0:0:0:0:
410,121,201660,1,0,0:0:0:0:
273,130,201803,2,0,L|266:233,1,92.5,0|0,1:0|0:0,0:0:0:0:
390,282,202089,2,0,L|497:274,1,92.5,2|0,0:0|0:0,0:0:0:0:
232,328,202375,6,0,P|164:289|199:189,1,185,0|2,1:0|0:0,0:0:0:0:
299,153,202803,1,0,0:0:0:0:
185,120,202946,2,0,L|178:225,1,92.5,0|0,1:0|0:0,0:0:0:0:
322,270,203232,2,0,L|416:265,1,92.5,2|0,0:0|0:0,0:0:0:0:
171,312,203518,6,0,L|366:298,1,185,0|2,1:0|0:0,0:0:0:0:
488,287,203946,2,0,P|471:207|346:157,1,185,2|0,0:0|0:0,0:0:0:0:
272,154,204375,1,0,0:0:0:0:
51,178,204518,6,0,L|41:298,1,92.5,2|0,0:0|1:0,0:0:0:0:
174,321,204803,2,0,L|280:316,1,92.5,2|0,0:0|0:0,0:0:0:0:
144,236,205089,2,0,L|263:229,1,92.5,2|0,0:0|1:0,0:0:0:0:
374,172,205375,2,0,L|254:162,2,92.5,2|0|0,0:0|0:0|0:0,0:0:0:0:
140,214,205803,6,0,P|86:173|159:95,1,185,0|2,1:0|0:0,0:0:0:0:
254,92,206232,1,0,0:0:0:0:
140,119,206375,2,0,L|123:220,1,92.5,0|0,1:0|0:0,0:0:0:0:
271,274,206660,2,0,L|154:264,1,92.5
429,202,206946,6,0,P|413:124|299:86,1,185,0|2,1:0|0:0,0:0:0:0:
189,93,207375,2,0,L|171:291,1,185,2|0,0:0|0:0,0:0:0:0:
297,324,207803,2,0,L|413:308,1,92.5,2|0,0:0|0:0,0:0:0:0:
129,236,208089,5,2,0:0:0:0:
256,192,208232,12,0,210374,0:0:0:0:
121,154,210518,5,0,0:0:0:0:
16,154,210660,1,2,0:0:0:0:
121,154,210803,1,0,0:0:0:0:
335,217,210946,1,2,0:0:0:0:
205,217,211089,1,0,0:0:0:0:
335,217,211232,2,0,L|270:217,1,46.25,0|0,2:0|0:0,0:0:0:0:
49,315,211375,6,0,P|48:221|263:54,1,370,4|0,0:0|0:0,0:0:0:0:
391,293,212089,6,0,L|463:288,1,50.8750015525818,8|0,1:0|1:0,1:0:0:0:
368,221,212232,2,0,L|297:224,1,50.8750015525818,4|0,1:0|1:0,1:0:0:0:
398,261,212375,2,0,L|470:256,1,50.8750015525818,8|0,1:0|1:0,1:0:0:0:
375,189,212518,2,0,L|304:192,1,50.8750015525818,4|0,1:0|1:0,1:0:0:0:
403,227,212660,2,0,L|475:222,1,50.8750015525818,8|0,1:0|1:0,1:0:0:0:
380,155,212803,2,0,L|309:158,1,50.8750015525818,4|0,1:0|1:0,1:0:0:0:
179,172,212946,2,0,L|361:94,1,180.374991743088,4|0,1:2|2:0,0:0:0:0:
102,247,213232,6,0,P|53:184|152:124,1,203.500006210327,4|8,1:0|1:0,0:0:0:0:
268,118,213660,2,0,L|55:102,1,203.500006210327,4|4,1:0|1:0,0:0:0:0:
360,155,214089,2,0,L|378:280,1,101.750003105164,8|0,0:0|0:0,0:0:0:0:
127,306,214374,5,4,0:0:0:0:
251,286,214517,1,0,0:0:0:0:
127,306,214660,1,8,0:0:0:0:
383,252,214803,2,0,P|424:200|325:128,1,203.500006210327,4|4,0:0|0:0,0:0:0:0:
202,158,215232,2,0,L|86:143,1,101.750003105164,8|0,0:0|0:0,0:0:0:0:
410,74,215517,6,0,L|428:298,1,203.500006210327,4|8,0:2|0:0,0:0:0:0:
268,320,215946,2,4,L|47:299,1,203.500006210327,4|6,0:0|0:0,0:0:0:0:
215,261,216374,1,8,0:0:0:0:
456,233,216517,6,0,P|447:154|336:101,1,203.500006210327,6|4,0:0|0:0,0:0:0:0:
108,100,216946,1,8,0:0:0:0:
370,117,217089,2,0,P|430:171|362:254,1,203.500006210327,6|4,0:0|0:0,0:0:0:0:
157,295,217517,2,0,L|50:278,1,101.750003105164,10|4,0:0|0:0,0:0:0:0:
442,91,217803,6,0,L|460:324,1,203.500006210327,4|8,0:2|0:0,0:0:0:0:
110,247,218232,1,6,0:0:0:0:
233,204,218374,1,0,0:0:0:0:
452,258,218517,1,4,0:0:0:0:
35,132,218660,2,0,L|21:278,1,101.750003105164,10|0,0:0|0:0,0:0:0:0:
264,318,218946,6,0,L|332:304,1,50.8750015525818,8|0,0:0|0:0,0:0:0:0:
482,211,219089,2,0,L|414:195,1,50.8750015525818
264,147,219232,1,4,0:0:0:0:
136,207,219374,2,0,L|124:130,1,50.8750015525818,8|0,0:0|0:0,0:0:0:0:
302,271,219517,1,4,0:0:0:0:
349,250,219589,1,0,0:0:0:0:
376,207,219660,1,0,0:0:0:0:
379,151,219732,1,0,0:0:0:0:
358,104,219803,1,8,0:0:0:0:
312,77,219874,1,0,0:0:0:0:
151,66,219946,1,4,0:0:0:0:
91,80,220017,1,0,0:0:0:0:
389,89,220089,6,0,P|458:141|353:186,1,203.500006210327,4|8,0:2|0:0,0:0:0:0:
235,263,220517,2,0,L|457:267,1,203.500006210327,6|6,0:0|0:0,0:0:0:0:
191,281,220946,1,8,0:0:0:0:
454,231,221089,1,6,0:0:0:0:
146,275,221232,6,0,P|107:226|220:149,1,203.500006210327,6|8,0:1|0:0,0:0:0:0:
340,137,221660,2,0,L|128:115,1,203.500006210327,6|6,0:0|0:0,0:0:0:0:
383,236,222089,2,0,L|509:215,1,101.750003105164,8|2,0:0|0:0,0:0:0:0:
41,195,222374,5,6,0:0:0:0:
257,196,222517,1,0,0:0:0:0:
41,195,222660,1,10,0:0:0:0:
365,328,222803,2,0,L|388:212,1,101.750003105164,2|0,0:0|0:0,0:0:0:0:
105,131,223089,1,2,0:0:0:0:
230,130,223232,1,8,0:0:0:0:
464,72,223374,6,0,L|480:200,1,101.750003105164,2|4,0:0|0:0,0:0:0:0:
232,188,223660,1,2,0:0:0:0:
376,188,223803,1,8,0:0:0:0:
48,72,223946,2,4,L|32:200,1,101.750003105164,6|4,0:0|0:0,0:0:0:0:
280,188,224232,1,2,0:0:0:0:
36,191,224375,1,8,0:0:0:0:
166,194,224517,1,2,0:0:0:0:
421,87,224660,6,0,L|439:223,1,101.750003105164,6|0,0:1|0:0,0:0:0:0:
306,205,224946,2,0,L|293:324,1,101.750003105164,8|0,0:0|0:0,0:0:0:0:
78,334,225232,2,4,L|201:332,1,101.750003105164
318,364,225517,2,0,L|466:360,1,101.750003105164,8|0,0:0|0:0,0:0:0:0:
140,250,225803,5,4,0:0:0:0:
268,217,225946,1,4,0:0:0:0:
492,262,226089,1,10,0:0:0:0:
206,237,226232,2,0,P|150:182|232:115,1,203.500006210327,6|6,0:0|0:0,0:0:0:0:
455,146,226660,2,0,L|310:161,1,101.750003105164,8|2,0:0|0:0,0:0:0:0:
102,299,226946,6,0,L|78:182,1,101.750003105164,4|0,0:0|0:0,0:0:0:0:
230,186,227232,2,0,L|252:65,1,101.750003105164,8|2,0:0|0:2,0:0:0:0:
394,125,227517,2,0,L|289:128,1,101.750003105164,4|2,0:0|0:2,0:0:0:0:
133,169,227803,2,0,L|238:172,1,101.750003105164,8|2,0:0|0:2,0:0:0:0:
479,151,228089,5,4,0:1:0:0:
344,150,228232,1,0,0:0:0:0:
479,151,228374,1,8,0:0:0:0:
212,102,228517,2,4,L|193:317,1,203.500006210327
478,224,228946,1,10,0:0:0:0:
213,284,229089,1,0,0:0:0:0:
478,224,229232,6,0,L|266:194,1,203.500006210327,6|8,0:1|0:0,0:0:0:0:
38,249,229660,1,2,0:0:0:0:
170,249,229803,1,0,0:0:0:0:
38,249,229946,1,4,0:0:0:0:
366,248,230089,1,10,0:0:0:0:
489,248,230232,1,0,0:0:0:0:
34,224,230374,6,0,L|246:194,1,203.500006210327,6|8,0:1|0:0,0:0:0:0:
474,249,230802,1,2,0:0:0:0:
233,245,230945,1,0,0:0:0:0:
474,249,231088,1,4,0:0:0:0:
146,248,231231,1,10,0:0:0:0:
277,249,231374,1,0,0:0:0:0:
36,255,231517,6,4,P|48:185|187:129,1,203.500006210327,6|8,0:1|0:0,0:2:0:0:
460,124,231946,1,6,0:0:0:0:
335,123,232089,1,0,0:0:0:0:
460,124,232232,1,4,0:0:0:0:
166,229,232374,1,10,0:0:0:0:
152,101,232517,1,0,0:0:0:0:
456,202,232660,6,0,L|254:184,1,203.500006210327,6|10,0:1|0:0,0:0:0:0:
420,196,233089,2,0,P|461:251|384:337,1,203.500006210327,2|4,0:0|0:0,0:0:0:0:
168,268,233517,1,10,0:0:0:0:
408,328,233660,1,0,0:0:0:0:
40,296,233803,5,6,0:0:0:0:
152,280,233946,1,0,0:0:0:0:
368,288,234089,1,8,0:0:0:0:
132,212,234232,1,4,0:0:0:0:
472,296,234374,1,4,0:0:0:0:
360,280,234517,1,0,0:0:0:0:
144,288,234660,1,8,0:0:0:0:
380,212,234803,1,4,0:0:0:0:
56,96,234946,5,2,0:2:0:0:
152,145,235089,1,0,0:0:0:0:
359,175,235232,1,8,0:0:0:0:
159,252,235374,1,0,0:0:0:0:
489,299,235517,1,4,0:0:0:0:
365,281,235660,1,4,0:0:0:0:
119,325,235803,1,8,0:0:0:0:
365,281,235946,1,4,0:0:0:0:
36,268,236089,5,4,0:2:0:0:
256,268,236232,1,8,0:0:0:0:
36,268,236374,1,4,0:0:0:0:
256,268,236517,1,8,0:0:0:0:
476,268,236660,5,4,0:0:0:0:
256,268,236803,1,8,0:0:0:0:
476,268,236945,1,4,0:0:0:0:
256,268,237088,1,8,0:0:0:0:
377,269,237232,5,0,0:0:0:0:
134,268,237374,1,4,0:0:0:0:
415,190,237517,1,4,0:0:0:0:
104,186,237660,1,4,0:0:0:0:
456,110,237803,5,8,0:0:0:0:
78,107,237946,1,8,0:0:0:0:
236,181,238232,2,0,L|304:177,1,50.8750015525818,2|0,2:0|2:0,0:0:0:0:
96,115,238374,6,0,L|84:228,1,92.5,4|0,1:2|2:0,0:0:0:0:
344,277,238660,1,10,1:0:0:0:
207,321,238802,1,4,1:0:0:0:
483,271,238945,1,0,1:0:0:0:
366,205,239088,2,0,L|438:215,1,46.25,2|0,1:0|0:0,0:0:0:0:
241,292,239231,2,0,L|228:173,1,92.5,8|4,1:0|1:0,0:0:0:0:
472,168,239517,5,2,0:0:0:0:
352,212,239660,1,4,0:0:0:0:
471,250,239802,1,10,0:0:0:0:
136,268,239945,1,2,0:0:0:0:
372,252,240231,1,2,1:1:0:0:
148,336,240374,2,0,L|14:330,1,92.5,10|0,1:1|0:0,0:0:0:0:
469,187,240660,6,0,L|473:301,1,92.5,4|0,1:2|2:0,0:0:0:0:
239,308,240945,1,10,1:0:0:0:
361,280,241088,1,0,1:0:0:0:
88,281,241231,1,0,1:0:0:0:
202,251,241374,2,0,L|128:243,1,46.25,2|0,1:0|0:0,0:0:0:0:
324,347,241517,2,0,L|207:333,1,92.5,8|4,1:0|1:0,0:0:0:0:
512,173,241803,5,6,1:1:0:0:
388,159,241945,1,4,1:0:0:0:
512,173,242088,1,10,1:0:0:0:
133,103,242231,2,0,P|107:194|189:240,1,185,6|0,1:1|0:0,0:0:0:0:
389,211,242660,1,8,1:0:0:0:
397,298,242803,1,0,0:0:0:0:
248,284,242946,6,0,L|361:273,1,92.5,4|0,1:2|1:0,0:0:0:0:
471,165,243231,2,0,L|340:177,1,92.5,10|0,1:1|1:0,0:0:0:0:
139,181,243517,1,4,1:0:0:0:
249,226,243660,2,0,L|315:213,1,46.25,2|0,1:0|0:0,0:0:0:0:
132,116,243803,2,0,L|260:132,1,92.5,8|4,0:0|0:0,0:0:0:0:
468,188,244088,5,6,1:1:0:0:
341,184,244231,1,0,1:0:0:0:
468,188,244374,1,10,1:0:0:0:
169,287,244517,2,0,L|361:273,1,185,6|4,1:1|1:0,0:0:0:0:
63,234,244946,2,0,L|48:134,1,92.5,10|4,1:0|1:0,1:0:0:0:
377,246,245231,6,0,L|510:252,1,92.5,4|0,1:2|0:0,0:0:0:0:
264,106,245517,1,10,1:0:0:0:
394,70,245660,1,0,1:0:0:0:
113,119,245802,1,2,0:0:0:0:
98,252,245945,1,4,0:0:0:0:
404,326,246088,1,10,1:0:0:0:
274,290,246231,1,0,1:0:0:0:
492,257,246374,6,0,L|504:181,1,46.25,6|0,1:0|0:0,0:0:0:0:
316,127,246517,2,0,L|184:120,1,92.5,4|8,1:0|1:0,0:0:0:0:
107,331,246803,2,0,L|95:255,1,46.25,6|0,1:0|0:0,0:0:0:0:
283,201,246946,2,0,L|415:194,1,92.5,4|8,1:0|1:0,0:0:0:0:
259,199,247232,2,0,L|189:193,1,46.25,10|0,0:0|0:0,0:0:0:0:
377,290,247374,2,0,L|459:298,1,46.25,4|0,0:0|0:0,0:0:0:0:
186,300,247517,6,0,L|75:285,1,92.5,2|4,0:0|0:1,0:0:0:0:
212,225,247803,1,8,0:0:0:0:
416,284,247946,1,4,0:1:0:0:
246,152,248232,2,4,L|236:270,1,92.5,4|8,0:1|0:1,0:1:0:0:
474,221,248517,1,2,0:0:0:0:
232,333,248803,6,4,L|121:324,1,92.5,4|8,0:1|0:1,0:1:0:0:
276,261,249089,2,0,L|400:270,1,92.5,2|4,0:0|0:1,0:0:0:0:
238,191,249374,2,0,L|230:120,1,46.25,4|0,0:1|0:0,0:0:0:0:
414,211,249517,2,0,L|515:202,1,92.5,8|4,0:0|0:1,0:0:0:0:
72,273,249803,5,4,0:2:0:0:
59,151,249946,1,0,0:0:0:0:
334,129,250089,1,8,0:0:0:0:
193,117,250232,1,4,0:1:0:0:
436,289,250374,2,0,L|447:172,1,92.5,8|4,0:0|0:1,0:0:0:0:
374,189,250589,1,0,0:0:0:0:
187,214,250660,1,4,0:1:0:0:
435,110,250803,1,4,1:2:0:0:
