osu file format v14

[General]
AudioFilename: audio.mp3
AudioLeadIn: 0
PreviewTime: 146717
Countdown: 0
SampleSet: Soft
StackLeniency: 0.3
Mode: 0
LetterboxInBreaks: 0
WidescreenStoryboard: 0

[Editor]
Bookmarks: 215540,272673
DistanceSpacing: 1.5
BeatDivisor: 4
GridSize: 4
TimelineZoom: 4.399998

[Metadata]
Title:Tsukikage Shoujo - Poplica* Remix
TitleUnicode:月影少女 - Poplica* Remix
Artist:Ayakura Mei
ArtistUnicode:綾倉盟
Creator:Remapper
Version:KIZU
Source:東方永夜抄 ~ Imperishable Night
Tags:Syrufit ZUN 2chain TouHou
BeatmapID:2377753
BeatmapSetID:896519

[Difficulty]
HPDrainRate:6
CircleSize:4
OverallDifficulty:8.5
ApproachRate:9
SliderMultiplier:2
SliderTickRate:1

[Events]
//Background and Video events
0,0,"bg.png",0,0
//Break Periods
2,219270,243175
2,272872,277367
2,280152,283764
2,287210,291484
2,294269,297881
2,301327,305602
//Storyboard Layer 0 (Background)
//Storyboard Layer 1 (Fail)
//Storyboard Layer 2 (Pass)
//Storyboard Layer 3 (Foreground)
//Storyboard Layer 4 (Overlay)
//Storyboard Sound Samples

[TimingPoints]
3335,441.176470588235,4,2,0,60,1,0
3776,441.176470588235,4,2,0,60,1,0
31128,-200,4,2,0,60,0,0
32011,-100,4,2,0,60,0,0
35099,-100,4,3,0,60,0,0
38628,-133.333333333333,4,3,0,60,0,0
39070,-100,4,3,0,60,0,0
40283,-133.333333333333,4,3,0,60,0,0
40614,-100,4,3,0,60,0,0
41717,-133.333333333333,4,3,0,60,0,0
41937,-100,4,3,0,60,0,0
47342,-133.333333333333,4,3,0,60,0,0
47673,-100,4,3,0,60,0,0
48775,-133.333333333333,4,3,0,60,0,0
48996,-100,4,3,0,60,0,0
49217,-66.6666666666667,4,3,0,60,0,0
49437,-100,4,3,0,60,0,0
50540,-133.333333333333,4,3,0,60,0,0
50981,-100,4,3,0,60,0,0
51423,-133.333333333333,4,3,0,60,0,0
51864,-100,4,3,0,60,0,0
54070,-133.333333333333,4,3,0,60,0,0
54511,-100,4,3,0,60,0,0
54952,-133.333333333333,4,3,0,60,0,0
55393,-100,4,3,0,60,0,0
58923,-133.333333333333,4,3,0,60,0,0
59364,-200,4,3,0,60,0,0
59695,-100,4,3,0,60,0,0
60246,-133.333333333333,4,3,0,60,0,0
62011,-100,4,3,0,60,0,0
63334,-200,4,3,0,60,0,0
63775,-100,4,3,0,60,0,0
67305,-133.333333333333,4,3,0,60,0,0
68518,-100,4,3,0,60,0,0
72599,-133.333333333333,4,3,0,60,0,0
73040,-100,4,3,0,60,0,0
74364,-133.333333333333,4,3,0,60,0,0
74805,-100,4,3,0,60,0,0
75246,-133.333333333333,4,3,0,60,0,0
75687,-100,4,3,0,60,0,0
76128,-133.333333333333,4,3,0,60,0,0
76570,-100,4,3,0,60,0,0
78775,-133.333333333333,4,3,0,60,0,0
79217,-100,4,3,0,60,0,0
79658,-133.333333333333,4,3,0,60,0,0
80540,-100,4,3,0,60,0,0
81423,-133.333333333333,4,3,0,60,0,0
85393,-100,4,3,0,60,0,0
85834,-133.333333333333,4,3,0,60,0,0
86275,-100,4,3,0,60,0,0
86717,-133.333333333333,4,3,0,60,0,0
87158,-100,4,3,0,60,0,0
94217,-133.333333333333,4,3,0,60,0,0
99511,-100,4,3,0,60,0,0
99952,-133.333333333333,4,3,0,60,0,0
100393,-100,4,3,0,60,0,0
100834,-133.333333333333,4,3,0,60,0,0
101275,-100,4,3,0,60,0,0
102599,-133.333333333333,4,3,0,60,0,0
103923,-100,4,3,0,60,0,0
105246,-133.333333333333,4,3,0,60,0,0
106790,-100,4,3,0,60,0,0
107452,-133.333333333333,4,3,0,60,0,0
107673,-100,4,3,0,60,0,0
107893,-133.333333333333,4,3,0,60,0,0
108775,-100,4,3,0,60,0,0
108996,-66.6666666666667,4,3,0,60,0,0
109217,-133.333333333333,4,3,0,60,0,0
109437,-100,4,3,0,60,0,0
109658,-133.333333333333,4,3,0,60,0,0
110320,-100,4,3,0,60,0,0
110540,-133.333333333333,4,3,0,60,0,0
112305,-100,4,3,0,60,0,0
114952,-133.333333333333,4,3,0,60,0,0
115834,-100,4,3,0,60,0,0
116717,-133.333333333333,4,3,0,60,0,0
119511,-133.333333333333,4,3,0,5,0,0
119584,-133.333333333333,4,3,0,60,0,0
119731,-133.333333333333,4,3,0,5,0,0
119805,-133.333333333333,4,3,0,60,0,0
122893,-100,4,3,0,60,0,0
123775,-133.333333333333,4,3,0,60,0,0
124437,-100,4,3,0,60,0,0
124658,-133.333333333333,4,3,0,60,0,0
125320,-100,4,3,0,60,0,0
129070,-133.333333333333,4,3,0,60,0,0
129952,-100,4,3,0,60,0,0
132820,-100,4,3,0,5,0,0
132930,-100,4,3,0,60,0,0
133150,-100,4,3,0,5,0,0
133150,-100,4,3,0,5,0,0
133261,-100,4,3,0,60,0,0
133628,-100,4,3,0,5,0,0
133702,-100,4,3,0,60,0,0
133849,-100,4,3,0,5,0,0
133923,-100,4,3,0,60,0,0
136128,-133.333333333333,4,3,0,60,0,0
138555,-100,4,3,0,60,0,0
138775,-133.333333333333,4,3,0,60,0,0
139658,-100,4,3,0,60,0,0
143187,-133.333333333333,4,3,0,60,0,0
144731,-121.951219512195,4,3,0,60,0,0
144952,-66.6666666666667,4,3,0,80,0,1
145834,-833.333333333333,4,3,0,80,0,0
146606,-66.6666666666667,4,3,0,80,0,1
146992,-66.6666666666667,4,3,0,5,0,1
147048,-66.6666666666667,4,3,0,80,0,1
147103,-66.6666666666667,4,3,0,5,0,1
147158,-66.6666666666667,4,3,0,80,0,1
147213,-66.6666666666667,4,3,0,5,0,1
147268,-66.6666666666667,4,3,0,80,0,1
147323,-66.6666666666667,4,3,0,5,0,1
147378,-66.6666666666667,4,3,0,80,0,1
147434,-66.6666666666667,4,3,0,5,0,1
147489,-66.6666666666667,4,3,0,80,0,1
147544,-66.6666666666667,4,3,0,5,0,1
147599,-66.6666666666667,4,3,0,80,0,1
147764,-66.6666666666667,4,3,0,5,0,1
147820,-66.6666666666667,4,3,0,80,0,1
147875,-66.6666666666667,4,3,0,5,0,1
147930,-66.6666666666667,4,3,0,80,0,1
147985,-66.6666666666667,4,3,0,5,0,1
148040,-66.6666666666667,4,3,0,80,0,1
148095,-66.6666666666667,4,3,0,5,0,1
148150,-66.6666666666667,4,3,0,80,0,1
148206,-66.6666666666667,4,3,0,5,0,1
148261,-66.6666666666667,4,3,0,80,0,1
148316,-66.6666666666667,4,3,0,5,0,1
148371,-66.6666666666667,4,3,0,80,0,1
148426,-66.6666666666667,4,3,0,5,0,1
148481,-100,4,3,0,80,0,1
148923,-66.6666666666667,4,3,0,80,0,1
149364,-100,4,3,0,80,0,1
150246,-200,4,3,0,80,0,0
151128,-133.333333333333,4,3,0,80,0,0
152011,-66.6666666666667,4,3,0,80,0,0
152893,-66.6666666666667,4,3,0,80,0,1
156423,-50,4,3,0,80,0,1
156864,-66.6666666666667,4,3,0,80,0,1
158187,-769.230769230769,4,3,0,80,0,0
159070,-100,4,3,0,80,0,1
159180,-100,4,3,0,60,0,0
187305,-133.333333333333,4,3,0,60,0,0
188187,-100,4,3,0,60,0,0
189070,-133.333333333333,4,3,0,60,0,0
189070,-133.333333333333,4,3,0,60,0,0
189952,-100,4,3,0,60,0,0
190834,-133.333333333333,4,3,0,60,0,0
191717,-100,4,3,0,60,0,0
192599,-133.333333333333,4,3,0,60,0,0
193481,-100,4,3,0,60,0,0
194364,-133.333333333333,4,3,0,60,0,0
195246,-100,4,3,0,60,0,0
196128,-133.333333333333,4,3,0,60,0,0
197011,-100,4,3,0,60,0,0
214217,-133.333333333333,4,3,0,60,0,0
244217,-100,4,3,0,60,0,0
244658,-133.333333333333,4,3,0,60,0,0
245099,-100,4,3,0,60,0,0
246570,-100,4,3,0,5,0,0
246643,-100,4,3,0,60,0,0
246790,-100,4,3,0,5,0,0
246864,-100,4,3,0,60,0,0
248187,-133.333333333333,4,3,0,60,0,0
248628,-100,4,3,0,60,0,0
249511,-133.333333333333,4,3,0,60,0,0
249952,-100,4,3,0,60,0,0
250834,-133.333333333333,4,3,0,60,0,0
251275,-100,4,3,0,60,0,0
251717,-133.333333333333,4,3,0,60,0,0
253481,-100,4,3,0,60,0,0
253628,-100,4,3,0,5,0,0
253702,-100,4,3,0,60,0,0
253849,-100,4,3,0,5,0,0
253923,-100,4,3,0,60,0,0
254364,-133.333333333333,4,3,0,60,0,0
254805,-100,4,3,0,60,0,0
257893,-133.333333333333,4,3,0,60,0,0
258334,-100,4,3,0,60,0,0
260687,-100,4,3,0,5,0,0
260761,-100,4,3,0,60,0,0
260908,-100,4,3,0,5,0,0
260981,-100,4,3,0,60,0,0
263628,-133.333333333333,4,3,0,60,0,0
264070,-100,4,3,0,60,0,0
265834,-133.333333333333,4,3,0,60,0,0
266275,-100,4,3,0,60,0,0
267158,-133.333333333333,4,3,0,60,0,0
267599,-100,4,3,0,60,0,0
268481,-133.333333333333,4,3,0,60,0,0
268923,-100,4,3,0,60,0,0
269364,-133.333333333333,4,3,0,60,0,0
272011,-400,4,3,0,60,0,0
277967,-100,4,3,0,60,0,0
284364,-200,4,3,0,60,0,0
285025,-100,4,3,0,60,0,0
298481,-200,4,3,0,60,0,0
307305,-66.6666666666667,4,3,0,60,0,0
313923,-133.333333333333,4,3,0,60,0,0
314253,-133.333333333333,4,3,0,5,0,0
314364,-133.333333333333,4,3,0,60,0,0
317452,-100,4,3,0,60,0,0
332011,-133.333333333333,4,3,0,60,0,0
333555,-100,4,3,0,60,0,0
342599,-133.333333333333,4,3,0,60,0,0
343481,-100,4,3,0,60,0,0
344364,-133.333333333333,4,3,0,60,0,0
345246,-100,4,3,0,60,0,0
346128,-133.333333333333,4,3,0,60,0,0
347011,-100,4,3,0,60,0,0
347893,-133.333333333333,4,3,0,60,0,0
348775,-100,4,3,0,60,0,0
349658,-133.333333333333,4,3,0,60,0,0
350540,-100,4,3,0,60,0,0
351423,-133.333333333333,4,3,0,60,0,0
352305,-100,4,3,0,60,0,0
369511,-133.333333333333,4,3,0,60,0,0
369952,-200,4,3,0,60,0,0
370393,-400,4,3,0,60,0,0
374143,-100,4,3,0,60,0,0
377011,-66.6666666666667,4,3,0,60,0,0
377231,-80,4,3,0,60,0,0
377452,-100,4,3,0,60,0,0
377673,-80,4,3,0,60,0,0

[HitObjects]
113,194,31128,6,0,P|108:151|181:191,1,175
181,209,32011,5,0,0:1:0:0:
256,192,32121,12,0,34658,0:0:0:0:
74,69,35099,6,0,P|126:49|224:91,1,150,0|0,0:0|0:0,0:0:0:0:
226,98,35540,1,0,0:3:0:0:
326,102,35761,1,0,3:0:0:0:
326,102,35871,1,0,3:0:0:0:
326,102,35981,2,0,L|320:215,1,100,0|0,0:2|0:0,0:0:0:0:
283,295,36423,1,0,0:0:0:0:
381,313,36643,1,0,0:0:0:0:
381,313,36753,1,0,0:0:0:0:
381,313,36864,1,0,0:2:0:0:
320,201,37084,1,0,0:0:0:0:
275,310,37305,6,0,P|243:315|169:298,1,100
115,258,37636,1,0,0:0:0:0:
115,258,37746,2,0,L|120:360,1,100
41,196,38187,2,0,L|34:261,1,50
174,203,38408,2,0,L|169:154,1,50
73,69,38628,2,0,L|67:130,1,37.5000014305115
158,75,38849,1,0,0:0:0:0:
163,57,38959,1,0,0:0:0:0:
171,33,39070,6,0,L|285:31,1,100
439,121,39511,1,0,0:0:0:0:
346,100,39731,1,0,0:0:0:0:
346,100,39842,1,0,0:0:0:0:
346,100,39952,2,0,P|351:156|376:190,1,100
310,227,40283,2,0,P|353:263|393:271,1,75.0000028610231
438,237,40614,2,0,L|483:269,1,50
424,332,40834,5,0,0:0:0:0:
275,299,41055,1,0,0:0:0:0:
275,299,41165,1,0,0:0:0:0:
275,299,41275,2,0,P|238:255|232:214,1,100
171,161,41606,1,0,0:0:0:0:
171,161,41717,2,0,P|158:196|159:234,1,75.0000028610231
310,227,42158,1,0,0:0:0:0:
182,319,42378,1,0,0:0:0:0:
182,319,42489,1,0,0:0:0:0:
182,319,42599,6,0,P|125:333|61:322,1,100
68,222,43040,1,0,0:0:0:0:
76,194,43150,1,0,0:0:0:0:
81,169,43261,1,0,0:0:0:0:
86,144,43371,1,0,0:0:0:0:
116,104,43481,2,0,P|128:44|116:-2,1,100
94,7,43812,1,0,0:0:0:0:
94,7,43923,2,0,L|21:14,3,50
201,56,44364,6,0,P|196:105|173:157,1,100
203,34,44695,1,0,0:0:0:0:
203,34,44805,2,0,L|318:28,1,100
428,184,45246,2,0,P|421:153|389:121,1,50
350,184,45467,2,0,P|323:167|277:167,1,50
298,238,45687,1,0,0:0:0:0:
320,249,45798,1,0,0:0:0:0:
348,290,45908,1,0,0:0:0:0:
302,270,46018,1,0,0:0:0:0:
256,250,46128,6,0,P|199:242|147:249,1,100
109,304,46459,1,0,0:0:0:0:
109,304,46570,2,0,P|81:249|89:218,1,50
25,145,46790,1,0,0:0:0:0:
25,145,46900,1,0,0:0:0:0:
25,145,47011,2,0,L|42:20,1,100
99,170,47342,2,0,L|113:69,1,75.0000028610231
191,71,47673,2,0,L|181:142,1,50
173,194,47893,5,0,0:0:0:0:
290,62,48114,1,0,0:0:0:0:
290,62,48224,1,0,0:0:0:0:
290,62,48334,2,0,L|415:79,1,100
265,136,48665,1,0,0:0:0:0:
265,136,48775,2,0,L|335:146,1,37.5000014305115
351,149,48996,2,0,L|301:140,1,50
446,246,49217,2,0,B|466:232|476:202|476:202|486:316,1,150.000005722046
487,328,49548,1,0,0:0:0:0:
488,349,49658,6,0,P|416:339|350:358,1,100
375,348,49989,1,0,0:0:0:0:
375,348,50099,2,0,P|342:357|312:353,1,50
256,259,50320,2,0,P|223:250|193:254,1,50
97,349,50540,2,0,P|126:288|119:217,1,112.500004291535
112,222,50981,2,0,P|37:217|-19:242,1,100,0|0,3:0|0:0,0:0:0:0:
193,22,51423,6,0,P|164:83|171:154,1,112.500004291535
178,149,51864,2,0,P|252:153|309:128,1,100,0|0,3:0|0:0,0:0:0:0:
357,94,52195,1,0,0:0:0:0:
343,111,52305,2,0,P|376:141|401:145,1,50
366,215,52525,2,0,P|410:212|431:198,1,50
490,109,52746,2,0,P|460:142|456:167,1,50
474,381,52967,1,0,0:0:0:0:
461,332,53077,1,0,0:0:0:0:
449,283,53187,5,0,0:0:0:0:
411,64,53408,1,0,0:0:0:0:
411,64,53518,1,0,0:0:0:0:
411,64,53628,1,0,0:0:0:0:
185,132,53849,1,0,0:0:0:0:
133,66,54070,2,0,P|183:47|251:80,1,112.500004291535
255,81,54511,1,0,0:0:0:0:
356,276,54731,1,0,0:0:0:0:
408,210,54952,6,0,P|358:191|290:224,1,112.500004291535
283,221,55393,1,0,0:0:0:0:
92,325,55614,1,0,0:0:0:0:
92,325,55724,1,0,0:0:0:0:
92,325,55834,2,0,P|122:292|126:267,1,50
196,302,56055,2,0,P|193:257|179:236,1,50
88,179,56275,2,0,P|121:209|146:213,1,50
283,221,56496,1,0,0:0:0:0:
274,197,56606,1,0,0:0:0:0:
259,149,56717,6,0,P|247:71|286:-6,1,150
250,15,57158,2,0,P|212:23|147:8,1,100
326,71,57599,1,0,0:0:0:0:
406,30,57820,1,0,0:0:0:0:
406,30,57930,1,0,0:0:0:0:
406,30,58040,2,0,P|444:22|509:37,1,100
451,287,58481,6,0,L|431:135,1,150
361,168,58923,2,0,L|379:306,1,112.500004291535
301,273,59364,2,0,L|294:227,1,25
293,223,59584,2,0,L|286:177,1,25
451,287,59805,1,0,0:0:0:0:
375,279,59915,1,0,0:0:0:0:
301,273,60025,1,0,0:0:0:0:
225,264,60136,1,0,0:0:0:0:
160,302,60246,6,0,L|29:282,1,112.500004291535
30,282,60687,1,0,0:0:0:0:
112,84,60908,2,0,L|121:147,1,37.5000014305115
143,166,61128,6,0,L|163:35,1,112.500004291535
164,36,61570,1,0,0:0:0:0:
35,142,61790,1,0,0:0:0:0:
43,166,61900,1,0,0:0:0:0:
27,197,62011,5,0,0:0:0:0:
75,207,62121,1,0,0:0:0:0:
110,241,62231,1,0,0:0:0:0:
124,289,62342,1,0,0:0:0:0:
116,323,62452,5,0,0:0:0:0:
158,298,62562,1,0,0:0:0:0:
208,294,62673,1,0,0:0:0:0:
254,313,62783,1,0,0:0:0:0:
290,348,62893,2,0,L|299:286,1,50
372,199,63114,2,0,L|363:261,1,50
442,129,63334,6,0,L|451:67,1,50
368,20,63665,1,0,0:0:0:0:
373,69,63775,1,0,0:0:0:0:
324,61,63886,1,0,0:0:0:0:
275,52,63996,1,0,0:0:0:0:
225,44,64106,1,0,0:0:0:0:
177,62,64217,5,0,0:0:0:0:
144,99,64327,1,0,0:0:0:0:
132,147,64437,1,0,0:0:0:0:
144,196,64548,1,0,0:0:0:0:
170,238,64658,2,0,P|185:263|211:284,2,50
71,266,64989,1,0,0:0:0:0:
71,266,65099,2,0,L|54:208,1,50
282,275,65320,2,0,L|233:277,1,50
356,228,65540,6,0,L|405:226,1,50
460,156,65761,1,0,0:0:0:0:
460,156,65871,1,0,0:0:0:0:
460,156,65981,2,0,L|464:49,1,100
371,28,66312,1,0,0:0:0:0:
371,28,66423,2,0,P|352:50|334:84,1,50
283,143,66643,2,0,L|223:135,1,50
162,37,66864,2,0,L|222:45,1,50
89,118,67084,1,0,0:0:0:0:
72,99,67195,1,0,0:0:0:0:
47,71,67305,6,0,L|49:196,1,112.500004291535
50,202,67746,1,0,0:0:0:0:
227,268,67967,2,0,L|162:279,1,37.5000014305115
119,295,68187,2,0,L|257:304,1,112.500004291535
250,303,68628,1,0,0:0:0:0:
268,304,68739,1,0,0:0:0:0:
292,305,68849,2,0,L|345:309,1,50
468,255,69070,6,0,L|462:202,1,50
473,366,69290,1,0,0:0:0:0:
473,366,69400,1,0,0:0:0:0:
473,366,69511,2,0,P|487:294|478:255,1,100
468,255,69842,1,0,0:0:0:0:
468,255,69952,2,0,L|462:202,1,50
410,65,70173,1,0,0:0:0:0:
410,65,70283,2,0,L|404:118,1,50
357,204,70503,1,0,0:0:0:0:
332,197,70614,1,0,0:0:0:0:
308,189,70724,1,0,0:0:0:0:
284,180,70834,6,0,L|170:141,1,100
166,137,71165,1,0,0:0:0:0:
142,128,71275,1,0,0:0:0:0:
11,178,71496,2,0,L|24:110,1,50
7,198,71717,1,0,0:0:0:0:
113,212,71937,2,0,L|103:261,1,50
72,289,72158,1,0,0:0:0:0:
121,290,72268,1,0,0:0:0:0:
170,291,72378,1,0,0:0:0:0:
220,292,72489,1,0,0:0:0:0:
258,292,72599,6,0,B|298:322|353:296|353:296|355:265|309:235,1,150.000005722046
258,292,73261,1,0,0:0:0:0:
258,292,73371,1,0,0:0:0:0:
258,292,73481,2,0,L|254:357,1,50
243,208,73702,2,0,L|210:171,1,50
91,120,73923,2,0,L|156:124,1,50
11,141,74143,1,0,0:0:0:0:
11,141,74253,1,0,0:0:0:0:
11,141,74364,6,0,L|26:27,1,112.500004291535
70,7,74805,2,0,L|56:114,1,100
36,326,75246,6,0,P|83:317|141:352,1,112.500004291535
160,363,75687,2,0,P|211:369|270:343,1,100
468,216,76128,6,0,P|417:213|352:253,1,112.500004291535
363,240,76570,2,0,P|395:189|377:97,1,150
304,38,77011,1,0,0:0:0:0:
96,122,77231,1,0,0:0:0:0:
169,163,77452,2,0,P|178:103|135:48,1,100
97,203,77783,1,0,0:0:0:0:
97,203,77893,6,0,P|88:263|131:318,1,100
172,328,78224,1,0,0:0:0:0:
172,328,78334,2,0,L|288:337,1,100
374,136,78775,2,0,P|371:188|411:261,1,112.500004291535
414,257,79217,2,0,P|362:232|291:251,1,100
99,87,79658,6,0,P|129:56|199:23,1,112.500004291535
99,87,80099,2,0,P|130:117|163:187,1,112.500004291535
49,203,80540,1,0,0:0:0:0:
252,255,80761,1,0,0:0:0:0:
142,284,80981,1,0,0:0:0:0:
225,349,81202,1,0,0:0:0:0:
225,349,81312,1,0,0:0:0:0:
225,349,81423,6,0,L|367:360,1,112.500004291535
355,362,81864,1,0,0:0:0:0:
455,128,82084,1,0,0:0:0:0:
432,238,82305,2,0,L|458:110,1,112.500004291535
459,109,82746,1,0,0:0:0:0:
308,178,82967,1,0,0:0:0:0:
285,68,83187,6,0,L|311:196,1,112.500004291535
432,238,83628,2,0,L|458:110,1,112.500004291535
459,109,84070,1,0,0:0:0:0:
307,178,84290,1,0,0:0:0:0:
122,191,84511,2,0,L|181:236,1,75.0000028610231
342,370,84842,1,0,0:0:0:0:
342,370,84952,6,0,P|346:303|324:265,1,112.500004291535
247,281,85393,6,0,P|240:336|262:384,1,100
488,177,85834,2,0,L|360:187,1,112.500004291535
302,168,86275,2,0,L|407:178,1,100
202,108,86717,6,0,L|73:119,1,112.500004291535
39,61,87158,2,0,P|15:109|38:174,1,100
86,193,87489,1,0,0:0:0:0:
86,193,87599,1,0,0:0:0:0:
202,108,87820,1,0,0:0:0:0:
39,61,88040,1,0,0:0:0:0:
10,236,88261,1,0,0:0:0:0:
10,236,88371,1,0,0:0:0:0:
10,236,88481,6,0,L|14:354,1,100
190,237,88812,1,0,0:0:0:0:
198,262,88923,2,0,P|143:286|98:276,1,100
241,325,89364,2,0,L|391:336,1,150
424,268,89805,2,0,P|437:319|449:269,1,100
369,95,90246,6,0,P|359:150|405:214,1,100
443,137,90577,1,0,0:0:0:0:
369,95,90687,2,0,L|244:102,1,100
122,89,91018,1,0,0:0:0:0:
92,72,91128,2,0,L|191:84,2,100
87,261,91790,1,0,0:0:0:0:
101,237,91900,1,0,0:0:0:0:
61,172,92011,5,0,0:0:0:0:
126,339,92231,1,0,0:0:0:0:
126,339,92342,1,0,0:0:0:0:
126,339,92452,2,0,P|181:349|256:341,1,100
377,323,92893,2,0,L|232:243,1,150
223,238,93334,1,0,0:0:0:0:
437,272,93555,1,0,0:0:0:0:
437,272,93775,6,0,L|292:192,1,150
490,217,94217,2,0,L|364:145,1,112.500004291535
286,63,94658,2,0,L|333:62,1,37.5000014305115
304,41,94878,2,0,L|351:40,1,37.5000014305115
207,35,95099,2,0,L|215:124,1,75.0000028610231
86,186,95430,1,0,0:0:0:0:
86,186,95540,6,0,P|150:210|170:258,1,112.500004291535
249,229,95981,1,0,0:0:0:0:
94,261,96202,2,0,L|86:307,1,37.5000014305115
201,321,96423,2,0,P|239:288|237:201,1,112.500004291535
129,346,96864,2,0,L|228:363,1,75.0000028610231
361,222,97305,6,0,L|237:229,1,112.500004291535
90,365,97746,2,0,L|214:358,1,112.500004291535
221,358,98187,1,0,0:0:0:0:
418,261,98408,2,0,L|426:307,1,37.5000014305115
457,339,98628,2,0,L|442:224,1,112.500004291535
400,40,99070,6,0,L|385:155,1,112.500004291535
376,201,99511,2,0,L|417:102,1,100
246,44,99952,6,0,P|189:44|140:75,1,112.500004291535
138,122,100393,2,0,P|152:42|142:20,1,100
56,315,100834,6,0,P|121:329|186:317,1,112.500004291535
184,306,101275,2,0,P|233:357|269:363,1,100
284,264,101606,1,0,0:0:0:0:
263,279,101717,1,0,0:0:0:0:
112,243,101937,1,0,0:0:0:0:
431,305,102158,1,0,0:0:0:0:
353,334,102378,1,0,0:0:0:0:
353,334,102489,1,0,0:0:0:0:
353,334,102599,6,0,L|369:187,1,112.500004291535
367,203,103040,1,0,0:0:0:0:
268,47,103261,1,0,0:0:0:0:
273,64,103371,1,0,0:0:0:0:
279,81,103481,2,0,P|271:105|253:131,3,37.5000014305115
349,32,103923,2,0,P|360:54|366:95,3,50
359,18,104364,6,0,P|397:24|423:20,1,50
481,83,104584,2,0,L|486:147,1,50
421,260,104805,2,0,L|484:244,1,50
366,332,105025,2,0,L|303:348,1,50
159,293,105246,2,0,P|213:286|255:285,1,75.0000028610231
251,306,105577,2,0,P|197:313|155:314,1,75.0000028610231
80,267,105908,1,0,0:0:0:0:
98,269,106018,1,0,0:0:0:0:
116,264,106128,5,0,0:0:0:0:
103,228,106239,1,0,0:0:0:0:
103,191,106349,1,0,0:0:0:0:
116,156,106459,1,0,0:0:0:0:
133,133,106570,2,0,P|127:98|122:83,1,37.5000014305115
77,41,106790,2,0,P|105:61|128:69,1,50
223,89,107011,5,0,0:0:0:0:
270,104,107121,1,0,0:0:0:0:
320,103,107231,1,0,0:0:0:0:
367,87,107342,1,0,0:0:0:0:
409,60,107452,2,0,P|370:37|346:37,1,37.5000014305115
433,142,107673,2,0,P|472:119|485:96,1,50
373,202,107893,6,0,L|380:335,1,112.500004291535
382,332,108334,1,0,0:0:0:0:
191,226,108555,1,0,0:0:0:0:
191,226,108665,1,0,0:0:0:0:
191,226,108775,6,0,P|190:196|202:165,1,50
345,210,108996,6,0,P|307:207|271:216,1,75.0000028610231
244,291,109217,6,0,P|249:342|248:355,1,37.5000014305115
270,133,109437,6,0,L|263:57,1,50
51,305,109658,6,0,L|171:303,1,112.500004291535
182,301,110099,1,0,0:0:0:0:
423,316,110320,2,0,L|334:328,1,50
299,335,110540,2,0,L|419:333,1,112.500004291535
491,369,110981,1,0,0:0:0:0:
406,225,111202,1,0,0:0:0:0:
406,225,111312,1,0,0:0:0:0:
406,225,111423,6,0,L|459:198,1,37.5000014305115
385,109,111643,2,0,L|396:73,1,37.5000014305115
289,42,111864,2,0,L|262:-11,1,37.5000014305115
252,222,112084,1,0,0:0:0:0:
261,238,112195,1,0,0:0:0:0:
319,188,112305,2,0,P|274:149|204:162,1,100
212,137,112636,2,0,L|325:120,1,100
391,219,112967,2,0,P|396:188|390:149,1,50
271,251,113187,6,0,L|280:354,1,100
299,365,113518,2,0,L|291:296,1,50
130,100,113849,2,0,L|138:169,1,50
104,188,114070,1,0,0:0:0:0:
152,175,114180,1,0,0:0:0:0:
201,183,114290,1,0,0:0:0:0:
243,209,114400,1,0,0:0:0:0:
271,251,114511,1,0,0:0:0:0:
171,338,114731,2,0,L|163:269,1,50
158,79,114952,6,0,B|198:93|236:77|236:77|290:60|330:88,1,150.000005722046
158,79,115614,1,0,0:0:0:0:
158,79,115724,1,0,0:0:0:0:
158,79,115834,2,0,L|113:37,1,50
106,181,116055,2,0,L|45:183,1,50
117,323,116275,1,0,0:0:0:0:
160,298,116386,1,0,0:0:0:0:
209,289,116496,1,0,0:0:0:0:
258,296,116606,1,0,0:0:0:0:
312,359,116717,6,0,P|386:364|456:344,2,112.500004291535
207,213,117599,2,0,P|133:208|63:228,2,112.500004291535
244,219,118481,5,0,0:0:0:0:
65,298,118812,1,0,0:0:0:0:
53,313,118923,1,0,0:0:0:0:
95,215,119143,1,0,0:0:0:0:
359,290,119364,2,0,L|377:226,1,50.0000019073487
355,203,119584,2,0,L|354:269,1,50.0000019073487
437,185,119805,2,0,P|414:143|386:128,1,75.0000028610231
259,53,120136,1,0,0:0:0:0:
243,42,120246,6,0,L|360:36,2,112.500004291535
171,196,121128,2,0,L|54:202,2,112.500004291535
243,342,122011,2,0,L|360:348,2,112.500004291535
224,344,122783,1,0,0:0:0:0:
224,344,122893,2,0,L|157:339,1,50
30,258,123114,2,0,L|97:263,1,50
177,164,123334,2,0,L|172:231,1,50
99,334,123555,2,0,L|95:383,1,50
12,369,123775,6,0,L|35:230,1,112.500004291535
34,239,124217,1,0,0:0:0:0:
174,71,124437,2,0,L|185:128,1,50
168,152,124658,2,0,L|209:40,1,112.500004291535
214,29,125099,1,0,0:0:0:0:
408,78,125320,1,0,0:0:0:0:
416,101,125430,1,0,0:0:0:0:
408,124,125540,5,0,0:0:0:0:
359,137,125650,1,0,0:0:0:0:
317,162,125761,1,0,0:0:0:0:
283,199,125871,1,0,0:0:0:0:
283,249,125981,5,0,0:0:0:0:
249,212,126092,1,0,0:0:0:0:
206,186,126202,1,0,0:0:0:0:
158,173,126312,1,0,0:0:0:0:
109,175,126423,2,0,L|48:183,1,50
21,302,126643,1,0,0:0:0:0:
21,302,126753,2,0,L|13:241,1,50
134,304,126974,1,0,0:0:0:0:
148,317,127084,1,0,0:0:0:0:
186,329,127195,1,0,0:0:0:0:
237,309,127305,6,0,P|286:310|305:314,3,50
328,237,127746,2,0,P|361:272|372:288,1,50
443,300,127967,2,0,P|446:275|445:251,1,50
275,75,128187,6,0,P|226:74|207:70,3,50
184,147,128628,2,0,P|151:112|140:96,1,50
69,84,128849,2,0,P|66:109|67:133,1,50
93,345,129070,6,0,P|139:302|136:225,1,112.500004291535
139,237,129511,1,0,0:0:0:0:
235,197,129731,1,0,0:0:0:0:
235,197,129842,1,0,0:0:0:0:
235,197,129952,2,0,P|293:194|304:186,1,50
321,263,130173,2,0,P|359:219|362:206,1,50
427,253,130393,2,0,P|424:194|416:183,1,50
495,170,130614,2,0,P|451:131|438:128,1,50
229,193,130834,5,0,0:0:0:0:
321,338,131055,2,0,L|321:278,1,50
321,263,131275,1,0,0:0:0:0:
81,103,131496,1,0,0:0:0:0:
251,166,131717,1,0,0:0:0:0:
134,282,131937,2,0,L|134:222,1,50
134,207,132158,1,0,0:0:0:0:
389,73,132378,1,0,0:0:0:0:
389,73,132599,6,0,P|310:66|246:78,1,100
231,119,132930,2,0,P|237:49|191:-2,1,100
151,78,133261,1,0,0:0:0:0:
445,72,133481,2,0,L|441:157,1,66.6666666666667
432,152,133702,2,0,L|428:237,1,66.6666666666667
424,234,133923,1,0,0:0:0:0:
167,309,134143,1,0,0:0:0:0:
167,309,134253,1,0,0:0:0:0:
167,309,134364,6,0,P|230:308|273:313,1,100
286,327,134695,2,0,L|305:259,1,50
37,293,135025,1,0,0:0:0:0:
98,347,135246,2,0,P|117:304|98:235,1,100
52,101,135577,1,0,0:0:0:0:
64,122,135687,2,0,L|79:11,1,100
151,173,136128,6,0,L|154:57,1,112.500004291535
240,179,136570,2,0,L|234:98,1,75.0000028610231
236,83,136900,1,0,0:0:0:0:
238,64,137011,1,0,0:0:0:0:
396,140,137231,1,0,0:0:0:0:
349,32,137452,1,0,0:0:0:0:
487,183,137673,1,0,0:0:0:0:
487,183,137783,1,0,0:0:0:0:
487,183,137893,6,0,L|486:312,1,112.500004291535
488,314,138334,1,0,0:0:0:0:
297,294,138555,2,0,L|378:310,1,50
380,291,138775,2,0,L|253:312,1,112.500004291535
250,314,139217,1,0,0:0:0:0:
30,176,139437,1,0,0:0:0:0:
30,176,139548,1,0,0:0:0:0:
30,176,139658,6,0,L|46:113,3,50
107,20,140099,2,0,L|163:-12,3,50
130,108,140540,2,0,L|206:117,1,50
272,69,140761,1,0,0:0:0:0:
272,69,140871,2,0,L|263:145,1,50
217,199,141092,1,0,0:0:0:0:
217,199,141202,2,0,L|293:208,1,50
459,256,141423,6,0,L|358:315,1,100
302,278,141753,2,0,L|403:337,1,100
456,355,142084,2,0,L|457:280,1,50
145,293,142305,2,0,L|39:273,1,100
215,329,142636,1,0,0:0:0:0:
221,352,142746,1,0,0:0:0:0:
350,132,142967,1,0,0:0:0:0:
435,130,143187,6,0,P|412:73|271:101,1,225.000008583069
270,110,143959,1,0,0:0:0:0:
270,110,144070,1,0,0:0:0:0:
456,207,144290,1,0,0:0:0:0:
350,132,144511,1,0,0:0:0:0:
377,368,144731,6,0,L|369:304,1,41.0000006256104,0|0,1:0|1:0,0:0:0:0:
440,303,144952,6,0,B|412:233|314:240|299:316|299:316|258:334|211:297|211:297|161:267|98:304|98:304|96:258|166:234,1,450.000017166138,4|0,0:0|0:0,0:0:0:0:
371,327,145834,6,0,L|377:371,1,42.0000010253907,4|0,1:2|0:0,0:0:0:0:
440,303,146717,6,0,L|430:221,1,75.0000028610231,4|2,0:0|0:0,0:0:0:0:
223,60,146937,2,0,L|262:73,1,37.5000014305115,2|0,0:0|0:0,0:0:0:0:
189,73,147048,2,0,L|230:75,1,37.5000014305115,2|0,0:0|0:0,0:0:0:0:
161,94,147158,2,0,L|201:85,1,37.5000014305115,6|0,0:0|0:0,0:0:0:0:
139,121,147268,2,0,L|176:103,1,37.5000014305115,2|0,0:0|0:0,0:0:0:0:
125,154,147378,2,0,L|155:127,1,37.5000014305115,2|0,0:0|0:0,0:0:0:0:
119,189,147489,2,0,L|142:155,1,37.5000014305115,2|0,0:0|0:0,0:0:0:0:
124,224,147599,1,0,1:0:0:0:
255,286,147709,6,0,L|303:298,1,37.5000014305115,2|0,0:0|0:0,0:0:0:0:
232,294,147820,2,0,L|275:318,1,37.5000014305115,2|0,0:0|0:0,0:0:0:0:
209,296,147930,2,0,L|244:330,1,37.5000014305115,6|0,0:0|0:0,0:0:0:0:
186,292,148040,2,0,L|211:334,1,37.5000014305115,2|0,0:0|0:0,0:0:0:0:
164,282,148150,2,0,L|177:329,1,37.5000014305115,2|0,0:0|0:0,0:0:0:0:
146,267,148261,2,0,L|146:316,1,37.5000014305115,6|0,0:0|0:0,0:0:0:0:
132,247,148371,2,0,L|120:294,1,37.5000014305115,2|0,0:0|0:0,0:0:0:0:
124,224,148481,6,0,B|69:215|69:215|21:225|21:225|68:197,1,150,4|0,0:0|0:0,0:0:0:0:
315,333,148923,2,2,B|393:325|377:225|324:208|296:233|296:233|314:270|363:255,1,225.000008583069,0|0,0:0|0:0,0:1:0:0:
402,34,149364,1,2,0:0:0:0:
337,72,149474,1,2,0:0:0:0:
329,136,149584,1,2,0:0:0:0:
367,176,149695,1,2,0:0:0:0:
411,169,149805,1,2,0:0:0:0:
422,141,149915,1,2,0:0:0:0:
409,121,150025,1,6,0:0:0:0:
404,120,150136,1,6,0:0:0:0:
431,355,150246,6,0,B|436:290|436:290|461:252|461:252|470:169,1,175,4|0,0:0|0:0,0:0:0:0:
431,355,151128,6,4,B|396:271|396:271|488:265|488:265|464:172,1,262.500010013581,4|0,0:0|0:0,0:0:0:0:
431,355,152011,6,0,B|338:291|338:291|283:323|283:323|224:324|224:324|214:319|214:319|185:306|185:306|129:306|129:306|119:312|119:312|42:313|42:313|82:237|82:237|128:249,1,525.000020027161,4|0,0:0|0:0,0:0:0:0:
134,235,152893,2,0,L|216:237,1,75.0000028610231,0|0,1:0|0:0,0:0:0:0:
411,262,153114,1,0,1:0:0:0:
344,219,153224,2,0,P|333:258|340:296,1,75.0000028610231,0|0,1:0|0:0,0:0:0:0:
282,176,153445,2,0,P|321:166|350:140,1,75.0000028610231,0|0,1:0|0:0,0:0:0:0:
285,96,153665,1,0,0:0:0:0:
487,186,153775,6,0,L|399:184,1,75.0000028610231,4|2,0:0|0:0,0:0:0:0:
128,125,153996,1,2,1:3:0:0:
117,114,154106,1,2,0:0:0:0:
128,103,154217,1,2,0:0:0:0:
138,114,154327,1,2,1:3:0:0:
113,123,154437,1,2,0:0:0:0:
113,107,154547,1,2,0:0:0:0:
99,126,154658,6,0,L|20:140,1,75.0000028610231,0|2,1:0|0:0,0:0:0:0:
77,291,154878,1,2,1:3:0:0:
153,258,154989,1,6,1:3:0:0:
227,247,155099,1,2,0:0:0:0:
286,253,155209,1,2,1:3:0:0:
330,262,155320,1,2,0:0:0:0:
356,275,155430,1,2,1:3:0:0:
425,322,155540,6,0,P|439:287|426:236,1,75.0000028610231,2|0,1:3|0:0,0:0:0:0:
261,131,155761,2,0,P|284:160|334:174,1,75.0000028610231,2|0,1:3|1:0,0:0:0:0:
444,57,155981,2,2,P|336:75|320:179,1,225.000008583069,0|0,1:0|1:0,0:0:0:0:
149,168,156423,6,0,P|153:226|190:154,1,200
165,87,156753,1,0,0:0:0:0:
248,296,156864,2,0,P|301:212|295:161,1,150.000005722046
58,76,157195,1,4,0:0:0:0:
42,110,157305,5,8,0:0:0:0:
42,117,157415,1,8,0:0:0:0:
42,124,157525,1,8,0:0:0:0:
42,131,157636,1,8,0:0:0:0:
42,138,157746,1,8,0:0:0:0:
42,145,157856,1,8,0:0:0:0:
42,152,157967,1,8,0:0:0:0:
42,159,158077,1,8,0:0:0:0:
42,182,158187,6,0,L|43:230,1,45.49999972229,2|0,2:0|2:0,0:0:0:0:
43,302,159070,5,4,0:1:0:0:
260,237,159290,1,0,0:0:0:0:
260,237,159400,1,0,0:0:0:0:
260,237,159511,2,0,P|254:279|243:306,1,50
172,225,159731,2,0,P|178:183|189:156,1,50
365,140,159952,2,0,P|279:150|253:132,1,100
106,96,160283,1,0,0:0:0:0:
106,96,160393,2,0,P|192:86|218:104,1,100
446,275,160834,6,0,L|432:383,1,100
446,109,161165,1,0,0:0:0:0:
446,109,161275,2,0,L|432:1,1,100
432,187,161606,1,0,0:0:0:0:
432,187,161717,2,0,L|347:180,1,50
194,84,161937,1,0,0:0:0:0:
172,96,162048,1,0,0:0:0:0:
157,116,162158,1,0,0:0:0:0:
204,130,162268,1,0,0:0:0:0:
252,121,162378,1,0,0:0:0:0:
290,89,162488,1,0,0:0:0:0:
308,43,162599,6,0,P|249:14|188:15,1,100
57,121,162930,2,0,L|168:115,1,100
252,121,163261,2,0,L|241:197,1,50
138,332,163481,2,0,L|131:221,1,100
134,207,163812,1,0,0:0:0:0:
134,207,163923,2,0,L|203:214,1,50
378,177,164143,2,0,L|309:170,1,50
93,45,164364,6,0,P|67:82|75:155,1,100
147,110,164695,1,0,0:0:0:0:
169,99,164805,1,0,0:0:0:0:
193,93,164915,1,0,0:0:0:0:
218,93,165025,1,0,0:0:0:0:
243,98,165136,1,0,0:0:0:0:
266,107,165246,2,0,L|262:36,1,50
378,177,165467,2,0,L|382:248,1,50
210,229,165687,2,0,L|205:157,1,50
321,298,165908,2,0,L|325:369,1,50
351,80,166128,5,0,0:0:0:0:
239,316,166349,1,0,0:0:0:0:
239,316,166459,1,0,0:0:0:0:
239,316,166570,1,0,0:0:0:0:
84,107,166790,1,0,0:0:0:0:
84,107,166900,1,0,0:0:0:0:
84,107,167011,2,0,P|47:141|48:220,1,100
169,261,167342,2,0,P|158:211|89:173,1,100
48,278,167673,2,0,P|81:266|101:245,1,50
168,110,167893,5,0,0:0:0:0:
428,277,168114,1,0,0:0:0:0:
428,277,168224,1,0,0:0:0:0:
428,277,168335,2,0,P|465:243|464:164,1,100
357,110,168665,1,0,0:0:0:0:
343,123,168775,2,0,P|353:172|422:210,1,100
464,106,169106,2,0,P|431:118|411:139,1,50
424,325,169327,2,0,P|430:290|421:262,1,50
255,257,169548,1,0,0:0:0:0:
255,257,169658,6,0,L|319:258,1,50
173,302,169878,1,0,0:0:0:0:
173,302,169989,1,0,0:0:0:0:
173,302,170099,2,0,L|174:238,1,50
297,337,170320,2,0,L|247:336,1,50
82,182,170540,2,0,L|131:182,1,50
213,109,170761,1,0,0:0:0:0:
213,109,170871,2,0,L|212:158,1,50
198,240,171092,1,0,0:0:0:0:
198,240,171202,2,0,L|247:240,1,50
395,169,171423,6,0,L|287:168,1,100
75,126,171753,1,0,0:0:0:0:
75,126,171864,2,0,P|136:107|175:57,1,100
179,65,172195,1,0,0:0:0:0:
195,45,172305,2,0,L|268:41,1,50
273,155,172525,2,0,L|200:159,1,50
50,54,172746,5,0,0:0:0:0:
12,85,172856,1,0,0:0:0:0:
1,133,172966,1,0,0:0:0:0:
21,177,173076,1,0,0:0:0:0:
64,200,173187,6,0,L|129:229,1,50
239,300,173408,1,0,0:0:0:0:
248,276,173518,1,0,0:0:0:0:
250,252,173628,1,0,0:0:0:0:
110,220,173849,1,0,0:0:0:0:
101,244,173959,1,0,0:0:0:0:
99,268,174070,2,0,L|155:275,1,50
288,306,174290,2,0,L|232:299,1,50
193,169,174511,2,0,L|191:95,1,50
330,184,174731,2,0,L|332:258,1,50
444,319,174952,5,0,0:0:0:0:
444,319,175062,1,0,0:0:0:0:
466,306,175173,1,0,0:0:0:0:
466,306,175283,1,0,0:0:0:0:
482,286,175393,2,0,P|489:208|477:171,1,100
463,173,175724,1,0,0:0:0:0:
463,173,175834,1,0,0:0:0:0:
319,127,176055,1,0,0:0:0:0:
173,162,176275,1,0,0:0:0:0:
76,133,176496,1,0,0:0:0:0:
76,133,176606,1,0,0:0:0:0:
76,133,176717,6,0,P|72:72|90:17,1,100
173,162,177048,1,0,0:0:0:0:
181,185,177158,1,0,0:0:0:0:
355,277,177378,5,0,0:0:0:0:
309,257,177488,1,0,0:0:0:0:
260,263,177598,1,0,0:0:0:0:
221,294,177708,1,0,0:0:0:0:
192,336,177820,1,0,0:0:0:0:
146,355,177930,1,0,0:0:0:0:
97,349,178040,2,0,P|73:342|51:330,1,50
98,164,178261,1,0,0:0:0:0:
98,164,178371,1,0,0:0:0:0:
98,164,178481,6,0,P|81:217|106:275,1,100
166,215,178812,1,0,0:0:0:0:
213,227,178922,1,0,0:0:0:0:
261,215,179032,1,0,0:0:0:0:
324,174,179142,1,0,0:0:0:0:
397,189,179253,1,0,0:0:0:0:
456,234,179364,2,0,P|468:213|472:189,1,50
343,269,179584,2,0,P|330:290|326:314,1,50
353,384,179805,1,0,0:0:0:0:
407,74,180025,2,0,P|419:95|423:119,1,50
397,189,180246,5,0,0:0:0:0:
351,169,180356,1,0,0:0:0:0:
302,173,180466,1,0,0:0:0:0:
259,198,180576,1,0,0:0:0:0:
234,241,180687,1,0,0:0:0:0:
112,92,180908,1,0,0:0:0:0:
112,92,181018,1,0,0:0:0:0:
112,92,181128,2,0,P|163:92|218:94,1,100
188,242,181459,2,0,P|137:242|82:240,1,100
222,167,181790,2,0,L|301:167,1,50
333,272,182011,5,0,0:0:0:0:
373,242,182121,1,0,0:0:0:0:
422,237,182231,1,0,0:0:0:0:
467,256,182341,1,0,0:0:0:0:
498,295,182452,1,0,0:0:0:0:
407,380,182673,2,0,L|414:324,1,50
478,81,182893,2,0,B|491:131|491:131|476:199,1,100
324,183,183224,2,0,B|311:133|311:133|326:65,1,100
405,124,183555,2,0,L|398:180,1,50
238,364,183775,6,0,P|233:282|238:205,1,150
240,189,184217,2,0,B|214:192|214:192|190:186,1,50
171,39,184437,2,0,B|197:36|197:36|220:41,1,50
354,102,184658,2,0,P|277:113|235:111,1,100
175,112,184989,1,0,0:0:0:0:
175,112,185099,1,0,0:0:0:0:
175,112,185209,1,0,0:0:0:0:
175,112,185320,1,0,0:0:0:0:
175,112,185430,1,0,0:0:0:0:
254,112,185540,6,0,P|304:111|354:102,1,100
376,91,185871,1,0,0:0:0:0:
385,212,185981,2,0,P|441:167|469:68,1,150
464,70,186423,1,0,0:0:0:0:
305,200,186643,1,0,0:0:0:0:
174,66,186864,1,0,0:0:0:0:
174,66,186974,1,0,0:0:0:0:
174,66,187084,1,0,0:0:0:0:
174,66,187195,1,0,0:0:0:0:
164,44,187305,6,0,B|148:99|148:99|163:181,1,112.500004291535
306,164,187746,2,0,B|322:109|322:109|307:27,1,112.500004291535
312,54,188187,2,0,P|348:51|377:40,1,50
236,106,188408,1,0,0:0:0:0:
236,106,188518,1,0,0:0:0:0:
236,106,188628,2,0,L|232:166,1,50
225,316,188849,2,0,L|229:256,1,50
474,237,189070,6,0,P|389:233|353:237,1,112.500004291535
116,264,189511,2,0,P|201:268|237:264,1,112.500004291535
228,266,189952,2,0,L|225:316,1,50
284,118,190173,1,0,0:0:0:0:
284,118,190283,2,0,L|287:68,1,50
449,66,190503,1,0,0:0:0:0:
446,75,190614,1,0,0:0:0:0:
443,84,190724,1,0,0:0:0:0:
441,91,190834,6,0,P|428:159|427:222,1,112.500004291535
237,238,191275,2,0,P|293:241|348:252,1,112.500004291535
348,252,191717,2,0,L|347:311,1,50
164,132,191937,1,0,0:0:0:0:
164,132,192048,2,0,L|165:73,1,50
253,343,192268,1,0,0:0:0:0:
244,337,192378,1,0,0:0:0:0:
235,331,192489,1,0,0:0:0:0:
226,325,192599,6,0,P|159:315|111:314,1,112.500004291535
40,130,193040,2,0,P|49:185|51:241,1,112.500004291535
51,241,193481,2,0,L|0:246,1,50
156,217,193702,1,0,0:0:0:0:
156,217,193812,1,0,0:0:0:0:
156,217,193923,2,0,P|209:225|229:224,1,50
231,75,194143,2,0,P|178:67|158:68,1,50
45,97,194364,6,0,P|144:138|175:136,1,112.500004291535
365,196,194805,2,0,P|266:155|235:157,1,112.500004291535
156,217,195246,2,0,P|209:225|229:224,1,50
240,308,195467,1,0,0:0:0:0:
240,308,195577,1,0,0:0:0:0:
240,308,195687,2,0,P|283:276|296:261,1,50
362,328,195908,2,0,P|369:274|368:255,1,50
274,29,196128,6,0,P|298:79|356:119,1,112.500004291535
449,96,196570,2,0,P|393:91|330:122,1,112.500004291535
320,187,197011,2,0,L|297:249,1,50
183,195,197231,1,0,0:0:0:0:
183,195,197342,1,0,0:0:0:0:
183,195,197452,2,0,L|210:255,1,50
104,305,197673,2,0,L|165:328,1,50
423,342,197893,6,0,L|411:183,1,150
406,334,198334,2,0,L|394:175,1,150
392,159,198775,2,0,L|386:97,1,50
195,51,198996,1,0,0:0:0:0:
195,51,199106,1,0,0:0:0:0:
195,51,199217,2,0,L|122:45,1,50
244,130,199437,2,0,L|317:136,1,50
72,0,199658,6,0,B|43:33|43:33|68:178,1,150
233,267,200099,2,0,B|262:234|262:234|237:89,1,150
152,132,200540,2,0,L|160:191,1,50
187,332,200761,1,0,0:0:0:0:
233,347,200871,1,0,0:0:0:0:
280,333,200981,1,0,0:0:0:0:
325,311,201091,1,0,0:0:0:0:
374,312,201202,1,0,0:0:0:0:
418,336,201312,1,0,0:0:0:0:
499,361,201423,6,0,B|488:294|488:294|465:273,1,100
300,183,201753,1,0,0:0:0:0:
295,199,201864,2,0,P|368:214|433:142,1,150
474,110,202305,2,0,P|492:129|501:153,1,50
220,130,202525,1,0,0:0:0:0:
216,105,202635,1,0,0:0:0:0:
213,80,202746,2,0,L|133:82,1,50
70,160,202967,2,0,L|150:158,1,50
345,132,203187,5,0,0:0:0:0:
405,223,203408,2,0,P|377:212|344:215,1,50
199,320,203628,2,0,B|255:317|255:317|289:290|289:290|349:288,1,150
364,293,204070,2,0,L|397:343,1,50
197,237,204290,1,0,0:0:0:0:
197,237,204400,1,0,0:0:0:0:
197,237,204511,2,0,L|164:187,1,50
296,149,204731,2,0,L|308:90,1,50
88,48,204952,6,0,B|74:37|74:37|129:37|129:37|138:34|138:34|249:36,1,150
296,113,205393,2,0,B|323:62|293:19|293:19|299:67|273:83,1,150
244,176,205834,2,0,P|269:192|289:196,1,50
459,43,206055,1,0,0:0:0:0:
459,43,206165,1,0,0:0:0:0:
459,43,206275,2,0,L|466:110,1,50
391,176,206496,2,0,L|398:243,1,50
471,347,206717,6,0,L|298:336,1,150
41,347,207158,2,0,L|214:336,1,150
256,272,207599,2,0,L|256:184,1,50
187,53,207820,1,0,0:0:0:0:
187,53,207930,1,0,0:0:0:0:
187,53,208040,2,0,L|117:64,1,50
325,53,208261,2,0,L|395:64,1,50
48,56,208481,6,0,B|79:123|79:123|166:157,1,150
54,252,208923,2,0,B|121:220|121:220|155:133,1,150
204,226,209364,2,0,L|229:159,1,50
310,172,209584,1,0,0:0:0:0:
310,172,209695,1,0,0:0:0:0:
310,172,209805,2,0,L|280:106,1,50
355,61,210025,2,0,L|288:35,1,50
464,328,210246,6,0,B|432:260|432:260|345:226,1,150
458,132,210688,2,0,B|390:163|390:163|356:250,1,150
321,299,211128,2,0,P|299:280|287:255,1,50
211,279,211349,1,0,0:0:0:0:
211,279,211459,1,0,0:0:0:0:
211,279,211570,2,0,P|208:251|218:225,1,50
148,187,211790,2,0,P|166:165|191:153,1,50
16,363,212011,6,0,L|10:194,1,150
97,114,212452,2,0,L|103:283,1,150
105,339,212893,2,0,L|194:338,1,50
256,256,213114,1,0,0:0:0:0:
256,256,213224,1,0,0:0:0:0:
256,256,213334,2,0,L|345:255,1,50
412,180,213555,2,0,L|501:179,1,50
128,48,213775,6,0,P|136:108|208:168,1,150
93,143,214217,6,0,P|145:167|205:163,1,112.500004291535
174,193,214658,2,0,P|190:177|202:157,1,37.5000014305115
284,88,214878,1,0,0:0:0:0:
284,88,214989,2,0,P|300:104|312:124,1,37.5000014305115
328,280,215209,1,0,0:0:0:0:
331,243,215319,1,0,0:0:0:0:
313,211,215429,1,0,0:0:0:0:
256,260,215540,5,0,0:0:0:0:
256,192,215650,12,0,219070,0:0:0:0:
73,239,243775,6,0,L|214:255,1,112.500004291535
203,235,244217,2,0,P|185:280|195:328,1,100
439,145,244658,6,0,L|298:129,1,112.500004291535
308,148,245100,2,0,P|326:103|316:55,1,100
73,108,245540,6,0,B|151:90|151:90|184:121,1,100
129,182,245871,1,0,0:0:0:0:
134,171,245981,1,0,0:0:0:0:
109,19,246202,1,0,0:0:0:0:
198,235,246423,2,0,P|176:260|145:272,1,66.6666666666667
128,271,246643,2,0,P|158:282|180:307,1,66.6666666666667
113,348,246864,1,0,0:0:0:0:
134,171,247084,1,0,0:0:0:0:
129,182,247194,1,0,0:0:0:0:
198,235,247305,6,0,P|255:231|314:224,1,100
370,171,247636,1,0,0:0:0:0:
379,159,247746,2,0,L|371:286,1,100
417,328,248187,2,0,P|368:303|312:319,1,112.500004291535
291,326,248628,2,0,L|297:226,1,100
431,64,249070,6,0,P|384:92|285:81,1,150
382,143,249511,6,0,P|343:132|280:55,1,112.500004291535
306,130,249952,6,0,P|290:88|302:40,1,50
216,26,250173,2,0,L|148:33,1,50
113,129,250393,2,0,L|162:123,1,50
30,78,250614,1,0,0:0:0:0:
30,78,250724,1,0,0:0:0:0:
30,78,250834,6,0,L|41:216,1,112.500004291535
25,211,251275,2,0,P|87:200|126:211,1,100
280,268,251717,2,0,P|257:304|215:327,1,75.0000028610231
196,243,252048,1,0,0:0:0:0:
196,243,252158,2,0,P|202:207|193:171,1,75.0000028610231,0|0,0:0|0:0,0:3:0:0:
331,318,252599,6,0,L|464:328,1,112.500004291535
445,247,253040,2,0,L|333:239,1,112.500004291535
317,68,253481,2,0,P|349:73|376:92,1,66.6666666666667
409,37,253702,2,0,P|377:42|350:61,1,66.6666666666667
321,150,253923,1,0,0:0:0:0:
108,110,254143,1,0,0:0:0:0:
104,95,254253,1,0,0:0:0:0:
100,80,254364,6,0,P|127:123|106:205,1,112.500004291535
171,243,254805,2,0,P|123:228|76:249,1,100
239,336,255246,2,0,B|281:329|281:329|303:319|303:319|342:313,1,100
412,348,255577,1,0,0:0:0:0:
418,361,255687,2,0,L|419:228,1,100
296,65,256128,6,0,L|436:69,1,100
468,29,256459,1,0,0:0:0:0:
474,16,256569,2,0,L|475:149,1,100
476,141,256900,1,0,0:0:0:0:
400,169,257011,2,0,L|335:169,1,50
296,65,257231,2,0,L|250:110,1,50,0|0,0:3|0:3,0:3:0:0:
164,119,257452,2,0,L|164:69,1,50,0|0,0:3|0:3,0:3:0:0:
104,172,257673,1,0,0:0:0:0:
94,183,257783,1,0,0:0:0:0:
81,191,257893,6,0,P|150:203|180:266,1,112.500004291535
161,255,258334,2,0,P|224:238|269:256,1,100
369,351,258775,1,0,0:0:0:0:
296,328,258996,2,0,P|307:306|325:289,1,50
427,259,259217,2,0,L|296:264,1,100
131,132,259658,5,0,0:0:0:0:
211,220,259878,2,0,P|230:190|232:175,1,50
219,99,260099,1,0,0:0:0:0:
65,279,260320,1,0,0:0:0:0:
65,279,260430,1,0,0:0:0:0:
65,279,260540,2,0,P|115:282|148:311,1,66.6666666666667
168,259,260761,2,0,P|135:297|132:341,1,66.6666666666667
208,329,260981,1,0,0:0:0:0:
80,174,261202,1,0,0:0:0:0:
102,163,261312,1,0,0:0:0:0:
114,82,261423,5,0,0:0:0:0:
288,140,261643,1,0,0:0:0:0:
288,140,261753,1,0,0:0:0:0:
288,140,261864,2,0,L|280:267,1,100
482,232,262305,2,0,L|382:221,1,100
449,55,262636,1,0,0:0:0:0:
455,45,262746,2,0,L|444:144,1,100
352,351,263187,6,0,P|412:315|430:237,1,150
352,351,263628,6,0,P|315:291|246:273,1,112.500004291535
184,295,264070,6,0,L|119:293,1,50
289,203,264290,2,0,L|354:201,1,50
214,160,264511,2,0,L|149:158,1,50
328,89,264731,5,0,0:0:0:0:
352,89,264841,1,0,0:0:0:0:
389,126,264952,6,0,L|393:10,1,100
470,177,265283,1,0,0:0:0:0:
461,189,265393,2,0,L|464:288,1,100
250,323,265834,6,0,P|305:293|375:322,1,112.500004291535
368,321,266275,2,0,L|381:199,1,100
170,207,266717,6,0,P|102:216|30:164,1,150
11,278,267158,6,0,P|8:227|59:154,1,112.500004291535,0|0,0:3|0:3,0:3:0:0:
116,46,267599,5,0,0:0:0:0:
224,64,267820,1,0,0:0:0:0:
291,150,268040,1,0,0:0:0:0:
400,156,268261,1,0,0:0:0:0:
400,156,268371,1,0,0:0:0:0:
400,156,268481,6,0,L|400:276,1,112.500004291535
454,326,268923,2,0,P|406:314|363:336,1,100
134,290,269364,6,0,L|246:284,1,112.500004291535
97,358,269805,2,0,L|81:249,1,75.0000028610231
78,38,270246,5,0,0:0:0:0:
103,65,270356,1,0,0:0:0:0:
138,75,270466,1,0,0:0:0:0:
174,67,270576,1,0,0:0:0:0:
201,35,270687,5,0,0:0:0:0:
217,43,270798,1,0,0:0:0:0:
233,51,270908,1,0,0:0:0:0:
249,59,271018,1,0,0:0:0:0:
262,46,271128,6,0,P|277:135|273:153,1,75.0000028610231
202,149,271459,6,0,P|187:238|191:256,1,75.0000028610231
302,212,271790,2,0,P|312:248|310:264,1,37.5000014305115
256,356,272011,6,0,L|256:311,2,37.5
86,192,277967,5,0,0:0:0:0:
108,201,278077,1,0,0:0:0:0:
132,195,278187,1,0,0:0:0:0:
210,132,278408,1,0,0:0:0:0:
277,205,278628,1,0,0:0:0:0:
352,168,278849,1,0,0:0:0:0:
426,192,279070,5,0,0:0:0:0:
352,168,279731,1,0,0:0:0:0:
426,192,279952,1,0,0:0:0:0:
256,44,284364,6,0,L|256:152,1,100
224,236,285025,1,0,0:0:0:0:
248,228,285136,1,0,0:0:0:0:
272,236,285246,1,0,0:0:0:0:
348,172,285467,1,0,0:0:0:0:
256,144,285687,1,0,0:0:0:0:
248,312,285908,1,0,0:0:0:0:
148,320,286128,5,0,0:0:0:0:
248,312,286790,1,0,0:0:0:0:
148,320,287010,1,0,0:0:0:0:
426,192,292084,5,0,0:0:0:0:
404,201,292194,1,0,0:0:0:0:
380,195,292304,1,0,0:0:0:0:
302,132,292525,1,0,0:0:0:0:
235,205,292745,1,0,0:0:0:0:
160,168,292966,1,0,0:0:0:0:
86,192,293187,5,0,0:0:0:0:
160,168,293848,1,0,0:0:0:0:
86,192,294069,1,0,0:0:0:0:
256,340,298481,6,0,L|256:232,1,100
288,148,299142,1,0,0:0:0:0:
264,156,299253,1,0,0:0:0:0:
240,148,299363,1,0,0:0:0:0:
164,212,299584,1,0,0:0:0:0:
256,240,299804,1,0,0:0:0:0:
264,72,300025,1,0,0:0:0:0:
364,64,300245,5,0,0:0:0:0:
264,72,300907,1,0,0:0:0:0:
364,64,301127,1,0,0:0:0:0:
256,362,306202,5,0,0:0:0:0:
265,340,306312,1,0,0:0:0:0:
259,316,306422,1,0,0:0:0:0:
196,238,306643,1,0,0:0:0:0:
269,171,306863,1,0,0:0:0:0:
232,96,307084,1,0,0:0:0:0:
256,24,307305,6,0,P|300:44|344:40,1,75.0000028610231
392,4,307525,2,0,P|360:72|380:148,1,150.000005722046
292,272,307856,2,0,P|360:304|436:284,1,150.000005722046
484,232,308187,6,0,P|440:212|396:216,1,75.0000028610231
220,356,308408,1,0,0:0:0:0:
220,355,308518,2,0,B|183:371|183:371|147:359,1,75.0000028610231
140,208,308739,2,0,B|176:191|176:191|212:203,1,75.0000028610231
60,284,308959,1,0,0:0:0:0:
52,296,309070,5,0,0:0:0:0:
52,296,309290,2,0,L|64:112,1,150.000005722046
200,53,309621,2,0,L|212:237,1,150.000005722046
364,332,309952,2,0,P|276:328|256:336,1,75.0000028610231
136,210,310173,1,0,0:0:0:0:
136,210,310283,2,0,P|224:206|244:214,1,75.0000028610231
376,92,310503,2,0,P|288:88|268:96,1,75.0000028610231
436,236,310724,1,0,0:0:0:0:
448,252,310834,5,0,0:0:0:0:
448,252,311055,6,0,L|352:272,1,75.0000028610231
216,296,311275,1,0,0:0:0:0:
84,213,311386,2,0,L|158:198,1,75.0000028610231
232,184,311606,1,0,0:0:0:0:
256,80,311717,2,0,L|182:95,1,75.0000028610231
216,296,311937,2,0,L|289:280,1,75.0000028610231
324,164,312158,2,0,L|397:148,1,75.0000028610231
158,199,312378,2,0,L|231:183,1,75.0000028610231
256,80,312599,2,0,L|329:64,1,75.0000028610231
374,267,312820,2,0,L|447:251,1,75.0000028610231
112,88,313040,5,0,0:0:0:0:
120,164,313150,1,0,0:0:0:0:
84,232,313261,2,0,L|80:276,3,37.5000014305115
120,164,313481,1,0,0:0:0:0:
160,144,313591,1,0,0:0:0:0:
204,145,313701,1,0,0:0:0:0:
243,166,313811,1,0,0:0:0:0:
320,260,313923,6,0,B|332:124,1,112.500004291535
344,0,314364,5,0,0:0:0:0:
256,192,314474,12,0,317011,0:0:0:0:
260,70,317452,6,0,B|329:38|384:75|352:117|324:113|321:81,1,150
405,27,317893,2,0,P|426:72|421:124,1,100
272,241,318224,1,0,0:0:0:0:
261,251,318334,2,0,P|252:202|270:153,1,100,0|0,2:0|2:0,2:0:0:0:
459,328,318775,2,0,L|286:339,1,150
261,251,319217,2,0,L|161:257,1,100
0,366,319658,6,0,P|47:336|46:242,1,150
15,118,320099,1,0,0:0:0:0:
126,168,320320,1,0,0:0:0:0:
198,201,320430,1,0,0:0:0:0:
271,172,320540,2,0,P|292:158|309:139,1,50
234,46,320761,2,0,L|239:106,1,50
197,200,320981,2,0,L|193:250,1,50
160,328,321202,1,0,0:0:0:0:
172,323,321312,1,0,0:0:0:0:
284,267,321423,6,0,L|391:271,1,100
448,325,321753,1,0,0:0:0:0:
457,337,321864,2,0,L|473:232,1,100
391,14,322305,2,0,L|375:119,1,100
385,135,322636,2,0,P|359:120|321:114,1,50
238,85,322856,1,0,0:0:0:0:
218,100,322967,1,0,0:0:0:0:
193,105,323077,1,0,0:0:0:0:
169,97,323187,6,0,P|120:97|78:124,1,100
162,265,323518,1,0,0:0:0:0:
171,271,323628,2,0,P|171:221|143:180,1,100,0|0,2:0|2:0,2:0:0:0:
18,164,323959,1,0,0:0:0:0:
22,176,324070,2,0,P|43:197|67:202,1,50
208,123,324290,2,0,P|186:101|162:96,1,50
115,340,324511,1,0,0:0:0:0:
115,340,324621,1,0,0:0:0:0:
166,358,324731,1,0,0:0:0:0:
219,342,324842,1,0,0:0:0:0:
253,305,324952,6,0,P|327:294|383:305,1,100
428,331,325283,1,0,0:0:0:0:
441,345,325393,2,0,L|438:229,1,100
332,71,325724,1,0,0:0:0:0:
345,57,325834,2,0,L|342:173,1,100
156,237,326165,1,0,0:0:0:0:
139,225,326275,2,0,P|203:207|225:212,1,50
254,144,326496,2,0,P|232:131|209:125,1,50
271,337,326717,6,0,L|274:221,1,100
254,144,327048,1,0,0:0:0:0:
254,144,327158,1,0,0:0:0:0:
139,225,327378,1,0,0:0:0:0:
101,296,327489,1,0,0:0:0:0:
26,324,327599,2,0,P|4:308|-15:268,1,50
150,296,327820,2,0,P|123:300|81:285,1,50
173,190,328040,2,0,P|157:212|117:231,1,50
118,118,328261,1,0,0:0:0:0:
111,141,328371,1,0,0:0:0:0:
173,190,328481,6,0,L|353:195,1,150
410,101,328923,2,0,L|293:98,1,100
95,291,329364,2,0,L|90:132,1,150
87,60,329805,2,0,L|59:16,3,50
160,97,330246,6,0,L|242:80,1,50
265,18,330467,1,0,0:0:0:0:
276,27,330577,1,0,0:0:0:0:
397,89,330687,2,0,L|315:72,1,50
284,148,330908,1,0,0:0:0:0:
275,159,331018,1,0,0:0:0:0:
208,291,331128,6,0,L|230:200,1,66.6666666666667
284,247,331349,2,0,P|243:226|199:234,1,66.6666666666667
123,257,331570,1,0,0:0:0:0:
115,266,331790,2,0,L|113:177,1,50
379,318,332011,2,0,P|329:337|261:304,1,112.500004291535
257,303,332452,1,0,0:0:0:0:
156,108,332672,1,0,0:0:0:0:
104,174,332893,6,0,P|154:193|222:160,1,112.500004291535
229,163,333334,1,0,0:0:0:0:
374,73,333555,6,0,L|463:52,1,50
345,54,333775,2,0,L|357:181,1,100
419,288,334106,1,0,0:0:0:0:
428,276,334217,2,0,P|353:259|321:265,1,100
265,300,334548,1,0,0:0:0:0:
197,264,334658,2,0,P|167:222|166:209,1,50
91,236,334878,2,0,P|99:185|107:175,1,50
38,142,335099,2,0,P|80:112|93:111,1,50
65,38,335320,2,0,P|115:46|125:54,1,50
235,111,335540,5,0,0:0:0:0:
315,171,335761,1,0,0:0:0:0:
324,147,335871,1,0,0:0:0:0:
375,92,335981,2,0,L|499:84,1,100
328,32,336312,1,0,0:0:0:0:
328,32,336423,2,0,P|301:73|306:122,1,100
175,118,336753,2,0,L|295:97,1,100
92,88,337084,2,0,L|147:97,1,50
301,186,337305,5,0,0:0:0:0:
402,264,337525,2,0,L|394:207,1,50
301,186,337746,2,0,L|291:318,1,100
228,140,338077,1,0,0:0:0:0:
228,140,338187,2,0,L|127:226,1,100
129,67,338518,1,0,0:0:0:0:
129,67,338628,2,0,L|178:70,1,50
301,186,338849,2,0,L|268:148,1,50
436,76,339070,6,0,L|420:247,1,150
422,225,339511,2,0,L|345:215,1,50
219,288,339731,2,0,L|266:226,1,50
349,381,339952,2,0,L|322:284,1,100
264,232,340283,1,0,0:0:0:0:
132,279,340393,2,0,L|171:208,1,50
92,173,340614,1,0,0:0:0:0:
134,148,340724,1,0,0:0:0:0:
184,148,340834,5,0,0:0:0:0:
491,276,341165,1,0,0:0:0:0:
478,250,341275,2,0,L|470:141,1,100
391,95,341606,1,0,0:0:0:0:
391,95,341717,2,0,L|302:91,1,50
244,159,341937,2,0,P|236:121|240:86,1,50
330,205,342158,2,0,L|317:266,1,50
250,340,342378,1,0,0:0:0:0:
348,340,342599,6,0,B|364:285|364:285|349:203,1,112.500004291535
206,220,343040,2,0,B|190:275|190:275|205:357,1,112.500004291535
200,330,343481,2,0,P|164:333|135:344,1,50
276,278,343702,1,0,0:0:0:0:
276,278,343812,1,0,0:0:0:0:
276,278,343922,2,0,L|280:218,1,50
287,68,344143,2,0,L|283:128,1,50
38,147,344364,6,0,P|123:151|159:147,1,112.500004291535
396,120,344805,2,0,P|311:116|275:120,1,112.500004291535
284,118,345246,2,0,L|287:68,1,50
228,266,345467,1,0,0:0:0:0:
228,266,345577,2,0,L|225:316,1,50
63,318,345797,1,0,0:0:0:0:
66,309,345908,1,0,0:0:0:0:
69,300,346018,1,0,0:0:0:0:
71,293,346128,6,0,P|84:225|85:162,1,112.500004291535
275,146,346569,2,0,P|219:143|164:132,1,112.500004291535
164,132,347011,2,0,L|165:73,1,50
348,252,347231,1,0,0:0:0:0:
348,252,347342,2,0,L|347:311,1,50
259,41,347562,1,0,0:0:0:0:
268,47,347672,1,0,0:0:0:0:
277,53,347783,1,0,0:0:0:0:
286,59,347893,6,0,P|353:69|401:70,1,112.500004291535
472,254,348334,2,0,P|463:199|461:143,1,112.500004291535
461,143,348775,2,0,L|512:138,1,50
356,167,348996,1,0,0:0:0:0:
356,167,349106,1,0,0:0:0:0:
356,167,349217,2,0,P|303:159|283:160,1,50
281,309,349437,2,0,P|334:317|354:316,1,50
467,287,349658,6,0,P|368:246|337:248,1,112.500004291535
147,188,350099,2,0,P|246:229|277:227,1,112.500004291535
356,167,350540,2,0,P|303:159|283:160,1,50
272,76,350761,1,0,0:0:0:0:
272,76,350871,1,0,0:0:0:0:
272,76,350981,2,0,P|229:108|216:123,1,50
150,56,351202,2,0,P|143:110|144:129,1,50
238,355,351423,6,0,P|214:305|156:265,1,112.500004291535
63,288,351864,2,0,P|119:293|182:262,1,112.500004291535
192,197,352305,2,0,L|215:135,1,50
329,189,352525,1,0,0:0:0:0:
329,189,352636,1,0,0:0:0:0:
329,189,352746,2,0,L|302:129,1,50
408,79,352967,2,0,L|347:56,1,50
89,42,353187,6,0,L|101:201,1,150
106,50,353628,2,0,L|118:209,1,150
120,225,354069,2,0,L|126:287,1,50
317,333,354290,1,0,0:0:0:0:
317,333,354400,1,0,0:0:0:0:
317,333,354511,2,0,L|390:339,1,50
268,254,354731,2,0,L|195:248,1,50
440,384,354952,6,0,B|469:351|469:351|444:206,1,150
279,117,355393,2,0,B|250:150|250:150|275:295,1,150
360,252,355834,2,0,L|352:193,1,50
325,52,356055,1,0,0:0:0:0:
279,37,356165,1,0,0:0:0:0:
232,51,356275,1,0,0:0:0:0:
187,73,356385,1,0,0:0:0:0:
138,72,356496,1,0,0:0:0:0:
94,48,356606,1,0,0:0:0:0:
13,23,356717,6,0,B|24:90|24:90|47:111,1,100
212,201,357047,1,0,0:0:0:0:
217,185,357158,2,0,P|144:170|79:242,1,150
38,274,357599,2,0,P|20:255|11:231,1,50
292,254,357819,1,0,0:0:0:0:
296,279,357929,1,0,0:0:0:0:
299,304,358040,2,0,L|379:302,1,50
442,224,358261,2,0,L|362:226,1,50
167,252,358481,5,0,0:0:0:0:
107,161,358702,2,0,P|135:172|168:169,1,50
313,64,358922,2,0,B|257:67|257:67|223:94|223:94|163:96,1,150
148,91,359364,2,0,L|115:41,1,50
315,147,359584,1,0,0:0:0:0:
315,147,359694,1,0,0:0:0:0:
315,147,359805,2,0,L|348:197,1,50
216,235,360025,2,0,L|204:294,1,50
424,336,360246,6,0,B|438:347|438:347|383:347|383:347|374:350|374:350|263:348,1,150
216,271,360687,2,0,B|189:322|219:365|219:365|213:317|239:301,1,150
268,208,361128,2,0,P|243:192|223:188,1,50
53,341,361349,1,0,0:0:0:0:
53,341,361459,1,0,0:0:0:0:
53,341,361569,2,0,L|46:274,1,50
121,208,361790,2,0,L|114:141,1,50
41,37,362011,6,0,L|214:48,1,150
471,37,362452,2,0,L|298:48,1,150
256,112,362893,2,0,L|256:200,1,50
325,331,363114,1,0,0:0:0:0:
325,331,363224,1,0,0:0:0:0:
325,331,363334,2,0,L|395:320,1,50
187,331,363555,2,0,L|117:320,1,50
464,328,363775,6,0,B|433:261|433:261|346:227,1,150
458,132,364217,2,0,B|391:164|391:164|357:251,1,150
308,158,364658,2,0,L|283:225,1,50
202,212,364878,1,0,0:0:0:0:
202,212,364989,1,0,0:0:0:0:
202,212,365099,2,0,L|232:278,1,50
157,323,365319,2,0,L|224:349,1,50
48,56,365540,6,0,B|80:124|80:124|167:158,1,150
54,252,365982,2,0,B|122:221|122:221|156:134,1,150
191,85,366422,2,0,P|213:104|225:129,1,50
301,105,366643,1,0,0:0:0:0:
301,105,366753,1,0,0:0:0:0:
301,105,366864,2,0,P|304:133|294:159,1,50
364,197,367084,2,0,P|346:219|321:231,1,50
496,21,367305,6,0,L|502:190,1,150
415,270,367746,2,0,L|409:101,1,150
407,45,368187,2,0,L|318:46,1,50
256,128,368408,1,0,0:0:0:0:
256,128,368518,1,0,0:0:0:0:
256,128,368628,2,0,L|167:129,1,50
100,204,368849,2,0,L|11:205,1,50
384,336,369069,6,0,P|376:276|304:216,1,150
419,241,369511,6,0,P|367:217|307:221,1,112.500004291535
376,183,369952,6,0,P|333:198|301:234,1,75
322,183,370393,6,0,P|312:203|314:227,1,37.5
311,217,370834,5,0,0:0:0:0:
256,192,370945,12,0,373923,0:0:0:0:
119,100,374143,5,0,0:0:0:0:
112,124,374253,1,0,0:0:0:0:
105,147,374364,2,0,P|165:160|234:137,1,100
294,90,374695,1,0,0:0:0:0:
294,90,374805,2,0,L|282:166,1,50
189,259,375025,2,0,P|240:242|275:251,1,50
412,224,375246,2,0,L|284:215,1,100
235,242,375577,1,0,0:0:0:0:
235,242,375687,2,0,L|247:318,1,50
126,355,375908,2,0,L|133:305,1,50
165,108,376128,6,0,L|149:235,1,100
150,232,376459,1,0,0:0:0:0:
146,256,376570,1,0,0:0:0:0:
352,365,376790,1,0,0:0:0:0:
376,294,376900,1,0,0:0:0:0:
402,223,377011,6,0,P|456:239|500:266,1,75.0000028610231
317,151,377231,6,0,L|315:72,1,62.5
235,214,377452,6,0,P|195:225|162:245,1,50
215,356,377673,6,0,P|225:326|241:300,1,62.5
