osu file format v14

[General]
AudioFilename: audio.mp3
AudioLeadIn: 0
PreviewTime: 105708
Countdown: 0
SampleSet: Normal
StackLeniency: 0.7
Mode: 0
LetterboxInBreaks: 0
WidescreenStoryboard: 0

[Editor]
Bookmarks: 826,15826,23326,30826,45826,60826,75826,90826,105826,120826,126802,135826,150826,158326,165826,180826,195826,210826,225826,240826,255826,263326,270826
DistanceSpacing: 2.5
BeatDivisor: 4
GridSize: 4
TimelineZoom: 2.799999

[Metadata]
Title:That Full Moon Over The Haunted Ship
TitleUnicode:That Full Moon Over The Haunted Ship
Artist:Ayakura Mei
ArtistUnicode:綾倉盟
Creator:rui
Version:Electric Ghost Ship
Source:東方星蓮船 ~ Undefined Fantastic Object
Tags:Alstroemeria Records Camellia 幽霊客船の時空を越えた旅 東方Project
BeatmapID:1298513
BeatmapSetID:615636

[Difficulty]
HPDrainRate:5
CircleSize:4.5
OverallDifficulty:9
ApproachRate:9
SliderMultiplier:1.8
SliderTickRate:1

[Events]
//Background and Video events
0,0,"52a85aadcbef7609c9aa86762edda3cc7dd99e16.jpg",0,0
//Break Periods
2,31026,45226
//Storyboard Layer 0 (Background)
//Storyboard Layer 1 (Fail)
//Storyboard Layer 2 (Pass)
//Storyboard Layer 3 (Foreground)
//Storyboard Sound Samples

[TimingPoints]
826,468.75,4,1,1,40,1,0
15357,-71.4285714285714,4,1,1,40,0,0
15826,-90.9090909090909,4,3,1,50,0,0
23326,-90.9090909090909,4,3,1,40,0,0
23794,-90.9090909090909,4,1,1,50,0,0
24263,-90.9090909090909,4,1,1,60,0,0
24732,-90.9090909090909,4,1,1,70,0,0
25201,-90.9090909090909,4,1,1,65,0,0
25669,-90.9090909090909,4,1,1,60,0,0
26138,-90.9090909090909,4,1,1,55,0,0
26607,-90.9090909090909,4,1,1,50,0,0
27544,-90.9090909090909,4,1,1,45,0,0
28013,-90.9090909090909,4,1,1,50,0,0
28482,-90.9090909090909,4,1,1,55,0,0
29419,-66.6666666666667,4,1,1,60,0,0
29888,-50,4,1,1,65,0,0
30357,-40,4,1,1,70,0,0
30826,-33.33333,4,1,1,75,0,0
45826,-100,4,2,1,20,0,0
53326,-100,4,2,1,30,0,0
60591,-100,4,2,1,50,0,0
88951,-100,4,2,1,50,0,0
90826,-100,4,2,1,55,0,0
98326,-100,4,2,1,40,0,0
98794,-100,4,2,1,45,0,0
99263,-100,4,2,1,50,0,0
99732,-100,4,2,1,55,0,0
100201,-100,4,2,1,60,0,0
100669,-100,4,2,1,65,0,0
101138,-100,4,2,1,70,0,0
101607,-100,4,2,1,75,0,0
102076,-100,4,2,1,80,0,0
103013,-100,4,1,1,85,0,0
103951,-30,4,2,1,50,0,0
105826,-66.6666666666667,4,2,1,60,0,1
112857,-50,4,2,1,60,0,1
113326,-66.6666666666667,4,2,1,60,0,1
118951,-50,4,2,1,70,0,1
120826,-66.6666666666667,4,2,1,70,0,1
127857,-50,4,2,1,70,0,1
128326,-66.6666666666667,4,2,1,60,0,1
128794,-66.6666666666667,4,2,1,70,0,1
129263,-66.6666666666667,4,2,1,80,0,1
129732,-66.6666666666667,4,2,1,90,0,1
130201,-66.6666666666667,4,2,1,85,0,1
130669,-66.6666666666667,4,2,1,80,0,1
131138,-66.6666666666667,4,2,1,75,0,1
131607,-66.6666666666667,4,2,1,70,0,1
132544,-66.6666666666667,4,2,1,65,0,1
133013,-66.6666666666667,4,2,1,70,0,1
133482,-66.6666666666667,4,2,1,75,0,1
133951,-50,4,1,1,55,0,1
134419,-40,4,1,1,60,0,1
134888,-33.33333,4,1,1,60,0,1
135357,-30,4,1,1,65,0,1
135826,-100,4,1,1,80,0,0

[Colours]
Combo1 : 0,0,108
Combo2 : 55,0,0

[HitObjects]
32,48,826,6,0,B|78:50|78:50|124:64|124:64|180:68,1,135,0|2,1:2|2:0,0:0:0:0:
276,172,1294,2,0,L|180:168,1,90,0|2,1:0|1:2,0:0:0:0:
24,120,1763,6,0,B|70:122|70:122|116:136|116:136|172:140,1,135,0|2,0:0|1:2,0:0:0:0:
268,244,2231,2,0,L|172:240,1,90,0|2,1:0|1:2,0:0:0:0:
20,192,2701,6,0,B|66:194|66:194|112:208|112:208|168:212,1,135,0|2,1:0|1:2,0:0:0:0:
264,316,3169,2,0,L|174:312,1,90,0|0,1:0|0:2,0:0:0:0:
300,248,3638,5,0,0:0:0:0:
152,210,3872,1,2,0:2:0:0:
344,152,4107,1,0,0:0:0:0:
196,114,4341,1,2,0:2:0:0:
468,61,4576,6,0,B|422:63|422:63|376:77|376:77|320:81,1,135,0|2,0:0|0:2,0:0:0:0:
224,184,5044,2,0,L|320:180,1,90,0|2,0:0|0:2,0:0:0:0:
476,133,5513,6,0,B|430:135|430:135|384:149|384:149|328:153,1,135,0|2,0:0|0:2,0:0:0:0:
232,256,5981,2,0,L|321:252,1,90,0|2,0:0|0:2,0:0:0:0:
188,316,6451,5,2,0:2:0:0:
152,317,6568,1,0,0:0:0:0:
116,319,6685,1,2,0:2:0:0:
80,320,6802,1,0,0:0:0:0:
48,288,6919,2,0,L|137:284,1,90,2|2,0:2|0:2,0:0:0:0:
256,192,7388,5,0,0:0:0:0:
375,100,7622,2,0,L|408:96,3,22.5
364,92,7857,2,0,L|275:88,1,90,4|0,0:2|0:0,0:0:0:0:
88,44,8326,6,0,B|129:64|129:64|165:96|165:96|215:122,1,135,0|2,0:0|0:2,0:0:0:0:
260,255,8794,2,0,L|173:212,1,90,0|2,0:0|0:2,0:0:0:0:
80,144,9263,6,0,B|124:157|124:157|165:181|165:181|218:199,1,135,0|2,0:0|0:2,0:0:0:0:
286,322,9731,2,0,L|193:294,1,90,0|2,0:0|0:2,0:0:0:0:
88,240,10201,6,0,B|133:245|133:245|178:262|178:262|234:270,1,135,0|2,0:0|0:2,0:0:0:0:
322,380,10669,2,2,L|232:369,1,90,2|2,0:2|0:2,0:2:0:0:
376,332,11138,5,0,0:0:0:0:
219,268,11372,1,2,0:2:0:0:
352,208,11607,1,0,0:0:0:0:
195,144,11841,1,2,0:2:0:0:
472,56,12076,6,0,B|427:69|427:69|386:93|386:93|333:111,1,135,0|2,0:0|0:2,0:0:0:0:
265,233,12544,2,0,L|357:205,1,90,0|2,0:0|0:2,0:0:0:0:
462,155,13013,6,0,B|416:160|416:160|371:177|371:177|315:185,1,135,0|2,0:0|0:2,0:0:0:0:
228,295,13481,2,0,L|323:284,1,90,0|2,0:0|0:2,0:0:0:0:
437,249,13951,6,0,B|391:246|391:246|343:255|343:255|287:253,1,135,0|2,0:0|0:2,0:0:0:0:
183,346,14419,2,0,L|272:351,1,90,0|2,0:0|0:2,0:0:0:0:
348,256,14888,6,0,L|287:252,1,45,2|0,0:2|0:0,0:0:0:0:
240,192,15122,2,0,L|179:188,1,45,2|0,0:2|0:0,0:0:0:0:
128,132,15357,2,2,B|44:124|44:124|16:120|-4:96|0:64|20:44,1,188.999994232178,2|0,0:0|0:0,0:0:0:0:
124,28,15826,5,2,0:0:0:0:
124,28,15943,2,0,L|236:40,1,99.0000030212403,2|0,0:0|0:0,0:0:0:0:
260,44,16294,1,2,0:0:0:0:
364,136,16529,5,0,0:0:0:0:
404,140,16646,1,2,0:0:0:0:
444,144,16763,2,0,L|504:152,1,49.5000015106202
380,212,16997,2,0,L|440:220,1,49.5000015106202,2|0,0:0|0:0,0:0:0:0:
312,276,17232,1,2,0:0:0:0:
312,276,17701,6,0,L|256:288,2,49.5000015106202,2|2|0,0:0|0:0|0:0,0:0:0:0:
364,192,18052,1,0,0:0:0:0:
364,192,18169,2,0,L|260:212,1,99.0000030212403,2|0,0:0|0:0,0:0:0:0:
214,295,18521,1,2,0:0:0:0:
214,295,18638,6,0,L|311:276,2,99.0000030212403,0|2|2,0:0|0:0|0:0,0:0:0:0:
95,102,19341,2,0,L|120:108,3,24.7500007553101
144,116,19576,5,2,0:0:0:0:
144,116,19693,2,0,L|247:102,1,99.0000030212403,2|0,0:0|0:0,0:0:0:0:
281,97,20044,1,2,0:0:0:0:
468,152,20279,5,0,0:0:0:0:
428,156,20396,1,2,0:0:0:0:
390,163,20513,2,0,L|330:171,1,49.5000015106202
272,240,20747,2,0,L|212:248,1,49.5000015106202,2|0,0:0|0:0,0:0:0:0:
176,126,20982,1,2,0:0:0:0:
176,126,21451,5,2,0:0:0:0:
176,126,21568,2,0,L|284:136,1,99.0000030212403,2|0,0:0|0:0,0:0:0:0:
328,216,21919,2,0,L|229:206,1,99.0000030212403,2|0,0:0|0:0,0:0:0:0:
132,184,22271,1,2,0:0:0:0:
132,184,22388,6,0,L|72:192,1,49.5000015106202
44,100,22622,2,0,L|19:96,4,24.7500007553101,0|0|0|0|4,0:0|0:0|0:0|0:0|0:2,0:0:0:0:
144,84,22974,2,0,L|168:87,1,24.7500007553101
184,104,23091,2,0,L|233:97,1,49.5000015106202,2|0,0:0|0:0,0:0:0:0:
316,84,23326,5,2,1:3:0:0:
132,152,23560,1,0,1:0:0:0:
316,84,23794,5,2,1:3:0:0:
116,220,24028,1,0,1:0:0:0:
316,84,24263,5,2,1:3:0:0:
100,288,24497,1,0,1:0:0:0:
316,84,24731,5,2,1:3:0:0:
84,356,24965,1,0,1:0:0:0:
428,356,25201,5,2,1:3:0:0:
150,30,25435,1,0,1:0:0:0:
409,274,25669,5,2,1:3:0:0:
150,30,25903,1,0,1:0:0:0:
390,193,26138,5,2,1:3:0:0:
150,30,26372,1,0,1:0:0:0:
370,111,26606,5,2,1:3:0:0:
150,30,26840,1,0,1:0:0:0:
408,44,27076,5,4,0:3:0:0:
440,80,27193,1,2,0:3:0:0:
444,128,27310,1,0,0:0:0:0:
420,172,27427,1,0,0:0:0:0:
376,196,27544,5,2,0:3:0:0:
384,226,27661,1,0,0:0:0:0:
400,254,27779,1,0,0:0:0:0:
423,279,27896,1,0,0:0:0:0:
448,300,28013,5,4,0:3:0:0:
388,288,28130,1,0,0:0:0:0:
336,316,28247,1,2,0:3:0:0:
324,376,28365,1,0,0:0:0:0:
300,300,28481,5,6,0:3:0:0:
316,224,28598,1,0,0:0:0:0:
340,148,28715,1,0,0:0:0:0:
316,72,28833,1,0,0:0:0:0:
252,28,28951,6,0,L|219:24,7,24.7500007553101,4|0|2|0|0|0|0|0,0:3|0:0|0:3|0:0|0:0|0:0|0:0|0:0,0:0:0:0:
163,85,29419,6,0,L|190:105,7,33.7500012874604,2|0|0|0|0|0|2|0,0:3|0:0|0:0|0:0|0:0|0:0|0:3|0:0,0:0:0:0:
240,211,29888,6,0,L|185:208,7,45,0|0|0|0|2|0|0|0,0:0|0:0|0:0|0:0|0:3|0:0|0:0|0:0,0:0:0:0:
96,316,30357,6,0,L|146:351,7,56.25,2|0|0|0|2|0|0|0,0:3|0:0|0:0|0:0|0:3|0:0|0:0|0:0,0:0:0:0:
56,200,30826,5,4,0:0:0:0:
56,200,45826,5,2,0:0:0:0:
152,148,46294,1,2,0:0:0:0:
256,172,46763,1,2,0:0:0:0:
360,196,47231,1,2,0:0:0:0:
188,48,47701,5,2,0:0:0:0:
152,148,48169,1,2,0:0:0:0:
220,272,48638,1,2,0:0:0:0:
256,172,49106,1,2,0:0:0:0:
84,64,49576,5,2,0:0:0:0:
188,88,50044,1,2,0:0:0:0:
256,172,50513,1,2,0:0:0:0:
312,304,50981,1,2,0:0:0:0:
272,140,51216,1,2,0:0:0:0:
272,140,51333,1,0,0:0:0:0:
272,140,51451,6,0,L|304:275,1,135,2|0,0:0|0:0,0:0:0:0:
335,245,51919,2,0,B|389:261|389:261|468:248,1,135,2|0,0:0|0:0,0:0:0:0:
508,271,52388,1,2,0:0:0:0:
392,182,52622,1,2,0:0:0:0:
376,40,53326,5,2,0:0:0:0:
392,112,53560,1,2,0:0:0:0:
328,152,53794,1,2,0:0:0:0:
276,100,54029,1,2,0:0:0:0:
208,80,54263,5,2,0:0:0:0:
192,8,54497,1,2,0:0:0:0:
208,80,54732,1,2,0:0:0:0:
260,28,54966,1,2,0:0:0:0:
140,56,55201,5,2,0:0:0:0:
276,100,55435,1,2,0:0:0:0:
220,232,55669,1,2,0:0:0:0:
84,188,55904,1,2,0:0:0:0:
180,148,56138,5,2,0:0:0:0:
220,232,56372,1,2,0:0:0:0:
361,132,56607,1,2,0:0:0:0:
308,208,56841,1,2,0:0:0:0:
228,56,57076,5,2,0:0:0:0:
248,160,57310,1,2,0:0:0:0:
296,276,57544,1,2,0:0:0:0:
420,352,57778,1,2,0:0:0:0:
484,200,58013,5,2,0:0:0:0:
328,160,58247,1,2,0:0:0:0:
296,180,58365,1,0,0:0:0:0:
264,200,58482,1,2,0:0:0:0:
104,196,58716,1,2,0:0:0:0:
20,56,58951,6,0,B|100:40|100:40|162:57|162:57|240:36,1,225,2|0,0:0|0:0,0:0:0:0:
308,52,59654,1,2,0:0:0:0:
336,60,59771,1,2,0:0:0:0:
364,68,59888,2,0,B|436:84|436:84|416:160|416:160,1,135,2|0,0:0|0:0,0:0:0:0:
404,188,60357,2,0,L|360:176,1,45,4|0,0:1|0:0,0:0:0:0:
264,180,60591,2,0,L|220:168,1,45
104,212,60826,6,0,B|141:220|141:220|172:248|172:248|272:276,1,180,4|8,0:0|0:0,0:0:0:0:
424,364,61529,2,0,L|380:352,1,45
268,275,61763,2,0,B|231:264|231:264|201:237|201:237|104:209,1,180,4|8,0:0|0:0,0:0:0:0:
268,275,62466,1,0,0:0:0:0:
268,275,62583,1,0,0:0:0:0:
267,274,62701,6,0,L|354:299,1,90,8|0,0:0|0:0,0:0:0:0:
157,226,63169,2,0,L|92:289,1,90,8|0,0:0|0:0,0:0:0:0:
170,103,63638,2,0,B|251:151|251:151|231:68,1,180,8|8,0:0|0:0,0:0:0:0:
344,224,64341,1,0,0:0:0:0:
344,224,64458,1,0,0:0:0:0:
344,224,64576,6,0,L|366:317,1,90,8|0,0:0|0:0,0:0:0:0:
147,311,65044,2,0,L|168:224,1,90,8|0,0:0|0:0,0:0:0:0:
380,144,65513,2,0,B|408:176|408:176|424:220,1,90,8|0,0:0|0:0,0:0:0:0:
88,220,65982,2,0,B|104:176|104:176|132:144,1,90,8|0,0:0|0:0,0:0:0:0:
372,132,66451,6,0,P|465:74|365:125,1,360,8|8,0:0|0:0,0:0:0:0:
464,276,67622,2,0,L|496:264,4,22.5,8|0|8|0|8,3:0|0:0|3:0|0:0|3:0,0:0:0:0:
300,352,68091,2,0,L|256:344,1,45,2|0,0:0|0:0,0:0:0:0:
71,275,68326,6,0,B|194:254|194:254|140:236,1,180,4|8,0:0|0:0,0:0:0:0:
256,344,69029,2,0,L|212:352,1,45
441,275,69263,2,0,B|318:254|318:254|372:236,1,180,12|8,0:0|0:0,0:0:0:0:
184,120,69966,1,0,0:0:0:0:
184,120,70083,1,0,0:0:0:0:
184,120,70201,6,0,L|288:104,1,90,8|0,0:0|0:0,0:0:0:0:
432,240,70669,2,0,L|328:256,1,90,8|0,0:0|0:0,0:0:0:0:
144,208,71138,2,0,B|60:220|60:220|16:204|16:204|60:184,1,180,8|8,0:0|0:0,0:0:0:0:
184,44,71841,1,0,0:0:0:0:
184,44,71958,1,0,0:0:0:0:
184,44,72076,6,0,B|232:35|232:35|279:47,1,90,8|0,0:0|0:0,0:0:0:0:
388,168,72544,2,0,B|340:159|340:159|293:171,1,90,8|0,0:0|0:0,0:0:0:0:
178,278,73013,2,0,B|137:258|137:258|124:216,1,90,8|0,0:0|0:0,0:0:0:0:
333,105,73482,2,0,B|373:124|373:124|387:167,1,90,8|0,0:0|0:0,0:0:0:0:
178,278,73951,6,0,B|97:314|97:314|64:228|64:228|144:192|144:192|180:280,1,360,8|8,0:0|0:0,0:0:0:0:
440,156,75357,2,0,L|406:72,1,90
280,140,75826,6,0,L|188:120,1,90,4|0,1:0|0:0,0:0:0:0:
48,212,76294,2,0,B|140:192,1,90,8|0,1:0|0:0,0:0:0:0:
212,264,76646,1,0,0:0:0:0:
212,264,76763,2,0,L|304:244,1,90,0|0,1:0|0:0,0:0:0:0:
440,216,77232,1,8,1:0:0:0:
286,333,77466,1,0,0:0:0:0:
286,333,77583,1,0,0:0:0:0:
286,333,77701,6,0,L|302:229,1,90,0|0,1:0|0:0,0:0:0:0:
118,147,78169,2,0,L|200:213,1,90,8|0,1:0|0:0,0:0:0:0:
363,95,78638,2,0,B|275:127|275:127|300:84,1,135,0|0,1:0|0:0,0:0:0:0:
248,36,79107,2,0,L|200:116,1,90,8|0,1:0|0:0,0:0:0:0:
160,172,79458,1,0,0:0:0:0:
160,172,79576,6,0,L|68:156,1,90,0|0,1:0|0:0,0:0:0:0:
280,256,80044,2,0,L|188:240,1,90,8|0,1:0|0:0,0:0:0:0:
348,316,80513,2,0,B|364:276|364:276|356:228,1,90,0|0,1:0|0:0,0:0:0:0:
167,85,80982,2,0,B|151:125|151:125|158:171,1,90,8|0,1:0|0:0,0:0:0:0:
236,324,81451,6,0,B|264:144,2,180,0|0|0,1:0|1:0|1:0,0:0:0:0:
344,172,82622,2,0,L|347:149,4,22.5,8|0|8|0|8,3:0|0:0|3:0|0:0|3:0,0:0:0:0:
416,336,83091,1,2,0:0:0:0:
236,324,83326,6,0,L|148:344,1,90,4|0,1:0|0:0,0:0:0:0:
333,327,83794,2,0,B|317:283|317:283|280:252,1,90,8|0,1:0|0:0,0:0:0:0:
244,160,84146,1,0,0:0:0:0:
244,160,84263,2,0,B|259:116|259:116|296:85,1,90,0|0,1:0|0:0,0:0:0:0:
388,240,84732,1,8,1:0:0:0:
160,128,84966,1,0,0:0:0:0:
160,128,85083,1,0,0:0:0:0:
160,128,85201,6,0,L|248:104,1,90,0|0,1:0|0:0,0:0:0:0:
468,132,85669,2,0,L|380:156,1,90,8|0,1:0|0:0,0:0:0:0:
248,340,86138,2,0,B|347:317|347:317|304:308,1,135,0|0,1:0|0:0,0:0:0:0:
272,232,86607,2,0,L|364:251,1,90,8|0,1:0|0:0,0:0:0:0:
438,218,86958,1,0,0:0:0:0:
438,218,87076,6,0,B|448:264|448:264|432:304,1,90,0|0,1:0|0:0,0:0:0:0:
202,266,87544,2,0,B|192:224|192:224|209:181,1,90,8|0,1:0|0:0,0:0:0:0:
46,138,88013,2,0,B|28:100|28:100|37:52,1,90,0|0,1:0|0:0,0:0:0:0:
269,49,88481,2,0,B|288:88|288:88|278:133,1,90,8|0,1:0|0:0,0:0:0:0:
56,252,88951,6,0,B|101:191|184:161|234:300|317:270|377:201,1,360,0|0,1:0|0:0,0:0:0:0:
377,200,90826,6,0,L|288:184,1,90,2|0,1:0|0:0,0:0:0:0:
135,92,91294,2,0,L|224:108,1,90,2|0,1:0|0:0,0:0:0:0:
409,102,91763,1,2,1:0:0:0:
475,163,91997,1,0,0:0:0:0:
331,140,92232,1,2,1:0:0:0:
428,260,92466,1,0,0:0:0:0:
204,224,92701,1,2,1:0:0:0:
204,224,93169,2,2,B|143:214|143:214|71:225|71:225|23:216,2,180,2|2|2,1:0|1:0|1:0,1:0:0:0:
460,156,94576,5,2,1:0:0:0:
484,260,94810,2,0,L|396:240,1,90,2|2,1:0|1:0,0:0:0:0:
172,60,95513,1,2,1:0:0:0:
84,80,95747,1,0,0:1:0:0:
220,132,95982,1,2,1:0:0:0:
76,188,96216,1,0,0:0:0:0:
288,268,96451,1,2,1:0:0:0:
288,268,96919,2,2,B|348:258|348:258|420:269|420:269|468:260,2,180,2|2|2,1:0|1:0|1:0,1:0:0:0:
148,308,98091,1,0,0:0:0:0:
344,352,98326,5,2,1:0:0:0:
204,236,98560,1,0,1:0:0:0:
393,312,98794,5,2,1:0:0:0:
184,252,99028,1,0,1:0:0:0:
435,227,99263,5,2,1:0:0:0:
149,260,99497,1,0,1:0:0:0:
416,103,99732,5,2,1:0:0:0:
106,244,99966,1,2,1:0:0:0:
154,20,100201,5,2,1:0:0:0:
308,148,100435,1,0,1:0:0:0:
99,64,100669,5,2,1:0:0:0:
330,131,100903,1,0,1:0:0:0:
53,158,101138,5,2,1:0:0:0:
368,122,101372,1,0,1:0:0:0:
74,293,101607,5,2,1:0:0:0:
416,139,101841,1,2,1:0:0:0:
144,16,102076,5,2,1:0:0:0:
118,47,102193,1,0,1:0:0:0:
95,92,102310,1,0,1:0:0:0:
87,148,102427,1,0,1:0:0:0:
89,206,102544,1,2,1:0:0:0:
110,266,102661,1,0,1:0:0:0:
150,327,102779,1,0,1:0:0:0:
212,368,102896,1,0,1:0:0:0:
288,384,103013,6,0,L|262:386,1,22.5,2|0,1:0|0:0,0:0:0:0:
292,344,103130,2,0,L|272:379,1,22.5,0|0,1:0|0:0,0:0:0:0:
294,299,103247,2,0,L|305:340,1,22.5,2|0,1:0|0:0,0:0:0:0:
286,249,103365,2,0,L|323:270,1,22.5,0|0,1:0|0:0,0:0:0:0:
268,198,103482,2,0,L|310:188,1,22.5,2|0,1:0|0:0,0:0:0:0:
238,147,103599,2,0,L|261:113,1,22.5,0|0,1:0|0:0,0:0:0:0:
195,100,103716,2,0,L|187:59,1,22.5,2|0,1:0|0:0,0:0:0:0:
135,55,103833,2,0,L|101:33,1,22.5,0|0,1:0|0:0,0:0:0:0:
42,29,103951,6,0,B|77:5|126:51|95:112|45:101|45:101|69:118|84:138|73:166|53:194|12:186|-2:156,1,300,2|0,0:0|0:0,0:0:0:0:
149,138,104302,2,0,B|153:84|239:86|245:166|165:234|165:234|253:218,1,300,2|0,0:0|0:0,0:0:0:0:
297,166,104654,2,0,B|341:154|341:154|297:278|297:278|253:290|253:290|329:318,1,300,2|0,0:0|0:0,0:0:0:0:
180,76,105122,6,0,B|154:153|154:153|219:176,1,150,2|0,0:0|0:0,0:0:0:0:
364,220,105357,2,0,B|406:202|406:202|428:255|381:294|325:288|296:248|296:200|320:168|360:156,1,300,2|0,0:0|0:0,0:0:0:0:
456,44,105826,6,0,B|404:20|404:20|328:32,1,135.000005149842,6|0,1:0|0:0,0:0:0:0:
70,144,106294,2,0,B|122:120|122:120|198:132,1,135.000005149842,2|0,1:0|0:0,0:0:0:0:
332,108,106763,2,0,B|383:152|383:152|447:123,1,135.000005149842,2|0,1:0|0:0,0:0:0:0:
196,200,107232,2,0,B|145:244|145:244|81:215,1,135.000005149842,2|0,1:0|0:0,0:0:0:0:
367,357,107701,6,0,L|377:222,1,135.000005149842,2|0,1:0|0:0,0:0:0:0:
144,24,108169,2,0,L|133:158,1,135.000005149842,2|0,1:0|0:0,0:0:0:0:
133,158,108638,1,2,1:0:0:0:
377,223,108872,1,0,1:0:0:0:
137,267,109107,2,2,B|187:235|205:341|335:318|316:208|378:224,1,270.000010299683,2|0,1:0|1:0,1:0:0:0:
377,223,109810,5,2,1:0:0:0:
133,158,110044,2,0,B|121:62|121:62|145:30,1,135.000005149842,2|0,1:0|0:0,0:0:0:0:
444,152,110513,2,0,B|456:248|456:248|432:280,1,135.000005149842,2|0,1:0|0:0,0:0:0:0:
122,284,110982,2,0,B|110:188|110:188|134:156,1,135.000005149842,2|0,1:0|0:0,0:0:0:0:
353,68,111451,6,0,L|219:53,1,135.000005149842,2|0,1:0|0:0,0:0:0:0:
85,34,111919,1,2,1:0:0:0:
132,157,112154,1,2,0:1:0:0:
292,252,112388,1,2,1:0:0:0:
460,105,112622,2,0,L|494:101,3,33.7500012874604,2|0|2|0,3:0|0:0|3:0|0:0,0:0:0:0:
436,83,112857,6,8,B|400:91|400:91|376:143|376:143|332:151|332:151|304:115|304:115|324:67|324:67|300:43,1,270,0|0,1:0|0:0,0:3:0:0:
136,35,113326,6,0,B|106:79|106:79|132:157,1,135.000005149842,6|0,1:0|0:0,0:0:0:0:
392,152,113794,2,0,B|368:200|368:200|288:216,1,135.000005149842,2|0,1:0|0:0,0:0:0:0:
28,328,114263,2,0,B|107:312|107:312|155:340,1,135.000005149842,2|0,1:0|0:0,0:0:0:0:
392,152,114732,2,0,B|312:167|312:167|264:139,1,135.000005149842,2|0,1:0|0:0,0:0:0:0:
48,32,115201,6,0,B|98:59|98:59|60:132,1,135.000005149842,2|0,1:0|0:0,0:0:0:0:
245,215,115669,2,0,B|287:281|287:281|336:252,1,135.000005149842,2|0,1:0|0:0,0:0:0:0:
428,28,116138,1,2,1:0:0:0:
512,284,116372,1,0,1:0:0:0:
352,140,116607,2,2,B|302:172|284:66|154:89|173:199|111:183,1,270.000010299683,2|0,1:0|1:0,1:0:0:0:
111,183,117310,5,2,0:1:0:0:
352,140,117544,2,0,B|450:155|450:155|416:167,1,135.000005149842,2|0,1:0|0:0,0:0:0:0:
256,240,118013,1,2,1:0:0:0:
460,304,118247,1,0,0:0:0:0:
252,152,118482,1,10,1:3:0:0:
8,228,118716,1,8,0:3:0:0:
8,228,118951,6,0,L|188:252,1,180,6|0,1:0|0:0,0:0:0:0:
344,188,119302,2,0,L|170:133,1,180,2|0,1:0|0:0,0:0:0:0:
108,36,119654,2,0,L|204:24,1,90,2|0,1:0|0:0,0:0:0:0:
405,18,119888,6,0,L|343:187,1,180,6|0,1:0|0:0,0:0:0:0:
466,362,120240,2,0,L|444:184,1,180,2|0,1:0|0:0,0:0:0:0:
253,34,120591,2,0,L|264:124,1,90,2|0,1:0|0:0,0:0:0:0:
348,300,120826,6,0,B|280:312|280:312|220:284,1,135.000005149842,6|0,1:0|3:0,0:0:0:0:
80,212,121177,1,2,0:3:0:0:
80,212,121294,2,0,B|148:224|148:224|208:196,1,135.000005149842,2|0,1:0|0:0,0:0:0:0:
336,76,121646,1,2,0:3:0:0:
336,76,121763,2,0,B|420:88|420:88|384:128,1,135.000005149842,2|0,1:0|0:0,0:0:0:0:
248,252,122115,1,2,0:3:0:0:
248,252,122232,2,0,B|263:299|263:299|311:237|311:237|288:160,1,202.500007724762,2|0,1:0|0:0,0:0:0:0:
224,128,122701,6,0,B|144:116|144:116|92:132,1,135.000005149842,2|0,1:0|0:0,0:0:0:0:
12,300,123052,1,2,0:3:0:0:
12,300,123169,2,0,B|92:312|92:312|144:296,1,135.000005149842,2|0,1:0|0:0,0:0:0:0:
256,220,123638,1,2,1:0:0:0:
172,368,123872,1,0,0:0:0:0:
92,131,124107,2,2,B|56:40|56:40|16:164|16:164|60:144,1,270.000010299683,2|0,1:0|1:0,1:0:0:0:
54,146,124810,5,2,0:1:0:0:
248,292,125044,2,0,B|284:332|284:332|332:252,1,135.000005149842,2|0,1:0|0:0,0:0:0:0:
304,144,125396,1,2,0:3:0:0:
304,144,125513,2,0,L|168:160,1,135.000005149842,2|0,1:0|0:0,0:0:0:0:
0,232,125865,1,2,0:3:0:0:
0,232,125982,2,0,B|68:224|68:224|129:246|129:246|204:240,1,202.500007724762,2|0,1:0|0:0,0:0:0:0:
304,144,126450,6,0,B|380:154|380:154|412:204,1,135.000005149842,2|0,1:0|0:0,0:0:0:0:
168,356,126802,1,2,0:3:0:0:
168,356,126919,6,0,B|93:345|93:345|60:296,1,135.000005149842,2|0,1:0|0:0,0:0:0:0:
0,60,127388,1,2,1:0:0:0:
244,176,127622,2,0,L|203:166,3,33.7500012874604,2|0|2|0,3:0|0:0|3:0|0:0,0:0:0:0:
184,180,127857,2,0,B|198:223|198:223|249:242|249:242|324:196|324:196|360:208|360:208|372:252,1,270,0|0,1:0|1:0,1:0:0:0:
400,364,128326,5,2,1:3:0:0:
464,204,128560,1,0,1:0:0:0:
324,320,128794,5,2,1:3:0:0:
340,100,129028,1,0,1:0:0:0:
240,296,129263,5,2,1:3:0:0:
176,40,129497,1,0,1:0:0:0:
152,284,129732,5,2,1:3:0:0:
0,48,129966,1,2,1:3:0:0:
112,364,130201,5,2,1:3:0:0:
0,48,130435,1,0,1:0:0:0:
188,320,130669,5,2,1:3:0:0:
176,40,130903,1,0,1:0:0:0:
272,296,131138,5,2,1:3:0:0:
340,100,131372,1,0,1:0:0:0:
360,284,131607,5,2,1:3:0:0:
512,204,131841,1,0,1:0:0:0:
404,352,132076,5,4,1:3:0:0:
352,364,132193,1,2,0:3:0:0:
304,344,132310,1,0,0:0:0:0:
280,296,132427,1,0,0:0:0:0:
292,240,132544,5,2,0:3:0:0:
260,232,132661,1,0,0:0:0:0:
228,240,132779,1,0,0:0:0:0:
200,256,132896,1,0,0:0:0:0:
180,280,133013,5,4,0:3:0:0:
248,308,133130,1,0,0:0:0:0:
320,288,133247,1,2,0:3:0:0:
372,232,133365,1,0,0:0:0:0:
320,172,133481,5,6,0:3:0:0:
244,148,133599,1,0,0:0:0:0:
164,152,133715,1,0,0:0:0:0:
92,192,133833,1,0,0:0:0:0:
56,264,133951,6,0,L|40:312,7,45,4|0|0|0|0|0|0|0,0:3|0:0|0:3|0:0|0:0|0:0|0:0|0:0,0:0:0:0:
172,224,134419,6,0,L|184:284,7,56.25
288,176,134888,6,0,L|299:129,14,33.7500051498421
400,228,135357,6,0,L|410:265,14,37.5
476,92,135826,5,4,0:0:0:0:
