osu file format v14

[General]
AudioFilename: audio.mp3
AudioLeadIn: 0
PreviewTime: 45625
Countdown: 0
SampleSet: Soft
StackLeniency: 0.3
Mode: 0
LetterboxInBreaks: 0
EpilepsyWarning: 1
WidescreenStoryboard: 1

[Editor]
Bookmarks: 860,15860,30860,45860,60860,90860,105860
DistanceSpacing: 1.1
BeatDivisor: 8
GridSize: 8
TimelineZoom: 2.999999

[Metadata]
Title:SPIDER NET WORK - CleanTears Remix -
TitleUnicode:SPIDER NET WORK - CleanTears Remix -
Artist:Ayakura Mei
ArtistUnicode:綾倉盟
Creator:-Tochi
Version:Lunatic
Source:東方地霊殿 ~ Subterranean Animism.
Tags:Half Pennek Touhou Project 東方Project ESQUARIA DEAR LOVERS 2 Nakaji Motome RUON ZUN Yamame Kurodani chillstep electronic female japanese vocals 中路もとめ cut version video game S.C.X Alstroemeria Records EQ-0012 β Reitaisai 14 封じられた妖怪 ~ Lost Place the sealed away youkai ~
BeatmapID:1966765
BeatmapSetID:941875

[Difficulty]
HPDrainRate:6
CircleSize:4
OverallDifficulty:8
ApproachRate:9.2
SliderMultiplier:2
SliderTickRate:1

[Events]
//Background and Video events
0,0,"bg.jpg",0,0
//Break Periods
//Storyboard Layer 0 (Background)
//Storyboard Layer 1 (Fail)
//Storyboard Layer 2 (Pass)
//Storyboard Layer 3 (Foreground)
//Storyboard Layer 4 (Overlay)
//Storyboard Sound Samples

[TimingPoints]
860,468.75,4,2,1,30,1,0
12110,-200,4,2,1,30,0,0
15742,-200,4,2,1,5,0,0
15860,-142.857142857143,4,2,1,40,0,0
23242,-142.857142857143,4,2,1,5,0,0
23360,-142.857142857143,4,2,1,40,0,0
30391,-66.6666666666667,4,2,1,40,0,0
30860,-100,4,2,1,60,0,0
31914,-142.857142857143,4,2,1,60,0,0
32266,-100,4,2,1,60,0,0
32735,-125,4,2,1,60,0,0
33086,-100,4,2,1,60,0,0
34141,-200,4,2,1,60,0,0
34610,-100,4,2,1,60,0,0
35430,-100,4,2,1,5,0,0
35547,-142.857142857143,4,2,1,60,0,0
35899,-100,4,2,1,60,0,0
38711,-142.857142857143,4,2,1,60,0,0
39297,-100,4,2,1,60,0,0
40117,-142.857142857143,4,2,1,60,0,0
40469,-76.9230769230769,4,2,1,60,0,0
40703,-100,4,2,1,60,0,0
40938,-142.857142857143,4,2,1,60,0,0
42110,-100,4,2,1,60,0,0
44922,-83.3333333333333,4,2,1,60,0,0
45860,-166.666666666667,4,2,2,70,0,0
46035,-166.666666666667,4,2,2,5,0,0
46094,-55.5555555555556,4,2,2,70,0,0
49551,-55.5555555555556,4,2,2,5,0,0
49610,-100,4,2,2,70,0,0
49844,-100,4,2,2,5,0,0
49961,-100,4,2,2,70,0,0
50313,-55.5555555555556,4,2,2,70,0,0
51250,-100,4,2,2,70,0,0
51426,-100,4,2,2,5,0,0
51485,-55.5555555555556,4,2,2,70,0,0
53360,-166.666666666667,4,2,2,70,0,0
53535,-166.666666666667,4,2,2,5,0,0
53594,-55.5555555555556,4,2,2,70,0,0
57051,-55.5555555555556,4,2,2,5,0,0
57110,-100,4,2,2,70,0,0
57344,-100,4,2,2,5,0,0
57461,-100,4,2,2,70,0,0
57813,-55.5555555555556,4,2,2,70,0,0
58750,-100,4,2,2,70,0,0
58926,-100,4,2,2,5,0,0
58985,-55.5555555555556,4,2,1,70,0,0
59922,-55.5555555555556,4,2,2,70,0,0
60039,-100,4,2,2,70,0,0
60332,-100,4,2,2,5,0,0
60391,-76.9230769230769,4,2,2,70,0,0
60801,-76.9230769230769,4,2,2,5,0,0
60860,-62.5,4,2,2,80,0,1
61797,-76.9230769230769,4,2,2,80,0,1
62149,-62.5,4,2,2,80,0,1
62852,-76.9230769230769,4,2,2,80,0,1
64024,-50,4,2,2,80,0,1
64375,-62.5,4,2,2,80,0,1
65547,-76.9230769230769,4,2,2,80,0,1
65899,-62.5,4,2,2,80,0,1
66602,-76.9230769230769,4,2,2,80,0,1
66953,-125,4,2,2,80,0,1
67188,-100,4,2,2,80,0,1
67422,-66.6666666666667,4,2,2,80,0,1
68360,-62.5,4,2,2,80,0,1
69297,-76.9230769230769,4,2,2,80,0,1
69649,-62.5,4,2,2,80,0,1
70352,-76.9230769230769,4,2,2,80,0,1
71524,-50,4,2,2,80,0,1
71875,-62.5,4,2,2,80,0,1
73047,-76.9230769230769,4,2,2,80,0,1
73399,-62.5,4,2,2,80,0,1
74102,-76.9230769230769,4,2,2,80,0,1
74453,-125,4,2,2,80,0,1
74688,-100,4,2,2,80,0,1
74922,-66.6666666666667,4,2,2,80,0,0
75391,-55.5555555555556,4,2,2,80,0,0
75860,-62.5,4,2,2,80,0,1
76328,-71.4285714285714,4,2,2,80,0,1
76797,-76.9230769230769,4,2,2,80,0,1
77149,-62.5,4,2,2,80,0,1
77852,-76.9230769230769,4,2,2,80,0,1
79024,-50,4,2,2,80,0,1
79375,-62.5,4,2,2,80,0,1
80547,-76.9230769230769,4,2,2,80,0,1
80899,-62.5,4,2,2,80,0,1
81602,-76.9230769230769,4,2,2,80,0,1
81953,-125,4,2,2,80,0,1
82188,-100,4,2,2,80,0,1
82422,-66.6666666666667,4,2,2,80,0,1
83360,-62.5,4,2,2,80,0,1
84297,-76.9230769230769,4,2,2,80,0,1
84649,-62.5,4,2,2,80,0,1
85352,-76.9230769230769,4,2,2,80,0,1
86524,-50,4,2,2,80,0,1
86875,-62.5,4,2,2,80,0,1
89102,-76.9230769230769,4,2,2,80,0,1
89453,-125,4,2,2,80,0,1
89688,-100,4,2,2,80,0,1
89922,-62.5,4,2,2,80,0,0
94258,-62.5,4,2,2,5,0,0

[Colours]
Combo1 : 236,128,108
Combo2 : 188,141,107
Combo3 : 131,138,167
Combo4 : 149,192,109

[HitObjects]
256,192,12110,12,0,15742,0:0:0:0:
340,31,15860,5,0,3:0:0:0:
319,201,16094,1,2,0:0:0:0:
427,72,16328,1,0,0:0:0:0:
412,190,16562,1,2,3:2:0:0:
412,190,17031,1,2,0:0:0:0:
249,208,17266,2,0,L|319:201,1,69.9999978637696,0|2,3:0|0:0,0:0:0:0:
412,190,17735,5,0,3:0:0:0:
457,268,17969,1,2,0:0:0:0:
393,333,18203,1,0,0:0:0:0:
415,372,18438,2,0,B|343:364|343:364|326:374|326:374|208:362,1,209.999993591309,2|0,3:2|0:0,0:0:0:0:
115,351,19610,5,0,3:0:0:0:
205,235,19844,1,2,3:2:0:0:
208,362,20078,2,0,P|232:298|205:235,1,139.999995727539,0|0,0:0|0:0,0:0:0:0:
114,231,20781,1,2,3:2:0:0:
205,235,21016,1,0,0:0:0:0:
23,227,21250,1,2,0:0:0:0:
313,314,21485,5,0,3:0:0:0:
388,206,21719,1,2,0:0:0:0:
284,131,21953,1,0,0:0:0:0:
205,235,22188,1,2,3:2:0:0:
188,223,22656,1,2,0:0:0:0:
371,194,22891,2,0,L|282:130,1,104.999996795654,0|0,0:0|0:0,0:0:0:0:
267,119,23360,5,0,3:0:0:0:
102,159,23594,1,2,0:0:0:0:
266,212,23828,1,0,0:0:0:0:
150,239,24062,1,2,3:2:0:0:
150,239,24531,1,0,0:0:0:0:
334,197,24766,2,0,L|265:212,1,69.9999978637696,0|0,3:0|0:0,0:0:0:0:
150,239,25235,5,0,3:0:0:0:
102,159,25469,1,2,0:0:0:0:
168,94,25703,1,0,0:0:0:0:
144,53,25938,2,0,B|269:35|269:35|270:41|270:41|269:35|269:35|340:26,1,209.999993591309,2|0,3:2|0:0,0:0:0:0:
445,42,27110,5,0,3:0:0:0:
377,160,27344,1,2,3:2:0:0:
338,26,27578,2,0,L|377:161,1,139.999995727539,2|0,0:0|0:0,0:0:0:0:
351,247,28281,1,2,3:2:0:0:
377,160,28516,1,0,0:0:0:0:
325,334,28750,1,2,0:0:0:0:
282,177,28985,6,0,B|215:170|215:170|170:182,2,104.999996795654,0|0|0,3:0|0:0|3:0,0:0:0:0:
222,266,29922,1,0,3:0:0:0:
472,59,30391,6,0,B|442:63|442:63|433:60|433:60|399:65,1,75.0000028610231,2|0,0:0|0:0,0:0:0:0:
353,71,30625,1,0,3:0:0:0:
263,84,30742,1,0,3:0:0:0:
426,154,30860,6,0,P|455:215|436:299,1,150,4|2,1:2|0:0,0:0:0:0:
407,324,31328,1,2,0:0:0:0:
318,343,31445,2,0,B|279:349|279:349|288:335,1,50,0|0,0:0|0:0,0:0:0:0:
74,262,31797,5,8,3:2:0:0:
74,262,31856,1,0,3:0:0:0:
74,262,31914,2,0,P|86:301|89:330,1,69.9999978637696,0|0,3:0|0:0,0:0:0:0:
207,325,32266,6,0,P|215:275|231:228,1,100,0|0,1:0|0:0,0:0:0:0:
256,191,32617,1,2,0:0:0:0:
344,209,32735,6,0,L|333:129,1,80,0|0,0:0|0:0,0:0:0:0:
412,54,33086,6,0,L|425:153,1,100,0|2,0:0|0:0,0:0:0:0:
433,197,33438,1,0,3:0:0:0:
445,286,33555,1,0,3:0:0:0:
356,298,33672,6,0,L|359:324,2,25,8|0|0,3:2|3:0|3:0,0:0:0:0:
344,209,33906,1,2,0:0:0:0:
240,313,34141,6,0,L|243:336,1,12.5,2|0,0:0|0:0,0:0:0:0:
224,197,34375,1,2,0:0:0:0:
160,260,34492,1,0,3:0:0:0:
89,332,34610,6,0,B|76:265|76:265|82:255|82:255|67:177,1,150,0|0,1:0|1:0,0:0:0:0:
58,142,35078,1,2,0:0:0:0:
146,126,35195,1,2,0:0:0:0:
224,197,35313,2,0,B|228:221|228:221|226:224|226:224|230:247,1,50,0|0,1:0|0:0,0:0:0:0:
89,332,35547,6,0,L|162:335,1,69.9999978637696,8|0,3:2|0:0,0:0:0:0:
316,215,35899,6,0,L|415:210,1,100,0|0,0:0|0:0,0:0:0:0:
460,210,36250,1,0,1:0:0:0:
467,299,36367,1,2,0:0:0:0:
378,306,36485,6,0,P|335:290|221:300,1,150,0|0,0:0|0:0,0:0:0:0:
192,316,36953,1,2,0:0:0:0:
103,296,37070,1,2,0:0:0:0:
163,231,37188,2,0,L|181:209,2,25,0|0|0,0:0|3:0|1:0,0:0:0:0:
371,217,37422,5,8,3:2:0:0:
371,217,37481,1,0,3:0:0:0:
371,217,37539,2,0,P|320:216|274:191,1,100,0|0,3:0|0:0,0:0:0:0:
178,107,37891,6,0,P|147:174|76:219,1,150,2|2,0:0|0:0,0:0:0:0:
30,144,38360,6,0,P|53:98|96:71,1,100,2|0,0:0|0:0,0:0:0:0:
178,107,38711,6,0,P|212:124|228:152,1,69.9999978637696,0|2,0:0|0:0,0:0:0:0:
192,235,39063,6,0,P|183:252|169:260,1,34.9999989318848,0|0,0:0|0:0,0:0:0:0:
85,224,39297,6,0,P|98:298|109:379,1,150,8|0,3:2|0:0,0:0:0:0:
255,316,39766,5,0,1:0:0:0:
255,316,40000,1,0,0:0:0:0:
344,303,40117,2,0,L|414:294,1,69.9999978637696,2|0,0:0|0:0,0:0:0:0:
469,206,40469,6,0,L|449:145,1,64.9999970245363,0|0,0:0|0:0,0:0:0:0:
341,144,40703,6,0,L|310:105,1,50,2|2,0:0|0:0,0:0:0:0:
201,131,40938,6,0,L|171:112,1,34.9999989318848,0|0,3:0|1:0,0:0:0:0:
63,166,41172,6,0,L|41:162,2,17.4999994659424,8|0|0,3:2|3:0|3:0,0:0:0:0:
148,186,41406,1,0,0:0:0:0:
43,251,41641,1,2,0:0:0:0:
153,276,41875,1,0,0:0:0:0:
83,316,41992,1,2,0:0:0:0:
17,361,42110,6,0,B|85:366|85:366|91:358|91:358|162:365,1,150,0|2,1:0|0:0,0:0:0:0:
341,144,42695,1,2,0:0:0:0:
364,182,42813,1,0,0:0:0:0:
265,259,43047,6,0,B|333:253|333:253|339:261|339:261|410:254,2,150,2|2|2,0:0|0:0|0:0,0:0:0:0:
220,265,43867,1,2,0:0:0:0:
130,274,43985,6,0,P|121:248|117:221,1,50,2|0,0:0|0:0,0:0:0:0:
250,130,44219,2,0,P|241:153|237:178,1,50,2|0,0:0|0:0,0:0:0:0:
70,346,44453,2,0,P|53:326|41:305,1,50,2|2,0:0|0:0,0:0:0:0:
325,174,44688,1,0,3:0:0:0:
130,274,44922,6,0,B|139:305|139:305|165:329|165:329|200:339|200:339|235:329|235:329|260:304|260:304|270:268|270:268|260:233|260:233|235:206|235:206|195:196|195:196|165:206,1,359.999989013672,2|2,0:0|0:0,0:0:0:0:
199,268,45742,1,2,0:0:0:0:
338,308,45860,6,0,L|382:303,1,44.999998626709,6|0,1:2|0:0,0:0:0:0:
452,330,46094,6,0,L|356:339,1,89.9999972534181,2|0,0:0|0:0,0:0:0:0:
339,229,46328,2,0,L|428:220,1,89.9999972534181,2|0,0:0|0:0,0:0:0:0:
404,110,46563,2,0,L|315:119,1,89.9999972534181,2|0,0:0|0:0,0:0:0:0:
45,211,46797,2,0,L|89:206,2,44.999998626709,8|0|0,3:2|3:0|3:0,0:0:0:0:
118,281,47031,6,0,B|175:290|175:290|200:268,1,89.9999972534181,2|0,0:0|0:0,0:0:0:0:
420,215,47266,2,0,B|363:206|363:206|338:228,1,89.9999972534181,0|0,1:0|0:0,0:0:0:0:
391,301,47500,1,2,0:0:0:0:
391,301,47617,1,0,0:0:0:0:
298,157,47735,5,0,0:0:0:0:
227,116,47852,1,0,0:0:0:0:
228,196,47969,2,0,L|137:203,1,89.9999972534181,2|0,0:0|0:0,0:0:0:0:
368,36,48203,5,2,0:0:0:0:
297,77,48320,1,0,0:0:0:0:
367,116,48437,2,0,L|458:123,1,89.9999972534181,2|0,0:0|1:0,0:0:0:0:
420,215,48672,1,10,3:2:0:0:
420,215,48789,1,0,3:0:0:0:
380,287,48906,6,0,B|422:303|422:303|464:285,1,89.9999972534181,2|0,0:0|0:0,0:0:0:0:
311,198,49141,2,0,B|269:213|269:213|227:195,1,89.9999972534181,2|0,0:0|0:0,0:0:0:0:
31,342,49375,2,0,B|124:324|124:324|89:305,1,134.999995880127,2|0,0:0|0:0,0:0:0:0:
33,222,49610,6,0,P|18:174|12:124,1,100,2|0,1:2|0:0,0:0:0:0:
311,198,49961,6,0,P|322:246|325:296,1,100,2|0,1:2|0:0,0:0:0:0:
204,362,50313,6,0,B|232:326|232:326|204:286,1,89.9999972534181,2|0,1:2|0:0,0:0:0:0:
443,300,50547,2,0,B|415:336|415:336|440:372,1,89.9999972534181,10|0,3:2|0:0,0:0:0:0:
35,320,50781,2,0,P|80:321|125:324,1,89.9999972534181,2|0,0:0|0:0,0:0:0:0:
400,194,51016,2,0,P|355:197|311:197,1,89.9999972534181,2|0,0:0|0:0,0:0:0:0:
10,80,51250,6,0,B|14:22|14:22|30:42,1,75,2|0,1:2|0:0,0:0:0:0:
90,79,51485,6,0,P|179:77|269:73,1,179.999994506836,2|2,0:0|0:0,0:0:0:0:
443,300,51836,2,0,P|353:295|263:294,1,179.999994506836,0|0,0:0|0:0,0:0:0:0:
124,324,52188,2,0,L|133:278,1,44.999998626709,2|0,0:0|3:0,0:0:0:0:
137,258,52305,1,0,1:0:0:0:
244,154,52422,2,0,L|253:108,2,44.999998626709,10|0|0,3:2|3:0|3:0,0:0:0:0:
315,209,52656,6,0,B|372:213|372:213|400:194,1,89.9999972534181,2|0,0:0|0:0,0:0:0:0:
155,118,52891,2,0,B|98:122|98:122|70:103,1,89.9999972534181,2|0,0:0|0:0,0:0:0:0:
444,272,53125,1,2,0:0:0:0:
444,272,53242,1,0,0:0:0:0:
347,130,53360,6,0,L|339:85,1,44.999998626709,2|0,1:2|0:0,0:0:0:0:
389,37,53594,6,0,L|292:28,1,89.9999972534181,2|0,0:0|0:0,0:0:0:0:
155,118,53828,2,0,L|244:126,1,89.9999972534181,2|0,0:0|0:0,0:0:0:0:
99,215,54063,2,0,L|10:207,1,89.9999972534181,2|0,0:0|0:0,0:0:0:0:
32,29,54297,2,0,L|-16:16,2,44.999998626709,10|0|0,3:2|3:0|3:0,0:0:0:0:
2,103,54531,6,0,B|47:116|47:116|83:90,1,89.9999972534181,2|0,0:0|0:0,0:0:0:0:
324,138,54766,2,0,B|279:151|279:151|243:125,1,89.9999972534181,0|0,1:0|0:0,0:0:0:0:
299,61,55000,1,2,0:0:0:0:
299,61,55117,1,0,0:0:0:0:
347,229,55235,5,0,0:0:0:0:
266,240,55352,1,0,0:0:0:0:
185,251,55469,2,0,B|180:310|180:310|205:338,1,89.9999972534181,2|0,0:0|0:0,0:0:0:0:
450,375,55703,5,2,0:0:0:0:
439,294,55820,1,0,0:0:0:0:
428,213,55938,2,0,B|369:208|369:208|341:233,1,89.9999972534181,2|0,0:0|1:0,0:0:0:0:
328,346,56172,1,10,3:2:0:0:
328,346,56289,1,0,3:0:0:0:
346,228,56406,6,0,L|333:132,1,89.9999972534181,2|0,0:0|0:0,0:0:0:0:
172,161,56641,2,0,L|184:250,1,89.9999972534181,2|0,0:0|0:0,0:0:0:0:
22,272,56875,2,0,L|3:138,1,134.999995880127,2|0,0:0|0:0,0:0:0:0:
46,63,57110,6,0,P|95:66|147:73,1,100,2|0,1:2|0:0,0:0:0:0:
328,346,57461,6,0,P|377:343|429:336,1,100,2|0,0:0|0:0,0:0:0:0:
346,228,57813,6,0,L|257:223,1,89.9999972534181,2|0,0:0|0:0,0:0:0:0:
145,72,58047,2,0,L|234:77,1,89.9999972534181,10|0,3:2|0:0,0:0:0:0:
457,214,58281,2,0,B|467:266|467:266|428:306,1,89.9999972534181,2|0,0:0|0:0,0:0:0:0:
123,347,58516,2,0,B|97:320|97:320|107:268,1,89.9999972534181,2|0,0:0|0:0,0:0:0:0:
384,91,58750,6,0,B|404:142|404:142|388:161,1,75,2|0,0:0|0:0,0:0:0:0:
308,135,58985,6,0,P|283:217|263:315,1,179.999994506836,10|0,1:2|3:0,0:0:0:0:
123,347,59336,2,0,P|148:260|167:172,1,179.999994506836,8|0,1:2|3:0,0:0:0:0:
285,48,59688,2,0,P|294:91|307:134,1,89.9999972534181,8|0,1:2|0:0,0:0:0:0:
424,335,59922,5,12,3:2:0:0:
424,335,59981,1,0,3:0:0:0:
424,335,60039,2,0,B|433:251|433:251|400:274,1,125,0|0,3:0|0:0,0:0:0:0:
476,138,60391,6,0,B|492:292|492:292|432:250,1,227.499989585877,4|0,1:2|0:0,0:0:0:0:
126,229,60860,6,0,P|218:182|351:216,1,240,6|0,1:2|0:0,0:0:0:0:
347,212,61328,2,0,P|305:214|264:200,1,80,2|0,0:0|0:0,0:0:0:0:
322,104,61563,1,0,0:0:0:0:
322,104,61680,1,0,0:0:0:0:
297,297,61797,6,0,P|358:308|417:279,1,129.999994049073,10|0,3:2|0:0,0:0:0:0:
417,74,62149,6,0,B|429:113|429:113|411:148,1,80,2|0,0:0|1:0,0:0:0:0:
173,86,62383,1,0,0:0:0:0:
322,104,62500,2,0,P|251:71|173:86,1,160,2|0,0:0|3:0,0:0:0:0:
75,323,62852,6,0,P|138:335|197:309,1,129.999994049073,2|0,0:0|0:0,0:0:0:0:
126,229,63203,5,2,0:0:0:0:
126,229,63438,1,2,0:0:0:0:
209,218,63555,1,0,1:0:0:0:
115,148,63672,6,0,L|111:115,2,32.4999985122681,10|0|0,3:2|3:0|3:0,0:0:0:0:
198,137,63906,1,2,0:0:0:0:
29,223,64024,6,0,B|62:237|62:237|124:228,1,100,2|0,0:0|0:0,0:0:0:0:
209,218,64258,1,0,0:0:0:0:
273,276,64375,6,0,B|299:287|299:287|350:279,1,80,2|0,0:0|0:0,0:0:0:0:
497,326,64610,6,0,B|403:204|492:112|522:183|510:221,1,240,2|0,1:2|1:0,0:0:0:0:
423,252,65078,1,2,0:0:0:0:
510,219,65195,1,0,0:0:0:0:
350,279,65313,2,0,P|344:239|360:203,1,80,0|0,1:0|0:0,0:0:0:0:
438,53,65547,6,0,P|388:85|314:75,1,129.999994049073,10|0,3:2|0:0,0:0:0:0:
128,135,65899,6,0,B|167:124|167:124|198:147,1,80,2|0,0:0|0:0,0:0:0:0:
164,355,66133,1,0,0:0:0:0:
150,217,66250,2,0,B|126:326|126:326|164:355,1,160,2|0,1:2|3:0,0:0:0:0:
350,279,66602,6,0,B|369:189|369:189|338:165,1,129.999994049073,2|0,0:0|0:0,0:0:0:0:
280,224,66953,6,0,L|235:234,1,40,2|0,0:0|0:0,0:0:0:0:
101,227,67188,2,0,L|150:217,1,50,2|0,0:0|1:0,0:0:0:0:
390,239,67422,6,0,L|240:232,1,150.000005722046,10|0,3:2|0:0,0:0:0:0:
101,227,67774,1,2,0:0:0:0:
114,296,67891,2,0,B|95:269|95:269|102:216,1,75.0000028610231,0|0,0:0|0:0,0:0:0:0:
396,60,68125,2,0,L|352:46,1,37.5000014305115,2|2,0:0|0:0,0:0:0:0:
303,49,68242,2,0,L|259:35,1,37.5000014305115,2|2,0:0|0:0,0:0:0:0:
210,40,68360,6,0,B|203:114|271:145|271:145|231:183|242:244,1,240,0|0,1:0|0:0,0:0:0:0:
411,245,68828,2,0,P|379:222|340:220,1,80,2|0,0:0|0:0,0:0:0:0:
204,330,69063,1,0,0:0:0:0:
204,330,69180,1,0,0:0:0:0:
353,300,69297,6,0,P|405:337|469:341,1,129.999994049073,10|0,3:2|0:0,0:0:0:0:
240,232,69649,2,0,P|207:208|168:206,1,80,2|0,0:0|1:0,0:0:0:0:
35,336,69883,1,0,0:0:0:0:
179,286,70000,2,0,P|114:331|35:336,1,160,2|0,0:0|3:0,0:0:0:0:
2,169,70352,6,0,P|63:156|141:129,1,129.999994049073,2|0,0:0|0:0,0:0:0:0:
327,133,70703,5,2,0:0:0:0:
327,133,70938,1,2,0:0:0:0:
245,114,71055,1,0,1:0:0:0:
309,212,71172,6,0,L|301:244,2,32.4999985122681,10|0|0,3:2|3:0|3:0,0:0:0:0:
227,194,71406,1,2,0:0:0:0:
420,124,71524,6,0,B|387:143|387:143|304:127,1,100,2|0,0:0|0:0,0:0:0:0:
245,114,71758,1,0,0:0:0:0:
164,141,71875,6,0,B|142:154|142:154|88:143,1,80,2|0,0:0|0:0,0:0:0:0:
296,341,72110,6,0,B|348:346|378:306|378:306|445:297|482:349|442:392|394:349,1,240,2|0,1:2|1:0,0:0:0:0:
301,243,72578,2,0,B|291:191|291:191|311:213,1,80,2|0,0:0|0:0,0:0:0:0:
205,321,72813,1,0,1:0:0:0:
205,321,72930,1,0,1:0:0:0:
395,225,73047,6,0,P|459:237|514:279,1,129.999994049073,10|0,3:2|0:0,0:0:0:0:
230,211,73399,2,0,P|261:234|300:242,1,80,2|0,0:0|0:0,0:0:0:0:
454,140,73633,1,0,0:0:0:0:
299,151,73750,2,0,P|376:128|455:140,1,160,2|0,1:2|3:0,0:0:0:0:
104,202,74102,6,0,P|165:220|229:210,1,129.999994049073,2|0,0:0|0:0,0:0:0:0:
341,269,74453,6,0,L|314:239,1,40,2|0,0:0|0:0,0:0:0:0:
210,119,74688,2,0,L|176:81,1,50,2|0,0:0|1:0,0:0:0:0:
428,54,74922,6,0,B|394:81|394:81|270:50,1,150.000005722046,14|0,1:2|0:0,0:0:0:0:
104,202,75274,1,2,0:0:0:0:
261,50,75391,6,0,B|391:82|391:82|427:53,1,179.999994506836,4|2,1:2|0:0,0:0:0:0:
427,53,75742,1,0,0:0:0:0:
433,185,75860,6,0,B|485:199|485:199|480:147,1,106.666666666667,6|0,1:2|3:0,0:0:0:0:
242,200,76172,5,0,3:0:0:0:
266,277,76328,6,0,B|312:289|312:289|308:243,1,93.3333304850261,2|0,3:2|3:0,0:0:0:0:
66,313,76641,5,0,3:0:0:0:
138,266,76797,6,0,B|150:370|150:370|126:364,1,129.999994049073,10|0,3:2|0:0,0:0:0:0:
173,184,77149,6,0,L|252:175,1,80,2|0,0:0|1:0,0:0:0:0:
241,304,77383,1,0,0:0:0:0:
305,248,77500,2,0,P|356:317|300:352,1,160,2|0,0:0|3:0,0:0:0:0:
135,366,77852,6,0,P|101:315|138:266,1,129.999994049073,2|0,0:0|0:0,0:0:0:0:
252,174,78203,5,2,0:0:0:0:
252,174,78438,1,2,0:0:0:0:
335,163,78555,1,0,1:0:0:0:
241,93,78672,6,0,L|237:60,2,32.4999985122681,10|0|0,3:2|3:0|3:0,0:0:0:0:
324,82,78906,1,2,0:0:0:0:
157,172,79024,6,0,B|196:168|196:168|206:179|206:179|252:174,1,100,2|0,0:0|3:0,0:0:0:0:
335,163,79258,1,0,0:0:0:0:
391,225,79375,6,0,B|422:221|422:221|430:230|430:230|468:226,1,80,2|0,0:0|0:0,0:0:0:0:
137,266,79610,6,0,P|115:182|158:35,1,240,2|0,1:2|1:0,0:0:0:0:
235,75,80078,1,2,0:0:0:0:
155,37,80195,1,0,0:0:0:0:
301,123,80313,2,0,P|316:86|311:47,1,80,0|0,1:0|0:0,0:0:0:0:
38,55,80547,6,0,P|1:105|22:164,1,129.999994049073,10|0,3:2|0:0,0:0:0:0:
137,266,80899,2,0,P|159:297|146:334,1,80,2|0,0:0|0:0,0:0:0:0:
72,307,81133,1,0,0:0:0:0:
231,303,81250,2,0,P|152:316|73:308,1,160,2|0,1:2|3:0,0:0:0:0:
22,164,81602,6,0,P|86:170|150:159,1,129.999994049073,2|0,0:0|0:0,0:0:0:0:
222,115,81953,6,0,L|235:166,1,40,2|0,0:0|0:0,0:0:0:0:
324,298,82188,2,0,L|311:249,1,50,2|0,0:0|1:0,0:0:0:0:
234,22,82422,6,0,P|201:86|231:153,1,150.000005722046,10|0,3:2|0:0,0:0:0:0:
405,154,82774,1,2,0:0:0:0:
412,80,82891,2,0,P|413:117|404:153,1,75.0000028610231,0|0,0:0|0:0,0:0:0:0:
231,303,83125,2,0,L|179:295,1,37.5000014305115,2|2,0:0|0:0,0:0:0:0:
146,311,83242,2,0,L|94:303,1,37.5000014305115,2|2,0:0|0:0,0:0:0:0:
61,319,83360,6,0,B|72:254|72:254|83:224|83:224|77:193|77:193|70:76,1,240,0|0,1:0|0:0,0:0:0:0:
251,190,83828,2,0,L|151:177,1,80,2|0,0:0|0:0,0:0:0:0:
0,218,84063,1,0,0:0:0:0:
0,218,84180,1,0,0:0:0:0:
70,82,84297,6,0,L|198:63,1,129.999994049073,10|0,3:2|0:0,0:0:0:0:
363,86,84649,2,0,L|283:97,1,80,2|0,0:0|1:0,0:0:0:0:
251,190,84883,1,0,0:0:0:0:
409,166,85000,2,0,L|251:190,1,160,2|0,0:0|3:0,0:0:0:0:
61,319,85352,6,0,P|99:354|179:343,1,129.999994049073,2|0,0:0|0:0,0:0:0:0:
351,251,85703,5,2,0:0:0:0:
351,251,85938,1,2,0:0:0:0:
269,270,86055,1,0,1:0:0:0:
333,172,86172,6,0,L|325:140,2,32.4999985122681,10|0|0,3:2|3:0|3:0,0:0:0:0:
251,190,86406,1,2,0:0:0:0:
446,246,86524,6,0,B|415:262|415:262|351:251,1,100,2|0,0:0|0:0,0:0:0:0:
269,270,86758,1,0,0:0:0:0:
194,309,86875,6,0,B|168:322|168:322|116:313,1,80,2|0,0:0|0:0,0:0:0:0:
228,98,87110,6,0,P|159:62|-13:63,2,240,2|0|0,1:2|1:0|1:0,0:0:0:0:
269,270,87930,1,0,1:0:0:0:
326,99,88047,6,0,P|343:89|363:86,2,40,10|0|0,3:2|0:0|0:0,0:0:0:0:
366,171,88281,1,0,0:0:0:0:
276,36,88399,2,0,P|317:15|354:6,1,80,2|0,0:0|0:0,0:0:0:0:
366,171,88633,1,0,0:0:0:0:
220,132,88750,2,0,P|298:128|365:170,1,160,2|0,1:2|3:0,0:0:0:0:
37,219,89102,6,0,P|103:222|160:186,1,129.999994049073,2|0,0:0|0:0,0:0:0:0:
291,222,89453,6,0,L|225:210,1,40,2|0,0:0|0:0,0:0:0:0:
80,136,89688,1,2,0:0:0:0:
80,136,89746,2,0,L|46:130,2,25,0|0|0,3:0|3:0|3:0,0:0:0:0:
87,307,89922,6,0,L|246:296,1,160,14|0,1:2|0:0,0:0:0:0:
370,227,90274,2,0,L|290:221,1,80,2|4,0:0|1:2,0:0:0:0:
246,296,90508,1,0,0:0:0:0:
332,139,90625,6,0,B|270:130|270:130|224:158|224:158|184:141,1,160,2|6,0:0|1:2,0:0:0:0:
256,192,90977,12,0,94258,0:0:0:0:
