osu file format v14

[General]
AudioFilename: audio.mp3
AudioLeadIn: 0
PreviewTime: 45625
Countdown: 0
SampleSet: Soft
StackLeniency: 0.3
Mode: 0
LetterboxInBreaks: 0
EpilepsyWarning: 1
WidescreenStoryboard: 1

[Editor]
Bookmarks: 15860,30860,45860,60860,90860,105860
DistanceSpacing: 0.5
BeatDivisor: 4
GridSize: 8
TimelineZoom: 2.999999

[Metadata]
Title:SPIDER NET WORK - CleanTears Remix -
TitleUnicode:SPIDER NET WORK - CleanTears Remix -
Artist:Ayakura Mei
ArtistUnicode:綾倉盟
Creator:-Tochi
Version:Completion of SPIDER NET
Source:東方地霊殿 ~ Subterranean Animism.
Tags:Half Pennek Touhou Project 東方Project ESQUARIA DEAR LOVERS 2 Nakaji Motome RUON ZUN Yamame Kurodani chillstep electronic female japanese vocals 中路もとめ cut version video game S.C.X Alstroemeria Records EQ-0012 β Reitaisai 14 封じられた妖怪 ~ Lost Place the sealed away youkai ~
BeatmapID:1971416
BeatmapSetID:941875

[Difficulty]
HPDrainRate:6
CircleSize:4
OverallDifficulty:8.5
ApproachRate:9.4
SliderMultiplier:2
SliderTickRate:1

[Events]
//Background and Video events
0,0,"bg.jpg",0,0
//Break Periods
//Storyboard Layer 0 (Background)
//Storyboard Layer 1 (Fail)
//Storyboard Layer 2 (Pass)
//Storyboard Layer 3 (Foreground)
//Storyboard Layer 4 (Overlay)
//Storyboard Sound Samples

[TimingPoints]
860,468.75,4,2,1,30,1,0
12110,-100,4,2,1,30,0,0
15742,-100,4,2,1,5,0,0
15860,-142.857142857143,4,2,1,40,0,0
30860,-66.6666666666667,4,2,1,60,0,0
33672,-83.3333333333333,4,2,1,60,0,0
33906,-66.6666666666667,4,2,1,60,0,0
34375,-83.3333333333333,4,2,1,60,0,0
34610,-66.6666666666667,4,2,1,60,0,0
37891,-200,4,2,1,60,0,0
38360,-66.6666666666667,4,2,1,60,0,0
40000,-58.8235294117647,4,2,1,60,0,0
40469,-66.6666666666667,4,2,1,60,0,0
41641,-200,4,2,1,60,0,0
42110,-66.6666666666667,4,2,1,60,0,0
42461,-83.3333333333333,4,2,1,60,0,0
43047,-66.6666666666667,4,2,1,60,0,0
43399,-83.3333333333333,4,2,1,60,0,0
43985,-66.6666666666667,4,2,1,60,0,0
44922,-125,4,2,1,60,0,0
45860,-55.5555555555556,4,2,1,70,0,0
60860,-41.6666666666667,4,2,2,80,0,1
61328,-50,4,2,2,80,0,1
61797,-41.6666666666667,4,2,2,80,0,1
62266,-50,4,2,2,80,0,1
62500,-41.6666666666667,4,2,2,80,0,1
62852,-50,4,2,2,80,0,1
64610,-41.6666666666667,4,2,2,80,0,1
64961,-50,4,2,2,80,0,1
65547,-41.6666666666667,4,2,2,80,0,1
65899,-50,4,2,2,80,0,1
66602,-41.6666666666667,4,2,2,80,0,1
66953,-50,4,2,2,80,0,1
67422,-41.6666666666667,4,2,2,80,0,1
68828,-50,4,2,2,80,0,1
69297,-41.6666666666667,4,2,2,80,0,1
69766,-50,4,2,2,80,0,1
70000,-41.6666666666667,4,2,2,80,0,1
70352,-50,4,2,2,80,0,1
72110,-41.6666666666667,4,2,2,80,0,1
72578,-50,4,2,2,80,0,1
73047,-41.6666666666667,4,2,2,80,0,1
73399,-50,4,2,2,80,0,1
74102,-41.6666666666667,4,2,2,80,0,1
74453,-50,4,2,2,80,0,1
74922,-41.6666666666667,4,2,2,80,0,0
75860,-41.6666666666667,4,2,2,80,0,1
77149,-50,4,2,2,80,0,1
77500,-41.6666666666667,4,2,2,80,0,1
77852,-50,4,2,2,80,0,1
79610,-41.6666666666667,4,2,2,80,0,1
79961,-50,4,2,2,80,0,1
80547,-41.6666666666667,4,2,2,80,0,1
80899,-50,4,2,2,80,0,1
81602,-41.6666666666667,4,2,2,80,0,1
81953,-50,4,2,2,80,0,1
82422,-41.6666666666667,4,2,2,80,0,1
83828,-50,4,2,2,80,0,1
84297,-41.6666666666667,4,2,2,80,0,1
84649,-50,4,2,2,80,0,1
85000,-41.6666666666667,4,2,2,80,0,1
85352,-50,4,2,2,80,0,1
87110,-41.6666666666667,4,2,2,80,0,1
87578,-50,4,2,2,80,0,1
88047,-41.6666666666667,4,2,2,80,0,1
88399,-50,4,2,2,80,0,1
89102,-41.6666666666667,4,2,2,80,0,1
89453,-50,4,2,2,80,0,1
89922,-41.6666666666667,4,2,2,80,0,0
94258,-41.6666666666667,4,2,2,5,0,0

[Colours]
Combo1 : 236,128,108
Combo2 : 188,141,107
Combo3 : 131,138,167
Combo4 : 149,192,109

[HitObjects]
256,192,12110,12,0,15742,0:0:0:0:
99,319,15860,6,0,B|51:369|-8:321|8:223|111:197|251:314,1,349.999989318848,0|2,3:0|0:0,0:0:0:0:
177,361,17266,1,0,3:0:0:0:
142,166,17500,1,2,0:0:0:0:
242,274,17735,2,0,L|156:260,2,69.9999978637696,0|2|0,3:0|0:0|0:0,0:0:0:0:
310,224,18438,2,0,P|345:192|508:216,1,209.999993591309,2|0,3:2|0:0,0:0:0:0:
496,204,19610,5,0,3:0:0:0:
385,78,20078,2,0,P|277:81|170:25,1,209.999993591309,0|2,0:0|3:2,0:0:0:0:
163,147,21016,2,0,P|145:117|121:92,1,69.9999978637696,0|2,0:0|0:0,0:0:0:0:
116,306,21485,2,0,P|141:280|165:232,1,69.9999978637696,0|2,3:0|0:0,0:0:0:0:
70,228,21953,1,0,0:0:0:0:
211,329,22188,1,2,3:2:0:0:
361,333,22656,1,2,0:0:0:0:
278,314,22891,2,0,P|243:315|210:328,1,69.9999978637696,0|0,0:0|0:0,0:0:0:0:
448,334,23360,6,0,P|486:290|465:122,1,209.999993591309,0|2,3:0|3:2,0:0:0:0:
482,145,24531,1,0,0:0:0:0:
410,190,24766,2,0,P|370:199|329:188,1,69.9999978637696,0|0,3:0|0:0,0:0:0:0:
262,165,25235,2,0,P|227:160|193:168,2,69.9999978637696,0|2|0,3:0|0:0|0:0,0:0:0:0:
372,116,25938,2,0,B|280:77|262:186|176:153,1,209.999993591309,2|0,3:2|0:0,0:0:0:0:
176,154,27110,5,0,3:0:0:0:
478,63,27578,2,0,P|473:129|459:219,1,139.999995727539,2|0,0:0|0:0,0:0:0:0:
379,185,28281,1,2,3:2:0:0:
379,185,28516,2,0,P|373:150|371:115,1,69.9999978637696,0|2,0:0|0:0,0:0:0:0:
278,182,28985,2,0,P|281:136|290:75,2,104.999996795654,0|0|0,3:0|0:0|3:0,0:0:0:0:
279,265,29922,1,0,3:0:0:0:
279,265,30625,1,0,3:0:0:0:
193,284,30742,1,0,3:0:0:0:
107,304,30860,6,0,P|125:227|134:154,1,150.000005722046,4|0,1:2|0:0,0:0:0:0:
133,156,31211,2,0,P|207:146|280:128,1,150.000005722046,2|0,0:0|0:0,0:0:0:0:
326,189,31563,1,2,0:0:0:0:
42,68,31797,2,0,L|32:24,1,37.5000014305115,8|0,3:2|3:0,0:0:0:0:
66,49,31914,2,0,P|52:107|26:194,1,150.000005722046,0|0,3:0|0:0,0:0:0:0:
45,265,32266,2,0,P|34:229|26:193,1,75.0000028610231,0|0,1:0|0:0,0:0:0:0:
35,352,32500,2,0,P|64:345|107:332,1,75.0000028610231,2|0,0:0|0:0,0:0:0:0:
211,194,32735,6,0,B|327:205|327:205|352:221|352:221|439:236,1,225.000008583069,2|2,0:0|0:0,0:0:0:0:
429,234,33203,2,0,P|350:259|262:238,1,150.000005722046,2|0,0:0|3:0,0:0:0:0:
211,194,33555,1,0,3:0:0:0:
278,265,33672,6,0,P|243:275|206:281,1,59.9999981689454,8|0,3:2|3:0,0:0:0:0:
138,210,33906,2,0,P|175:204|211:193,1,75.0000028610231,2|0,0:0|0:0,0:0:0:0:
372,147,34141,6,0,P|407:157|444:163,1,75.0000028610231,2|0,0:0|0:0,0:0:0:0:
511,77,34375,2,0,P|473:71|438:60,1,59.9999981689454,2|0,0:0|3:0,0:0:0:0:
399,257,34610,6,0,P|358:247|317:333,1,150.000005722046,0|0,1:0|0:0,0:0:0:0:
479,261,34961,2,0,P|511:199|459:152,1,150.000005722046,0|2,1:0|0:0,0:0:0:0:
446,141,35313,1,0,1:0:0:0:
182,349,35547,6,0,L|219:358,1,37.5000014305115,8|0,3:2|0:0,0:0:0:0:
193,330,35664,2,0,P|268:316|356:318,1,150.000005722046,0|2,0:0|0:0,0:0:0:0:
341,316,36016,2,0,P|355:241|353:153,1,150.000005722046,2|0,0:0|1:0,0:0:0:0:
354,167,36367,1,0,0:0:0:0:
354,167,36485,5,2,0:0:0:0:
189,15,36836,5,2,0:0:0:0:
263,227,37188,5,2,0:0:0:0:
263,227,37305,1,0,1:0:0:0:
263,227,37422,2,0,P|247:237|219:234,1,37.5000014305115,8|0,3:2|3:0,0:0:0:0:
250,206,37539,2,0,P|171:230|75:223,1,150.000005722046,0|0,3:0|0:0,0:0:0:0:
54,313,37891,6,0,L|137:326,1,75,2|2,0:0|0:0,0:0:0:0:
159,135,38360,6,0,P|245:94|313:80,1,150.000005722046,2|0,0:0|0:0,0:0:0:0:
297,81,38711,2,0,P|383:122|451:136,1,150.000005722046,2|0,0:0|0:0,0:0:0:0:
503,99,39063,1,2,0:0:0:0:
307,314,39297,2,0,L|297:358,1,37.5000014305115,8|0,3:2|0:0,0:0:0:0:
323,322,39414,2,0,P|309:264|283:177,1,150.000005722046,0|0,0:0|0:0,0:0:0:0:
216,210,39766,2,0,P|250:196|283:177,1,75.0000028610231,0|0,1:0|0:0,0:0:0:0:
503,99,40000,6,0,B|460:104|436:138|436:138|367:61|280:58,1,255.000004863739,2|0,0:0|0:0,0:0:0:0:
215,29,40469,2,0,P|179:45|123:57,1,75.0000028610231,2|0,0:0|0:0,0:0:0:0:
106,125,40703,2,0,P|122:160|134:217,1,75.0000028610231,2|0,0:0|0:0,0:0:0:0:
216,210,40938,1,0,3:0:0:0:
216,210,41055,1,0,1:0:0:0:
216,210,41172,2,0,P|233:201|262:196,1,37.5000014305115,8|0,3:2|3:0,0:0:0:0:
229,228,41289,2,0,P|301:232|419:259,1,150.000005722046,0|0,3:0|0:0,0:0:0:0:
373,333,41641,6,0,L|425:325,1,50,2|0,0:0|0:0,0:0:0:0:
381,149,41992,1,2,0:0:0:0:
381,149,42110,6,0,P|297:137|201:111,1,150.000005722046,0|0,1:0|0:0,0:0:0:0:
233,121,42461,2,0,P|174:134|114:142,1,119.999996337891,2|0,0:0|0:0,0:0:0:0:
65,201,42813,1,2,0:0:0:0:
385,62,43047,6,0,P|312:44|237:34,1,150.000005722046,2|0,0:0|0:0,0:0:0:0:
237,34,43399,2,0,P|175:42|116:56,1,119.999996337891,2|0,0:0|0:0,0:0:0:0:
78,119,43750,1,2,0:0:0:0:
460,105,43985,6,0,B|488:80|488:80|469:48,1,75.0000028610231,2|0,0:0|0:0,0:0:0:0:
399,176,44219,2,0,B|435:168|435:168|435:131,1,75.0000028610231,2|0,0:0|0:0,0:0:0:0:
292,219,44453,2,0,B|327:231|327:231|345:198,1,75.0000028610231,2|0,0:0|0:0,0:0:0:0:
159,182,44688,2,0,B|183:210|183:210|215:191,1,75.0000028610231,2|0,0:0|3:0,0:0:0:0:
89,61,44922,6,0,B|96:97|96:97|260:84,1,200,2|0,0:0|0:0,0:0:0:0:
337,106,45625,1,2,0:0:0:0:
319,29,45742,1,2,0:0:0:0:
159,182,45860,6,0,P|120:254|123:355,1,179.999994506836,6|2,1:2|0:0,0:0:0:0:
268,254,46211,1,0,0:0:0:0:
318,190,46328,2,0,P|337:154|336:103,1,89.9999972534181,2|0,0:0|0:0,0:0:0:0:
177,15,46563,2,0,P|196:51|195:101,1,89.9999972534181,2|0,0:0|0:0,0:0:0:0:
85,260,46797,5,8,3:2:0:0:
85,260,46914,1,0,3:0:0:0:
35,177,47031,2,0,L|146:164,1,89.9999972534181,2|0,0:0|0:0,0:0:0:0:
121,349,47266,2,0,L|32:339,1,89.9999972534181,0|0,1:0|0:0,0:0:0:0:
217,156,47500,2,0,L|328:143,1,89.9999972534181,2|0,0:0|0:0,0:0:0:0:
477,339,47735,6,0,P|437:345|372:321,1,89.9999972534181,0|0,0:0|0:0,0:0:0:0:
290,334,47969,2,0,P|247:346|203:341,1,89.9999972534181,2|0,0:0|0:0,0:0:0:0:
512,145,48203,2,0,P|472:139|407:163,1,89.9999972534181,2|0,0:0|0:0,0:0:0:0:
216,155,48437,2,0,P|173:143|129:149,1,89.9999972534181,2|0,0:0|1:0,0:0:0:0:
338,257,48672,5,10,3:2:0:0:
355,259,48789,1,0,3:0:0:0:
388,246,48906,1,2,0:0:0:0:
398,211,49024,1,0,0:0:0:0:
380,169,49141,1,2,0:0:0:0:
320,147,49258,1,0,0:0:0:0:
248,153,49375,1,2,0:0:0:0:
174,187,49492,1,0,0:0:0:0:
124,263,49610,6,0,L|189:65,1,179.999994506836,2|0,1:2|0:0,0:0:0:0:
451,87,49961,2,0,L|515:274,1,179.999994506836,2|0,1:2|0:0,0:0:0:0:
366,341,50313,2,0,L|336:255,1,89.9999972534181,2|0,1:2|0:0,0:0:0:0:
124,263,50547,6,0,P|97:301|95:348,1,89.9999972534181,10|0,3:2|0:0,0:0:0:0:
320,147,50781,2,0,P|273:142|231:165,1,89.9999972534181,2|0,0:0|0:0,0:0:0:0:
509,257,51016,2,0,P|489:214|448:189,1,89.9999972534181,2|0,0:0|0:0,0:0:0:0:
268,325,51250,1,2,1:2:0:0:
33,80,51485,6,0,P|122:78|204:30,1,179.999994506836,2|2,0:0|0:0,0:0:0:0:
453,190,51836,2,0,P|377:146|287:144,1,179.999994506836,2|0,0:0|0:0,0:0:0:0:
206,186,52188,1,2,0:0:0:0:
295,174,52305,1,0,1:0:0:0:
269,260,52422,5,10,3:2:0:0:
286,43,52656,2,0,P|330:53|375:61,1,89.9999972534181,2|0,0:0|0:0,0:0:0:0:
453,189,52891,2,0,P|458:234|466:278,1,89.9999972534181,2|0,0:0|0:0,0:0:0:0:
484,91,53125,1,2,0:0:0:0:
484,91,53242,1,2,0:0:0:0:
346,170,53360,6,0,P|277:207|144:210,1,179.999994506836,0|2,1:0|0:0,0:0:0:0:
53,121,53711,1,0,0:0:0:0:
117,71,53828,2,0,P|162:60|212:66,1,89.9999972534181,2|0,0:0|0:0,0:0:0:0:
296,239,54063,2,0,P|341:250|391:244,1,89.9999972534181,2|0,0:0|0:0,0:0:0:0:
484,91,54297,5,8,3:2:0:0:
484,91,54414,1,0,3:0:0:0:
389,34,54531,2,0,L|382:123,1,89.9999972534181,2|0,0:0|0:0,0:0:0:0:
237,152,54766,2,0,L|230:62,1,89.9999972534181,0|0,1:0|0:0,0:0:0:0:
484,91,55000,2,0,L|476:194,1,89.9999972534181,2|0,0:0|0:0,0:0:0:0:
293,333,55235,6,0,B|251:348|251:348|209:331,1,89.9999972534181,0|0,0:0|0:0,0:0:0:0:
464,281,55469,2,0,B|422:297|422:297|380:282,1,89.9999972534181,2|0,0:0|0:0,0:0:0:0:
237,235,55703,2,0,B|220:193|220:193|235:151,1,89.9999972534181,2|0,0:0|0:0,0:0:0:0:
58,72,55938,2,0,B|74:113|74:113|59:155,1,89.9999972534181,2|0,0:0|1:0,0:0:0:0:
26,354,56172,5,10,3:2:0:0:
38,330,56289,1,0,3:0:0:0:
65,306,56406,1,2,0:0:0:0:
108,295,56524,1,0,0:0:0:0:
161,301,56641,1,2,0:0:0:0:
202,347,56758,1,0,0:0:0:0:
268,373,56875,1,2,0:0:0:0:
348,364,56992,1,0,0:0:0:0:
413,301,57110,6,0,P|427:208|422:100,1,179.999994506836,2|0,1:2|0:0,0:0:0:0:
207,58,57461,2,0,P|157:132|120:214,1,179.999994506836,2|0,1:2|0:0,0:0:0:0:
239,274,57813,2,0,P|263:236|282:195,1,89.9999972534181,2|0,1:2|0:0,0:0:0:0:
106,32,58047,6,0,L|4:17,1,89.9999972534181,10|0,3:2|0:0,0:0:0:0:
279,105,58281,2,0,L|177:120,1,89.9999972534181,2|0,0:0|0:0,0:0:0:0:
452,32,58516,2,0,L|350:17,1,89.9999972534181,2|0,0:0|0:0,0:0:0:0:
248,198,58750,1,2,1:2:0:0:
248,198,58985,6,0,P|188:224|59:203,1,179.999994506836,2|2,0:0|0:0,0:0:0:0:
270,81,59336,2,0,P|358:73|439:110,1,179.999994506836,2|0,0:0|0:0,0:0:0:0:
479,191,59688,1,2,0:0:0:0:
389,185,59805,1,2,1:2:0:0:
439,110,59922,2,0,B|456:67|449:22|449:22|399:21|364:50,1,179.999994506836,10|0,3:2|0:0,0:0:0:0:
140,335,60391,2,0,B|89:377|14:375|14:375|3:308|29:244,1,269.999991760254,10|0,3:2|0:0,0:0:0:0:
15,215,60860,6,0,B|86:174|167:209|167:209|220:269|305:257|305:257|282:247|263:223,1,359.999989013672,6|0,1:2|0:0,0:0:0:0:
167,116,61328,2,0,P|117:108|67:107,1,100,2|0,0:0|0:0,0:0:0:0:
208,336,61563,2,0,P|257:343|307:344,1,100,2|0,0:0|0:0,0:0:0:0:
501,137,61797,6,0,P|483:36|394:88,1,239.999992675781,10|0,3:2|0:0,0:0:0:0:
409,195,62149,1,2,0:0:0:0:
365,111,62266,2,0,L|266:94,1,100,0|0,1:0|0:0,0:0:0:0:
61,178,62500,2,0,B|156:172|156:172|198:194|198:194|295:189,1,239.999992675781,2|0,0:0|3:0,0:0:0:0:
368,260,62852,2,0,L|270:285,1,100,2|0,0:0|0:0,0:0:0:0:
75,301,63086,1,0,0:0:0:0:
178,294,63203,2,0,L|79:278,1,100,2|0,0:0|0:0,0:0:0:0:
84,72,63438,2,0,L|182:52,1,100,2|0,0:0|1:0,0:0:0:0:
459,123,63672,6,0,P|409:129|362:108,1,100,10|0,3:2|3:0,0:0:0:0:
304,43,63906,1,2,0:0:0:0:
155,173,64024,2,0,P|108:188|60:177,1,100,2|0,0:0|0:0,0:0:0:0:
227,119,64258,1,0,0:0:0:0:
62,151,64375,2,0,P|106:170|156:163,1,100,2|0,0:0|0:0,0:0:0:0:
397,67,64610,6,0,B|477:35|477:35|470:110|470:110|458:128|458:128|452:184,1,239.999992675781,2|0,1:2|0:0,0:0:0:0:
388,279,64961,1,0,1:0:0:0:
488,266,65078,2,0,L|388:279,1,100,2|0,0:0|0:0,0:0:0:0:
246,345,65313,2,0,L|153:307,1,100,2|0,1:2|0:0,0:0:0:0:
355,175,65547,6,0,P|253:230|141:196,1,239.999992675781,10|0,3:2|0:0,0:0:0:0:
191,127,65899,2,0,L|290:116,1,100,2|0,0:0|0:0,0:0:0:0:
387,278,66133,1,0,0:0:0:0:
487,289,66250,2,0,L|387:278,1,100,2|0,1:2|0:0,0:0:0:0:
246,345,66485,1,0,3:0:0:0:
246,345,66602,2,0,P|122:366|37:283,1,239.999992675781,2|0,0:0|0:0,0:0:0:0:
49,208,66953,2,0,B|92:183|92:183|140:195,1,100,2|0,0:0|0:0,0:0:0:0:
324,338,67188,2,0,B|367:363|367:363|415:350,1,100,2|0,0:0|1:0,0:0:0:0:
272,96,67422,6,0,B|192:56|192:56|146:109|146:109|188:116|216:148,1,239.999992675781,10|0,3:2|0:0,0:0:0:0:
387,278,67774,2,0,B|466:317|466:317|512:264|512:264|442:225,1,239.999992675781,2|0,0:0|0:0,0:0:0:0:
284,185,68125,1,2,0:0:0:0:
248,186,68184,1,2,0:0:0:0:
212,190,68242,1,2,0:0:0:0:
176,193,68301,1,2,0:0:0:0:
140,195,68360,6,0,P|177:123|427:149,1,359.999989013672,0|0,1:0|0:0,0:0:0:0:
441,225,68828,2,0,L|326:244,1,100,2|0,0:0|0:0,0:0:0:0:
86,100,69063,2,0,L|184:83,1,100,2|0,0:0|0:0,0:0:0:0:
511,275,69297,6,0,P|433:328|342:236,1,239.999992675781,10|0,3:2|0:0,0:0:0:0:
419,137,69649,1,2,0:0:0:0:
340,211,69766,2,0,L|233:201,1,100,0|0,1:0|0:0,0:0:0:0:
86,100,70000,2,0,P|149:112|315:34,1,239.999992675781,2|0,0:0|3:0,0:0:0:0:
459,53,70352,2,0,P|493:88|512:134,1,100,2|0,0:0|0:0,0:0:0:0:
405,270,70586,1,0,0:0:0:0:
425,175,70703,2,0,P|424:224|405:270,1,100,2|0,0:0|0:0,0:0:0:0:
302,375,70938,2,0,P|275:333|266:284,1,100,2|0,0:0|1:0,0:0:0:0:
169,111,71172,6,0,L|291:89,1,100,10|0,3:2|3:0,0:0:0:0:
241,187,71406,1,2,0:0:0:0:
244,4,71524,2,0,L|366:26,1,100,2|0,0:0|0:0,0:0:0:0:
315,248,71758,1,0,0:0:0:0:
209,283,71875,2,0,L|308:266,1,100,2|0,0:0|0:0,0:0:0:0:
512,110,72110,6,0,B|469:124|443:154|443:154|387:105|290:105,1,239.999992675781,2|0,1:2|0:0,0:0:0:0:
136,198,72461,1,0,1:0:0:0:
198,117,72578,2,0,P|149:105|91:104,1,100,2|0,0:0|0:0,0:0:0:0:
53,247,72813,1,0,1:0:0:0:
115,297,72930,1,0,1:0:0:0:
192,278,73047,6,0,P|263:229|423:231,1,239.999992675781,10|0,3:2|0:0,0:0:0:0:
437,317,73399,2,0,L|316:295,1,100,2|0,0:0|0:0,0:0:0:0:
280,134,73633,1,0,0:0:0:0:
378,116,73750,2,0,L|280:134,1,100,2|0,1:2|0:0,0:0:0:0:
136,198,73985,1,0,3:0:0:0:
136,198,74102,2,0,B|23:154|23:154|124:77,1,239.999992675781,2|0,0:0|0:0,0:0:0:0:
202,38,74453,2,0,B|250:52|250:52|297:36,1,100,2|0,0:0|0:0,0:0:0:0:
232,290,74688,2,0,B|185:274|185:274|137:288,1,100,2|0,0:0|1:0,0:0:0:0:
378,116,74922,6,0,P|472:163|381:251,1,239.999992675781,14|0,1:2|0:0,0:0:0:0:
302,203,75274,1,2,0:0:0:0:
386,265,75391,2,0,P|310:303|152:238,1,239.999992675781,4|2,1:2|0:0,0:0:0:0:
15,27,75860,5,6,1:2:0:0:
101,121,76016,1,0,3:0:0:0:
203,45,76172,1,0,3:0:0:0:
45,32,76328,5,2,3:2:0:0:
99,103,76484,1,0,3:0:0:0:
174,56,76640,1,0,3:0:0:0:
65,38,76797,6,0,P|74:156|94:290,1,239.999992675781,10|0,3:2|0:0,0:0:0:0:
273,293,77149,1,2,0:0:0:0:
191,227,77266,2,0,P|182:286|177:346,1,100,0|0,1:0|0:0,0:0:0:0:
367,333,77500,2,0,P|355:213|337:95,1,239.999992675781,2|0,0:0|3:0,0:0:0:0:
282,32,77852,2,0,P|330:18|379:10,1,100,2|0,0:0|0:0,0:0:0:0:
149,119,78086,1,0,0:0:0:0:
252,119,78203,2,0,P|203:132|154:140,1,100,2|0,0:0|0:0,0:0:0:0:
15,15,78438,2,0,P|63:28|112:36,1,100,2|0,0:0|1:0,0:0:0:0:
424,178,78672,6,0,P|379:155|330:161,1,100,10|0,3:2|3:0,0:0:0:0:
256,211,78906,1,2,0:0:0:0:
158,342,79024,2,0,P|110:356|63:341,1,100,2|0,0:0|3:0,0:0:0:0:
226,284,79258,1,0,0:0:0:0:
55,321,79375,2,0,P|103:331|149:312,1,100,2|0,0:0|0:0,0:0:0:0:
330,161,79610,6,0,P|237:91|118:119,1,239.999992675781,2|0,1:2|0:0,0:0:0:0:
57,185,79961,1,0,1:0:0:0:
155,201,80078,2,0,L|51:184,1,100,2|0,0:0|0:0,0:0:0:0:
112,18,80313,2,0,L|210:1,1,100,2|0,1:2|0:0,0:0:0:0:
450,103,80547,6,0,P|494:211|440:336,1,239.999992675781,10|0,3:2|0:0,0:0:0:0:
347,259,80899,2,0,L|328:151,1,100,2|0,0:0|0:0,0:0:0:0:
158,114,81133,1,0,0:0:0:0:
252,80,81250,2,0,L|234:178,1,100,2|0,1:2|0:0,0:0:0:0:
101,319,81485,1,0,3:0:0:0:
101,319,81602,2,0,P|181:287|318:360,1,239.999992675781,2|0,0:0|0:0,0:0:0:0:
391,380,81953,2,0,L|495:373,1,100,2|0,0:0|0:0,0:0:0:0:
335,185,82188,2,0,L|231:178,1,100,2|0,0:0|1:0,0:0:0:0:
63,244,82422,6,0,B|-12:204|1:119|1:119|84:85,1,239.999992675781,10|0,3:2|0:0,0:0:0:0:
390,112,82774,2,0,B|465:152|452:237|452:237|368:270,1,239.999992675781,2|0,0:0|0:0,0:0:0:0:
165,225,83125,1,2,0:0:0:0:
162,187,83184,1,2,0:0:0:0:
160,151,83242,1,2,0:0:0:0:
158,114,83301,1,2,0:0:0:0:
156,77,83360,6,0,B|280:84|392:23|392:23|436:51|501:58,1,359.999989013672,0|0,1:0|0:0,0:0:0:0:
490,144,83828,2,0,L|390:130,1,100,2|0,0:0|0:0,0:0:0:0:
168,263,84063,2,0,L|267:249,1,100,2|0,0:0|0:0,0:0:0:0:
486,356,84297,6,0,B|429:310|429:310|267:353,1,239.999992675781,10|0,3:2|0:0,0:0:0:0:
107,320,84649,1,2,0:0:0:0:
186,358,84766,2,0,L|71:342,1,100,0|0,1:0|0:0,0:0:0:0:
17,211,85000,2,0,B|-14:133|21:80|21:80|89:104|89:104|91:137,1,239.999992675781,2|0,0:0|3:0,0:0:0:0:
162,231,85352,2,0,L|261:217,1,100,2|0,0:0|0:0,0:0:0:0:
429,134,85586,1,0,0:0:0:0:
468,224,85703,2,0,L|368:210,1,100,2|0,0:0|0:0,0:0:0:0:
196,130,85938,2,0,P|180:82|181:32,1,100,2|0,0:0|1:0,0:0:0:0:
383,55,86172,6,0,L|283:67,1,100,10|0,3:2|3:0,0:0:0:0:
90,135,86406,1,2,0:0:0:0:
0,56,86524,2,0,L|99:43,1,100,2|0,0:0|0:0,0:0:0:0:
279,180,86758,1,0,0:0:0:0:
381,164,86875,2,0,L|281:151,1,100,2|0,0:0|0:0,0:0:0:0:
73,324,87110,6,0,P|163:261|290:290,1,239.999992675781,2|0,1:2|0:0,0:0:0:0:
458,326,87461,1,0,1:0:0:0:
364,354,87578,2,0,P|369:304|381:255,1,100,2|0,0:0|0:0,0:0:0:0:
283,67,87813,1,0,1:0:0:0:
212,104,87930,1,0,1:0:0:0:
134,83,88047,6,0,P|192:51|381:64,1,239.999992675781,10|0,3:2|0:0,0:0:0:0:
410,135,88399,2,0,L|390:249,1,100,2|0,0:0|0:0,0:0:0:0:
187,258,88633,1,0,0:0:0:0:
266,186,88750,2,0,L|284:285,1,100,2|0,1:2|0:0,0:0:0:0:
114,362,88985,1,0,3:0:0:0:
114,362,89102,2,0,P|89:245|80:121,1,239.999992675781,2|0,0:0|0:0,0:0:0:0:
144,63,89453,2,0,B|191:42|191:42|237:56,1,100,2|0,0:0|0:0,0:0:0:0:
381,164,89688,1,2,0:0:0:0:
387,187,89746,1,0,3:0:0:0:
393,211,89805,1,0,3:0:0:0:
399,234,89863,1,0,3:0:0:0:
405,257,89922,6,0,B|344:288|253:286|253:286|300:288|333:313,1,239.999992675781,14|0,1:2|0:0,0:0:0:0:
486,297,90274,1,2,0:0:0:0:
413,348,90391,2,0,P|314:345|149:324,1,239.999992675781,6|2,1:2|0:0,0:0:0:0:
66,47,90860,5,6,1:2:0:0:
256,192,90918,12,0,94258,0:0:0:0:
