osu file format v14

[General]
AudioFilename: Close to you.mp3
AudioLeadIn: 0
PreviewTime: 244415
Countdown: 0
SampleSet: Soft
StackLeniency: 0.2
Mode: 0
LetterboxInBreaks: 1
WidescreenStoryboard: 0

[Editor]
DistanceSpacing: 1.6
BeatDivisor: 4
GridSize: 4
TimelineZoom: 1

[Metadata]
Title:Close to you (and me)
TitleUnicode:Close to you (and me)
Artist:Ayakura Mei
ArtistUnicode:綾倉盟
Creator:fanzhen0019
Version:Monochrome
Source:東方風神録 ~ Mountain of Faith.
Tags:touhou nhato Studio Syrup Comfiture Blossom doujin 神さびた古戦場 ~ Suwa Foughten Field th10
BeatmapID:1658397
BeatmapSetID:790310

[Difficulty]
HPDrainRate:6
CircleSize:5
OverallDifficulty:6
ApproachRate:8
SliderMultiplier:1.6
SliderTickRate:2

[Events]
//Background and Video events
0,0,"suwa.jpg",0,0
//Break Periods
2,183754,205661
//Storyboard Layer 0 (Background)
//Storyboard Layer 1 (Fail)
//Storyboard Layer 2 (Pass)
//Storyboard Layer 3 (Foreground)
//Storyboard Sound Samples

[TimingPoints]
697,476.190476190476,4,2,0,35,1,0
31169,-133.333333333333,4,2,0,36,0,0
46411,-133.333333333333,4,2,0,40,0,0
92125,-100,4,3,0,65,0,1
122601,-100,4,2,0,60,0,0
153316,-100,4,2,0,47,0,0
206411,-100,4,2,0,20,0,0
207363,-100,4,2,0,25,0,0
208316,-100,4,2,0,30,0,0
209268,-100,4,2,0,35,0,0
210220,-100,4,2,0,40,0,0
211173,-100,4,2,0,45,0,0
212125,-100,4,2,0,50,0,0
213077,-100,4,2,0,55,0,0
214030,-100,4,2,0,45,0,0
223550,-200,4,2,0,45,0,0
242597,-100,4,2,0,65,0,0
248792,-100,4,3,0,65,0,1
274982,-100,4,2,0,60,0,0
305577,-100,4,2,0,50,0,0
320935,-100,4,2,0,45,0,0
335935,-100,4,2,0,75,0,0
336411,-100,4,2,0,70,0,0
336887,-100,4,2,0,65,0,0
337839,-100,4,2,0,60,0,0
338316,-100,4,2,0,55,0,0
338792,-100,4,2,0,50,0,0
339744,-100,4,2,0,45,0,0
340220,-100,4,2,0,40,0,0
340696,-100,4,2,0,35,0,0
341649,-100,4,2,0,30,0,0
342125,-100,4,2,0,25,0,0
342601,-100,4,2,0,20,0,0
343554,-100,4,2,0,15,0,0
344030,-100,4,2,0,10,0,0
344506,-100,4,2,0,5,0,0

[Colours]
Combo1 : 166,210,255
Combo2 : 255,172,172
Combo3 : 255,164,255
Combo4 : 255,255,170

[HitObjects]
48,112,15935,5,0,0:0:0:0:
120,144,16411,1,0,3:0:0:0:
180,92,16887,1,0,0:0:0:0:
252,124,17363,1,0,3:0:0:0:
232,200,17839,5,0,0:0:0:0:
244,120,18316,1,0,3:0:0:0:
296,60,18792,1,0,0:0:0:0:
372,36,19268,1,0,3:0:0:0:
412,44,19506,1,0,3:0:0:0:
444,68,19744,5,0,0:0:0:0:
420,144,20220,1,0,3:0:0:0:
472,208,20696,1,0,0:0:0:0:
448,284,21173,1,0,3:0:0:0:
312,348,21649,5,2,0:0:0:0:
296,268,22125,1,0,3:0:0:0:
144,384,22601,5,2,0:0:0:0:
128,304,23077,1,0,3:0:0:0:
128,304,23316,1,0,3:0:0:0:
128,304,23554,5,2,0:0:0:0:
156,228,24030,1,0,3:0:0:0:
80,200,24506,1,0,0:0:0:0:
52,276,24982,1,0,3:0:0:0:
92,208,25458,5,0,0:0:0:0:
76,128,25935,1,0,3:0:0:0:
124,64,26411,1,2,0:0:0:0:
204,48,26887,1,0,3:0:0:0:
220,84,27125,1,0,3:0:0:0:
236,120,27363,5,2,0:0:0:0:
316,136,27839,1,0,3:0:0:0:
420,52,28316,5,2,0:0:0:0:
500,68,28792,1,0,3:0:0:0:
504,148,29268,5,0,0:0:0:0:
448,204,29744,1,0,3:0:0:0:
368,212,30220,1,2,0:0:0:0:
296,180,30696,1,0,3:0:0:0:
268,152,30935,1,0,3:0:0:0:
256,112,31173,5,2,0:0:0:0:
256,112,31649,1,0,3:0:0:0:
256,112,32125,1,0,0:0:0:0:
256,112,32601,6,0,P|224:124|188:112,1,60.0000022888184,0|0,3:0|0:0,0:0:0:0:
152,64,33077,2,0,L|20:72,2,120.000004577637,2|0|2,0:0|3:0|0:0,0:0:0:0:
152,64,34506,1,0,3:0:0:0:
172,144,34744,1,0,3:0:0:0:
172,144,34982,5,2,0:0:0:0:
136,220,35458,1,0,3:0:0:0:
252,284,35935,1,0,0:0:0:0:
216,360,36411,1,0,3:0:0:0:
216,360,36649,5,0,0:0:0:0:
252,284,36887,2,0,P|284:308|292:336,1,60.0000022888184,2|0,0:0|0:0,0:0:0:0:
172,292,37363,1,0,3:0:0:0:
336,376,37601,1,2,0:0:0:0:
508,333,37839,2,0,P|480:309|400:305,1,120.000004577637,2|0,0:0|3:0,0:0:0:0:
400,304,38554,1,0,3:0:0:0:
400,304,38792,5,2,0:0:0:0:
424,225,39268,1,0,3:0:0:0:
412,141,39744,1,0,0:0:0:0:
340,97,40220,6,0,L|276:100,1,60.0000022888184,0|0,3:0|0:0,0:0:0:0:
196,132,40696,2,0,L|64:128,1,120.000004577637,2|0,0:0|3:0,0:0:0:0:
256,204,41649,2,0,L|136:200,1,120.000004577637,2|0,0:0|3:0,0:0:0:0:
168,280,42363,1,0,0:0:0:0:
168,280,42601,5,2,0:0:0:0:
240,324,43077,1,0,3:0:0:0:
324,316,43554,1,2,0:0:0:0:
380,252,44030,1,0,3:0:0:0:
380,252,44268,5,0,0:0:0:0:
404,332,44506,2,0,B|444:344|480:332|480:332|492:304,1,90.0000034332277,2|0,0:0|0:0,0:0:0:0:
492,300,44982,2,0,P|496:268|488:240,1,60.0000022888184,0|2,3:0|0:0,0:0:0:0:
375,136,45458,2,0,P|363:194|380:252,1,120.000004577637,2|0,0:0|3:0,0:0:0:0:
379,251,46173,1,0,3:0:0:0:
379,251,46411,5,2,0:0:0:0:
300,280,46887,1,0,3:0:0:0:
224,248,47363,1,0,0:0:0:0:
144,276,47839,6,0,L|140:344,1,60.0000022888184,0|0,3:0|0:0,0:0:0:0:
56,276,48316,2,0,P|36:220|56:164,1,120.000004577637,2|0,0:0|3:0,0:0:0:0:
224,136,49268,2,0,P|243:191|223:247,1,120.000004577637,2|0,0:0|3:0,0:0:0:0:
140,188,49982,1,0,3:0:0:0:
136,84,50220,5,2,0:0:0:0:
220,72,50696,1,0,3:0:0:0:
304,60,51173,1,0,0:0:0:0:
388,48,51649,1,0,3:0:0:0:
388,48,51887,5,0,0:0:0:0:
360,128,52125,2,0,P|408:132|444:108,1,90.0000034332277,2|0,0:0|0:0,0:0:0:0:
456,124,52601,2,0,L|448:196,1,60.0000022888184,0|2,3:0|0:0,0:0:0:0:
368,312,53077,2,0,B|316:276|316:276|372:252,1,120.000004577637,2|0,0:0|3:0,0:0:0:0:
480,296,53792,1,0,3:0:0:0:
432,372,54030,5,2,0:0:0:0:
356,336,54506,1,0,3:0:0:0:
320,260,54982,1,0,0:0:0:0:
328,176,55458,6,0,P|336:140|332:112,1,60.0000022888184,0|0,3:0|0:0,0:0:0:0:
268,72,55935,2,0,L|396:60,1,120.000004577637,2|0,0:0|3:0,0:0:0:0:
180,156,56887,2,0,L|52:144,1,120.000004577637,2|0,0:0|3:0,0:0:0:0:
16,220,57601,1,0,3:0:0:0:
16,220,57839,5,2,0:0:0:0:
44,300,58316,1,0,3:0:0:0:
128,312,58792,1,2,0:0:0:0:
100,232,59268,1,0,3:0:0:0:
100,232,59506,1,0,0:0:0:0:
44,300,59744,6,0,B|32:359|80:387,1,90.0000034332277,2|0,0:0|0:0,0:0:0:0:
85,352,60220,2,0,P|103:327|127:310,1,60.0000022888184,0|2,3:0|0:0,0:0:0:0:
232,356,60696,2,0,P|296:364|360:336,1,120.000004577637,2|0,0:0|3:0,0:0:0:0:
424,288,61411,1,0,3:0:0:0:
460,368,61649,5,2,0:0:0:0:
508,296,62125,1,0,3:0:0:0:
476,220,62601,1,0,0:0:0:0:
424,288,63077,6,0,L|356:292,1,60.0000022888184,0|0,3:0|0:0,0:0:0:0:
256,344,63554,2,0,P|248:312|256:284,1,60.0000022888184,2|0,3:2|0:0,0:0:0:0:
184,208,64030,2,0,L|48:200,2,120.000004577637,2|0|2,3:2|3:0|3:2,0:0:0:0:
280,148,65220,1,0,3:0:0:0:
212,72,65458,5,2,0:0:0:0:
296,68,65935,1,2,3:2:0:0:
376,36,66411,1,0,0:0:0:0:
460,32,66887,6,0,P|468:76|460:104,1,60.0000022888184,2|0,3:2|0:0,0:0:0:0:
368,180,67363,2,0,L|432:184,1,60.0000022888184,2|0,0:0|0:0,0:0:0:0:
476,296,67839,2,0,P|420:340|356:324,2,120.000004577637,2|0|2,3:2|0:0|3:2,0:0:0:0:
476,296,69030,1,0,3:0:0:0:
476,296,69268,5,2,0:0:0:0:
392,288,69744,1,2,3:2:0:0:
308,280,70220,1,0,0:0:0:0:
224,272,70696,1,0,3:0:0:0:
168,332,71173,5,0,0:0:0:0:
204,256,71649,1,0,3:0:0:0:
188,172,72125,1,2,0:0:0:0:
120,124,72601,1,0,3:0:0:0:
120,124,72839,1,0,3:0:0:0:
120,124,73077,6,0,L|0:132,1,120.000004577637,2|2,3:2|3:2,0:0:0:0:
84,352,74030,1,0,0:0:0:0:
168,340,74506,1,2,3:2:0:0:
156,256,74982,1,2,0:0:0:0:
72,268,75458,5,2,3:2:0:0:
168,340,75935,1,2,3:2:0:0:
272,228,76411,2,0,P|284:196|284:168,1,60.0000022888184,2|0,3:2|3:0,0:0:0:0:
252,80,76887,5,2,0:0:0:0:
336,80,77363,1,0,3:0:0:0:
404,128,77839,1,0,0:0:0:0:
488,128,78316,6,0,P|492:164|484:200,1,60.0000022888184,2|0,3:2|0:0,0:0:0:0:
408,244,78792,2,0,L|336:236,1,60.0000022888184,2|0,0:0|0:0,0:0:0:0:
268,192,79268,2,0,P|244:228|252:308,2,120.000004577637,2|2|2,3:2|0:0|3:2,0:0:0:0:
360,172,80458,1,0,3:0:0:0:
408,92,80696,5,2,0:0:0:0:
328,64,81173,1,2,3:2:0:0:
244,68,81649,1,0,0:0:0:0:
164,40,82125,6,0,L|104:44,1,60.0000022888184,2|0,3:2|0:0,0:0:0:0:
16,128,82601,2,0,P|12:160|24:192,1,60.0000022888184,2|0,0:2|0:0,0:0:0:0:
128,296,83077,2,0,L|144:176,2,120.000004577637,2|2|2,3:2|0:0|3:2,0:0:0:0:
56,364,84268,1,0,3:0:0:0:
180,376,84506,6,0,P|249:378|308:352,1,120.000004577637,2|0,0:0|3:0,0:0:0:0:
296,352,85458,2,0,P|239:371|180:367,1,120.000004577637,2|0,3:2|3:0,0:0:0:0:
184,356,86411,2,0,P|253:358|312:332,1,120.000004577637,2|0,0:0|3:0,0:0:0:0:
304,332,87363,6,0,P|292:300|296:276,1,60.0000022888184,2|0,0:0|0:0,0:0:0:0:
336,200,87839,2,0,P|372:176|408:184,1,60.0000022888184,2|0,3:2|3:0,0:0:0:0:
496,184,88316,6,0,P|460:164|436:88,1,120.000004577637,2|0,0:0|3:0,0:0:0:0:
160,120,89268,2,0,P|200:114|250:51,1,120.000004577637,2|0,0:0|3:0,0:0:0:0:
312,276,90220,5,4,0:0:0:0:
256,192,90339,12,12,91649,0:0:0:0:
176,332,92125,6,0,L|96:340,1,80,4|0,0:2|0:2,0:2:0:0:
212,316,92601,2,0,L|132:324,1,80,8|0,0:2|0:2,0:2:0:0:
24,192,93077,1,2,0:2:0:0:
88,248,93316,2,0,P|108:200|96:160,1,80,0|8,0:2|0:2,0:2:0:0:
72,48,93792,1,0,0:2:0:0:
72,48,94030,6,0,L|164:44,1,80,2|0,0:2|0:2,0:2:0:0:
387,172,94506,1,8,0:2:0:0:
355,96,94744,1,0,0:2:0:0:
301,160,94982,2,0,P|293:212|309:252,2,80,2|0|8,0:2|0:2|0:2,0:2:0:0:
224,272,95696,6,0,L|384:264,1,160,2|2,0:2|0:2,0:2:0:0:
164,332,96411,5,8,0:2:0:0:
244,336,96649,1,2,0:2:0:0:
208,264,96887,5,0,0:2:0:0:
128,268,97125,1,2,0:2:0:0:
80,348,97363,5,8,0:2:0:0:
132,256,97601,1,2,0:2:0:0:
96,184,97839,5,0,0:2:0:0:
16,188,98077,1,2,0:2:0:0:
48,264,98316,5,8,0:2:0:0:
128,268,98554,1,0,0:2:0:0:
192,180,98792,5,2,0:2:0:0:
204,108,99030,1,0,0:2:0:0:
184,40,99268,1,8,0:2:0:0:
68,120,99506,6,0,P|119:183|192:180,1,160,2|2,0:2|0:2,0:2:0:0:
220,296,100220,1,8,0:2:0:0:
196,292,100339,1,0,0:2:0:0:
296,184,100577,1,0,0:2:0:0:
320,180,100696,5,2,0:2:0:0:
308,108,100935,1,0,0:2:0:0:
328,40,101173,1,8,0:2:0:0:
456,168,101411,6,0,P|400:208|320:180,1,160,2|2,0:2|0:2,0:2:0:0:
308,108,102125,1,8,0:2:0:0:
288,104,102244,1,0,0:2:0:0:
236,36,102482,1,0,0:2:0:0:
256,32,102601,5,2,0:2:0:0:
256,172,102839,2,0,P|248:140|272:96,1,80,0|8,0:2|0:2,0:2:0:0:
264,356,103316,2,0,P|272:288|208:232,1,160,2|0,0:2|0:2,0:2:0:0:
76,264,104030,1,8,0:2:0:0:
132,332,104268,5,2,0:2:0:0:
152,328,104387,1,0,0:2:0:0:
172,324,104506,5,2,0:2:0:0:
76,264,104744,1,0,0:2:0:0:
180,160,104982,1,8,0:2:0:0:
24,116,105220,2,0,P|16:72|36:36,1,80,2|0,0:2|0:2,0:2:0:0:
192,76,105696,5,2,0:2:0:0:
180,160,105935,1,8,0:2:0:0:
276,152,106173,1,0,0:2:0:0:
284,132,106292,1,8,0:2:0:0:
372,184,106530,1,0,0:2:0:0:
380,204,106649,1,8,0:2:0:0:
388,224,106768,1,2,0:3:0:0:
396,240,106887,2,0,L|384:328,1,80,2|4,0:3|0:3,0:2:0:0:
192,348,107363,6,0,L|280:344,1,80,4|0,0:1|0:2,0:2:0:0:
172,328,107839,2,0,L|260:324,1,80,8|0,0:2|0:2,0:2:0:0:
56,240,108316,1,2,0:2:0:0:
8,296,108554,2,0,P|8:340|32:372,1,80,0|8,0:2|0:2,0:2:0:0:
152,260,109030,1,0,0:2:0:0:
152,260,109268,6,0,L|160:176,1,80,2|0,0:2|0:2,0:2:0:0:
84,44,109744,1,8,0:2:0:0:
24,96,109982,1,0,0:2:0:0:
24,96,110101,1,0,0:2:0:0:
24,96,110220,6,0,P|56:120|100:120,1,80,2|0,0:2|0:2,0:2:0:0:
288,48,110696,1,8,0:2:0:0:
372,80,110935,6,0,L|212:95,1,160,2|2,0:2|0:2,0:2:0:0:
432,24,111649,5,8,0:2:0:0:
508,36,111887,1,2,0:2:0:0:
416,176,112125,5,0,0:2:0:0:
340,188,112363,1,2,0:2:0:0:
436,112,112601,5,8,0:2:0:0:
496,220,112839,1,2,0:2:0:0:
376,276,113077,5,0,0:2:0:0:
300,288,113316,1,2,0:2:0:0:
208,124,113554,5,8,0:2:0:0:
284,136,113792,1,0,0:2:0:0:
192,281,114030,5,2,0:2:0:0:
112,269,114268,1,0,0:2:0:0:
56,209,114506,1,8,0:2:0:0:
57,342,114744,2,0,P|113:288|192:281,1,160,2|2,0:2|0:2,0:2:0:0:
255,367,115458,5,8,0:2:0:0:
235,371,115577,1,0,0:2:0:0:
301,276,115816,1,0,0:2:0:0:
321,280,115935,5,2,0:2:0:0:
401,268,116173,1,0,0:2:0:0:
457,208,116411,1,8,0:2:0:0:
443,367,116649,2,0,P|396:305|321:280,1,160,2|2,0:2|0:2,0:2:0:0:
280,152,117363,5,8,0:2:0:0:
260,148,117482,1,0,0:2:0:0:
232,40,117720,1,0,0:2:0:0:
252,32,117839,5,2,0:2:0:0:
380,72,118077,2,0,P|340:92|300:84,1,80,0|8,0:2|0:2,0:2:0:0:
132,72,118554,6,0,B|168:100|208:88|208:88|192:40|128:24,1,160,2|2,0:2|0:2,0:2:0:0:
60,28,119268,2,0,P|44:72|60:112,1,80,8|2,0:2|0:2,0:2:0:0:
60,120,119625,1,0,0:2:0:0:
68,136,119744,5,2,0:2:0:0:
112,280,119982,1,0,0:2:0:0:
224,176,120220,1,8,0:2:0:0:
132,200,120458,1,2,0:2:0:0:
132,200,120696,1,4,0:2:0:0:
216,312,120935,6,0,L|312:308,1,80,0|8,0:2|0:2,0:2:0:0:
476,216,121411,1,0,0:2:0:0:
472,236,121530,1,8,0:2:0:0:
364,364,121768,1,0,0:2:0:0:
368,344,121887,1,10,0:2:0:0:
372,324,122006,1,2,0:3:0:0:
376,304,122125,6,0,B|368:284|368:284|368:264,1,40,2|0,0:3|0:2,0:2:0:0:
480,196,122363,2,0,B|488:176|488:176|488:156,1,40,4|0,0:3|0:2,0:2:0:0:
480,76,122601,6,0,B|448:48|400:56|400:56|412:104,1,120,4|0,0:2|0:0,0:0:0:0:
328,48,123077,2,0,L|352:132,1,80,8|0,0:0|0:0,0:0:0:0:
224,208,123554,1,2,0:0:0:0:
224,208,123792,1,2,0:0:0:0:
224,208,124030,1,10,0:0:0:0:
196,136,124268,6,0,P|144:176|176:272,1,160,2|0,0:0|0:0,0:0:0:0:
224,208,124982,2,0,L|312:200,1,80,8|2,0:0|0:0,0:0:0:0:
159,260,125458,1,0,0:0:0:0:
24,312,125696,2,0,L|112:320,1,80,2|8,0:0|0:0,0:0:0:0:
208,60,126173,6,0,P|144:28|68:72,1,160,2|2,0:0|0:0,0:0:0:0:
256,144,126887,1,8,0:0:0:0:
440,66,127125,2,0,P|374:28|304:60,1,160,2|0,0:0|0:0,0:0:0:0:
256,144,127839,5,8,0:0:0:0:
256,224,128077,2,0,L|256:308,2,80,2|0|2,0:0|0:0|0:0,0:0:0:0:
192,344,128792,1,8,0:0:0:0:
320,344,129030,1,0,0:0:0:0:
424,220,129268,5,2,0:0:0:0:
396,372,129506,1,2,0:0:0:0:
384,292,129744,1,8,0:0:0:0:
396,372,129982,1,0,0:0:0:0:
320,344,130220,6,0,B|296:304|316:264|316:264|352:280,1,120,2|0,0:0|0:0,0:0:0:0:
384,292,130696,2,0,P|424:300|468:288,1,80,8|0,0:0|0:0,0:0:0:0:
388,128,131173,1,2,0:0:0:0:
388,128,131411,1,2,0:0:0:0:
388,128,131649,1,10,0:0:0:0:
348,188,131887,2,0,P|448:172|456:116,1,160,2|0,0:0|0:0,0:0:0:0:
373,49,132601,2,0,L|388:128,1,80,8|2,0:0|0:0,0:0:0:0:
228,200,133077,5,0,0:0:0:0:
348,188,133316,1,2,0:0:0:0:
264,332,133554,5,8,0:0:0:0:
144,344,133792,1,2,0:0:0:0:
12,264,134030,5,2,0:0:0:0:
96,256,134268,2,0,L|184:248,1,80,0|8,0:0|0:0,0:0:0:0:
423,316,134744,2,0,L|264:332,1,160,2|2,0:0|0:0,0:0:0:0:
292,235,135458,2,0,L|372:228,1,80,8|2,0:0|0:0,0:0:0:0:
116,144,135935,5,0,0:0:0:0:
116,144,136173,1,2,0:0:0:0:
116,144,136411,1,8,0:0:0:0:
192,164,136649,2,0,P|208:144|208:128,1,40,2|2,0:0|0:0,0:0:0:0:
256,48,136887,5,2,0:0:0:0:
308,144,137125,1,0,1:0:0:0:
192,164,137363,1,0,1:0:0:0:
368,264,137601,1,2,1:3:0:0:
136,296,137839,6,0,L|16:300,1,120,4|0,0:0|0:0,0:0:0:0:
8,320,138316,2,0,P|20:368|48:384,1,80,8|0,0:0|0:0,0:0:0:0:
192,344,138792,1,2,0:0:0:0:
192,344,139030,1,2,0:0:0:0:
192,344,139268,1,10,0:0:0:0:
136,296,139506,2,0,P|228:280|264:360,1,160,2|0,0:0|0:0,0:0:0:0:
396,340,140220,2,0,B|332:364|332:364|336:332,1,80,8|2,0:0|0:0,0:0:0:0:
348,188,140696,5,0,0:0:0:0:
432,180,140935,2,0,L|516:172,1,80,2|8,0:0|0:0,0:0:0:0:
255,280,141411,6,0,P|181:262|164:188,1,160,2|2,0:0|0:0,0:0:0:0:
256,96,142125,1,8,0:0:0:0:
348,188,142363,2,0,P|330:262|256:280,1,160,2|0,0:0|0:0,0:0:0:0:
256,192,143077,1,8,0:0:0:0:
256,96,143316,2,0,L|256:12,2,80,2|0|2,0:0|0:0|0:0,0:0:0:0:
352,56,144030,1,8,0:0:0:0:
160,56,144268,1,0,0:0:0:0:
64,64,144506,5,2,0:0:0:0:
84,224,144744,1,2,0:0:0:0:
116,136,144982,1,8,0:0:0:0:
84,224,145220,1,0,0:0:0:0:
12,272,145458,6,0,L|136:272,1,120,2|0,0:0|0:0,0:0:0:0:
148,284,145935,2,0,P|148:336|124:360,1,80,8|0,0:0|0:0,0:0:0:0:
208,232,146411,1,2,0:0:0:0:
208,232,146649,1,2,0:0:0:0:
208,232,146887,1,10,0:0:0:0:
148,284,147125,2,0,P|216:312|280:252,1,160,2|0,0:0|0:0,0:0:0:0:
436,124,147839,2,0,L|428:212,1,80,8|2,0:0|0:0,0:0:0:0:
260,80,148316,5,0,0:0:0:0:
384,64,148554,1,2,0:0:0:0:
208,184,148792,5,10,0:0:0:0:
84,200,149030,1,2,0:0:0:0:
12,44,149268,5,2,0:0:0:0:
88,32,149506,2,0,L|180:20,1,80,2|8,0:0|0:0,0:0:0:0:
68,104,149982,2,0,L|160:92,1,80,2|0,0:0|0:0,0:0:0:0:
40,176,150458,1,2,0:0:0:0:
68,104,150696,1,8,0:0:0:0:
116,164,150935,6,0,P|125:209|112:248,1,80,2|4,0:0|0:0,0:0:0:0:
72,356,151411,5,0,1:0:0:0:
92,352,151530,2,0,L|172:364,1,80,0|0,1:0|1:0,1:0:0:0:
196,360,151887,1,0,1:0:0:0:
116,348,152125,5,4,0:0:0:0:
316,360,152363,1,2,0:0:0:0:
395,348,152601,5,4,0:0:0:0:
196,360,152839,1,2,0:0:0:0:
256,280,153077,5,4,1:0:0:0:
428,172,153554,2,0,P|424:212|400:256,1,80,8|0,0:0|0:0,0:0:0:0:
332,264,154030,2,0,L|172:256,1,160,2|8,0:0|0:0,0:0:0:0:
172,364,154744,2,0,L|8:368,2,160,2|2|2,0:0|0:0|0:0,0:0:0:0:
188,268,155935,5,0,0:0:0:0:
284,280,156173,1,2,0:0:0:0:
268,376,156411,1,10,0:0:0:0:
172,364,156649,1,2,0:0:0:0:
44,184,157125,1,2,0:0:0:0:
44,184,157363,6,0,L|132:176,1,80,10|0,0:0|0:0,0:0:0:0:
268,88,157839,2,0,P|236:32|148:4,1,160,2|8,0:0|0:0,0:0:0:0:
80,32,158554,1,2,0:0:0:0:
228,200,159030,1,2,0:0:0:0:
308,208,159268,1,8,0:0:0:0:
388,216,159506,1,0,0:0:0:0:
460,256,159744,6,0,P|464:304|448:336,1,80,2|2,0:0|0:0,0:0:0:0:
272,280,160220,2,0,P|268:328|284:360,1,80,8|0,0:0|0:0,0:0:0:0:
356,380,160696,1,2,0:0:0:0:
204,336,161173,2,0,L|120:340,1,80,8|0,0:0|0:0,0:0:0:0:
48,312,161649,6,0,P|12:252|20:152,1,160,2|8,0:0|0:0,0:0:0:0:
60,100,162363,2,0,L|220:92,2,160,2|2|2,0:0|0:0|0:0,0:0:0:0:
148,216,163554,5,0,0:0:0:0:
216,256,163792,1,2,0:0:0:0:
216,176,164030,1,10,0:0:0:0:
148,216,164268,1,2,0:0:0:0:
264,324,164744,1,2,0:0:0:0:
264,324,164982,6,0,L|360:320,1,80,8|0,0:0|0:0,0:0:0:0:
496,248,165458,2,0,P|404:188|388:112,1,160,2|8,0:0|0:0,0:0:0:0:
400,64,166173,1,2,0:0:0:0:
260,140,166649,1,2,0:0:0:0:
180,128,166887,1,8,0:0:0:0:
100,116,167125,1,0,0:0:0:0:
28,84,167363,6,0,P|16:44|16:4,1,80,2|2,0:0|0:0,0:0:0:0:
128,188,167839,2,0,P|127:227|115:265,1,80,10|2,0:0|0:0,0:0:0:0:
40,296,168316,5,4,0:0:0:0:
200,324,168792,1,8,0:0:0:0:
120,340,169030,1,2,0:0:0:0:
200,324,169268,2,0,L|280:328,1,80,2|0,0:0|0:0,0:0:0:0:
360,340,169744,1,8,0:0:0:0:
440,352,169982,2,0,P|456:300|432:196,2,160,2|2|2,0:0|0:0|0:0,0:0:0:0:
300,160,171173,5,0,0:0:0:0:
288,240,171411,1,2,0:0:0:0:
208,228,171649,1,8,0:0:0:0:
216,148,171887,1,2,0:0:0:0:
380,56,172363,1,2,0:0:0:0:
380,56,172601,6,0,L|464:60,1,80,8|2,0:0|0:0,0:0:0:0:
284,80,173077,1,0,0:0:0:0:
220,32,173316,1,2,0:0:0:0:
212,112,173554,1,8,0:0:0:0:
148,160,173792,2,0,P|88:160|12:84,1,160,2|2,0:0|0:0,0:0:0:0:
12,16,174506,1,8,0:0:0:0:
196,224,174982,6,0,L|96:232,1,80,2|2,0:0|0:0,0:0:0:0:
52,280,175458,2,0,P|64:324|96:356,1,80,8|0,0:0|0:0,0:0:0:0:
164,368,175935,5,2,0:0:0:0:
316,316,176411,1,8,0:0:0:0:
392,340,176649,1,0,0:0:0:0:
316,316,176887,2,0,L|412:312,1,80,2|0,0:0|0:0,0:0:0:0:
452,256,177363,1,8,0:0:0:0:
472,180,177601,2,0,P|436:120|340:108,2,160,2|2|2,0:0|0:0|0:0,0:0:0:0:
220,244,178792,5,0,0:0:0:0:
240,168,179030,1,2,0:0:0:0:
300,220,179268,1,10,0:0:0:0:
220,244,179506,1,2,0:0:0:0:
408,340,179982,1,2,0:0:0:0:
408,340,180220,6,0,L|324:344,1,80,8|2,0:0|0:0,0:0:0:0:
44,232,180935,1,2,0:0:0:0:
44,232,181173,2,0,P|37:275|48:316,1,80,8|2,0:0|0:0,0:0:0:0:
116,352,181649,2,0,B|176:344|176:344|212:320|212:320|272:312,1,160,2|8,0:0|0:0,0:0:0:0:
352,148,182363,5,2,0:0:0:0:
360,136,182601,1,2,0:0:0:0:
432,172,182839,5,2,0:0:0:0:
420,252,183077,5,0,1:1:0:0:
340,264,183316,5,2,0:0:0:0:
304,192,183554,5,6,1:2:0:0:
256,192,206411,12,4,214030,0:0:0:0:
36,148,215458,5,2,0:0:0:0:
112,128,215935,1,2,0:0:0:0:
188,148,216411,1,0,0:0:0:0:
260,188,216887,1,0,0:0:0:0:
340,188,217363,1,0,0:0:0:0:
404,140,217839,1,2,0:0:0:0:
400,148,218316,1,2,0:0:0:0:
364,360,219268,5,2,0:0:0:0:
316,296,219744,1,2,0:0:0:0:
320,216,220220,1,0,0:0:0:0:
268,280,220696,1,0,0:0:0:0:
192,304,221173,1,2,0:0:0:0:
112,292,221649,1,2,0:0:0:0:
108,300,222125,1,2,0:0:0:0:
28,68,224030,5,0,0:0:0:0:
36,76,224506,1,2,0:0:0:0:
116,84,224982,1,2,0:0:0:0:
196,92,225458,1,2,0:0:0:0:
144,160,225935,2,0,P|136:184|136:204,1,40,2|0,0:0|0:0,0:0:0:0:
160,264,226411,5,2,0:0:0:0:
172,280,226887,1,2,0:0:0:0:
184,296,227363,1,2,0:0:0:0:
96,308,227839,5,2,3:0:0:0:
212,216,228316,1,2,3:0:0:0:
240,360,228792,1,2,1:3:0:0:
184,296,229268,5,4,1:0:0:0:
264,308,230220,1,2,0:0:0:0:
344,324,231173,1,0,0:0:0:0:
324,248,231649,1,0,0:0:0:0:
336,168,232125,1,2,0:0:0:0:
408,132,232601,1,0,0:0:0:0:
436,56,233077,1,2,0:0:0:0:
432,64,233554,1,2,0:0:0:0:
48,48,234506,5,0,0:0:0:0:
52,60,234982,1,2,0:0:0:0:
48,140,235458,1,2,0:0:0:0:
100,200,235935,1,0,0:0:0:0:
180,212,236411,1,2,0:0:0:0:
248,168,236887,1,2,0:0:0:0:
252,160,237363,1,0,0:0:0:0:
320,220,237839,5,2,0:0:0:0:
324,212,238316,1,0,0:0:0:0:
408,264,238792,5,2,0:0:0:0:
408,252,239268,1,0,0:0:0:0:
504,256,239744,5,2,0:0:0:0:
432,220,240220,1,2,0:0:0:0:
356,244,240696,1,0,0:0:0:0:
324,316,241173,2,0,B|292:348|240:340|216:304|216:304|216:348|184:368,1,200,2|0,0:0|0:0,0:0:0:0:
120,376,242601,6,0,P|12:324|204:244,1,480,4|4,0:0|1:0,0:0:0:0:
60,88,244506,5,0,3:0:0:0:
52,116,244863,1,0,3:0:0:0:
84,108,245220,1,0,3:0:0:0:
208,48,245458,5,2,3:2:0:0:
160,104,245816,1,2,3:2:0:0:
232,116,246173,1,2,3:2:0:0:
436,80,246411,5,0,1:0:0:0:
324,140,246768,1,0,1:0:0:0:
428,208,247125,1,0,1:0:0:0:
400,144,247363,5,4,1:0:0:0:
416,328,247601,1,0,1:0:0:0:
416,328,247839,1,0,1:0:0:0:
352,340,248077,1,2,0:0:0:0:
472,368,248316,1,0,1:0:0:0:
472,368,248792,6,0,L|460:280,1,80,12|0,2:2|0:2,0:2:0:0:
344,272,249268,2,0,L|332:184,1,80,0|2,0:2|0:2,0:2:0:0:
236,352,249744,1,8,0:2:0:0:
236,352,249982,2,0,P|168:320|64:344,1,160,2|2,0:2|0:2,0:2:0:0:
24,208,250696,2,0,P|20:248|40:292,1,80,8|0,0:2|0:2,0:2:0:0:
160,116,251173,5,2,0:2:0:0:
128,44,251411,1,2,0:2:0:0:
76,104,251649,1,8,0:2:0:0:
156,124,251887,2,0,L|328:112,1,160,2|2,0:2|0:2,0:2:0:0:
408,72,252601,2,0,P|424:112|416:156,1,80,8|0,0:2|0:2,0:2:0:0:
360,296,253077,5,2,0:2:0:0:
392,224,253316,1,2,0:2:0:0:
444,284,253554,1,8,0:2:0:0:
364,304,253792,2,0,L|192:292,1,160,2|2,0:2|0:2,0:2:0:0:
152,352,254506,2,0,P|112:364|60:348,1,80,8|0,0:2|0:2,0:2:0:0:
32,192,254982,5,2,0:2:0:0:
88,132,255220,1,0,0:2:0:0:
116,208,255458,1,8,0:2:0:0:
36,196,255696,2,0,B|128:180|100:248|196:228,1,160,2|0,0:2|0:2,0:2:0:0:
316,264,256411,1,8,0:2:0:0:
320,276,256530,2,0,L|312:368,1,80,2|0,0:2|0:2,0:2:0:0:
312,368,256887,5,2,0:2:0:0:
488,360,257125,1,2,0:2:0:0:
392,220,257363,1,8,0:2:0:0:
296,364,257601,6,0,L|380:360,1,80,2|0,0:2|0:2,0:2:0:0:
500,288,258077,2,0,L|420:291,1,80,2|8,0:2|0:2,0:2:0:0:
173,351,258554,1,2,0:2:0:0:
173,351,258673,1,0,0:2:0:0:
173,351,258792,1,0,0:2:0:0:
92,328,259030,1,2,0:2:0:0:
48,260,259268,2,0,P|36:216|36:180,1,80,2|4,0:3|0:3,0:2:0:0:
16,76,259744,6,0,L|108:72,1,80,4|0,0:2|0:2,0:2:0:0:
176,144,260220,2,0,L|268:140,1,80,8|0,0:2|0:2,0:2:0:0:
372,24,260696,5,2,0:2:0:0:
372,24,260935,2,0,P|376:72|356:108,1,80,0|8,0:2|0:2,0:2:0:0:
476,228,261411,1,2,0:2:0:0:
476,228,261649,6,0,L|484:144,1,80,2|0,0:2|0:2,0:2:0:0:
312,256,262125,1,8,0:2:0:0:
369,322,262363,1,0,0:2:0:0:
369,322,262482,1,0,0:2:0:0:
369,322,262601,6,0,P|417:326|453:310,1,80,2|0,0:2|0:2,0:2:0:0:
284,188,263077,1,8,0:2:0:0:
140,248,263316,6,0,P|168:312|272:344,1,160,2|0,0:2|0:2,0:2:0:0:
296,272,264030,1,8,0:2:0:0:
284,188,264268,1,2,0:2:0:0:
220,248,264506,5,0,0:2:0:0:
300,256,264744,1,2,0:2:0:0:
380,264,264982,2,0,L|464:260,1,80,8|2,0:2|0:2,0:2:0:0:
480,64,265696,1,2,0:2:0:0:
480,64,265816,1,0,0:2:0:0:
480,64,265935,2,0,L|392:68,1,80,8|0,0:2|0:2,0:2:0:0:
328,100,266411,5,2,0:2:0:0:
272,44,266649,1,2,0:2:0:0:
192,36,266887,1,8,0:2:0:0:
120,72,267125,2,0,P|88:108|16:128,1,120,2|0,0:2|0:2,0:2:0:0:
4,124,267601,2,0,P|52:136|92:172,2,80,2|8|2,0:2|0:2|0:2,0:2:0:0:
184,216,268316,5,2,0:2:0:0:
240,160,268554,1,2,0:2:0:0:
320,152,268792,1,8,0:2:0:0:
392,188,269030,2,0,P|424:224|496:244,1,120,2|0,0:2|0:2,0:2:0:0:
508,240,269506,2,0,P|460:252|420:288,2,80,2|8|2,0:2|0:2|0:2,0:2:0:0:
352,352,270220,5,2,0:2:0:0:
300,224,270458,1,0,0:2:0:0:
352,352,270696,1,8,0:2:0:0:
204,316,270935,2,0,B|296:308|276:352|360:348,1,160,2|0,0:2|0:2,0:2:0:0:
148,256,271649,6,0,L|136:172,1,80,8|2,0:2|0:2,0:2:0:0:
120,332,272125,1,0,0:2:0:0:
120,332,272363,1,2,0:2:0:0:
204,316,272601,1,8,0:2:0:0:
40,232,272839,2,0,L|8:64,1,160,2|2,0:2|0:2,0:2:0:0:
10,74,273435,5,0,0:2:0:0:
128,56,273792,1,2,0:2:0:0:
128,56,273911,1,0,0:2:0:0:
232,116,274268,1,2,0:2:0:0:
232,116,274387,1,0,0:2:0:0:
257,121,274506,6,0,L|253:73,1,40,2|0,0:3|0:2,0:2:0:0:
400,80,274744,2,0,L|396:32,1,40,6|0,0:3|0:2,0:2:0:0:
476,188,274982,6,0,P|472:248|464:288,3,80,4|0|8|0,0:2|0:2|0:2|0:2,0:2:0:0:
312,144,275935,1,2,0:2:0:0:
312,144,276173,1,2,0:2:0:0:
312,144,276411,1,10,0:2:0:0:
228,168,276649,2,0,B|308:160|308:160|368:224,1,160,2|0,0:2|0:2,0:2:0:0:
268,340,277363,1,8,0:2:0:0:
268,340,277601,6,0,L|176:332,1,80,2|2,0:2|0:2,0:2:0:0:
32,208,278077,2,0,P|24:252|40:300,1,80,2|8,0:2|0:2,0:2:0:0:
104,324,278554,6,0,L|264:316,1,160,2|2,0:2|0:2,0:2:0:0:
340,336,279268,1,8,0:2:0:0:
324,256,279506,1,2,0:2:0:0:
192,16,279982,5,2,0:2:0:0:
204,96,280220,1,8,0:2:0:0:
272,140,280458,2,0,B|360:156|340:104|432:116,1,160,2|0,0:2|0:2,0:2:0:0:
500,148,281173,1,8,0:2:0:0:
360,260,281649,5,2,0:2:0:0:
244,344,281887,1,2,0:2:0:0:
280,272,282125,1,8,0:2:0:0:
244,344,282363,1,0,0:2:0:0:
168,320,282601,6,0,P|128:320|88:328,3,80,2|0|8|0,0:2|0:2|0:2|0:2,0:2:0:0:
24,176,283554,1,2,0:2:0:0:
24,176,283792,1,2,0:2:0:0:
24,176,284030,1,10,0:2:0:0:
92,132,284268,2,0,B|36:180|36:180|52:264,1,160,2|0,0:2|0:2,0:2:0:0:
208,160,284982,1,8,0:2:0:0:
208,160,285220,6,0,L|216:68,2,80,2|0|2,0:2|0:2|0:2,0:2:0:0:
156,220,285935,1,8,0:2:0:0:
204,284,286173,1,2,0:2:0:0:
280,264,286411,1,0,0:2:0:0:
280,184,286649,6,0,P|280:244|296:268,1,80,2|8,0:2|0:2,0:2:0:0:
328,360,287125,2,0,P|376:304|472:296,1,160,2|2,0:2|0:2,0:2:0:0:
457,291,287839,1,8,0:2:0:0:
504,228,288077,1,2,0:2:0:0:
272,164,288554,1,2,0:2:0:0:
476,32,289030,1,2,0:2:0:0:
476,32,289268,5,2,0:2:0:0:
428,96,289506,1,0,1:2:0:0:
356,132,289744,1,2,1:2:0:0:
280,108,289982,1,2,0:2:0:0:
212,68,290220,6,0,L|132:64,3,80,4|0|8|0,0:2|0:2|0:2|0:2,0:2:0:0:
88,212,291173,1,2,0:2:0:0:
88,212,291411,1,2,0:2:0:0:
88,212,291649,1,10,0:2:0:0:
0,176,291887,2,0,B|84:188|84:188|152:148,1,160,2|0,0:2|0:2,0:2:0:0:
164,296,292601,1,8,0:2:0:0:
164,296,292839,6,0,P|128:272|76:276,1,80,2|0,0:2|0:2,0:2:0:0:
16,340,293316,2,0,P|52:364|104:360,1,80,2|8,0:2|0:2,0:2:0:0:
272,308,293792,2,0,B|368:288|332:348|436:328,1,160,2|2,0:2|0:2,0:2:0:0:
504,320,294506,1,8,0:2:0:0:
456,256,294744,1,2,0:2:0:0:
204,16,295220,5,2,0:2:0:0:
220,96,295458,1,8,0:2:0:0:
288,136,295696,2,0,B|192:116|228:176|124:156,1,160,2|0,0:2|0:2,0:2:0:0:
64,120,296411,1,8,0:2:0:0:
52,264,296768,1,8,0:2:0:0:
52,264,296887,5,0,0:2:0:0:
180,348,297125,1,2,0:2:0:0:
96,336,297363,1,8,0:2:0:0:
180,348,297601,1,2,0:2:0:0:
252,304,297839,6,0,P|252:260|260:216,3,80,2|0|8|0,0:2|0:2|0:2|0:2,0:2:0:0:
432,272,298792,1,2,0:2:0:0:
432,272,299030,1,2,0:2:0:0:
432,272,299268,1,10,0:2:0:0:
376,340,299506,2,0,B|420:268|420:268|384:192,1,160,2|0,0:2|0:2,0:2:0:0:
324,44,300220,1,8,0:2:0:0:
324,44,300458,6,0,P|376:36|424:40,2,80,2|0|2,0:2|0:2|0:2,0:2:0:0:
248,12,301173,1,8,0:2:0:0:
196,72,301411,1,2,0:2:0:0:
240,140,301649,1,0,0:2:0:0:
316,120,301887,6,0,P|272:116|232:136,1,80,0|8,0:2|0:2,0:2:0:0:
192,244,302363,2,0,P|144:168|48:156,1,160,2|0,0:2|0:2,0:2:0:0:
80,150,303077,1,8,0:2:0:0:
12,192,303316,5,2,0:2:0:0:
256,356,303792,1,2,0:2:0:0:
500,192,304268,1,2,0:2:0:0:
256,28,304744,1,2,0:2:0:0:
256,108,304982,2,0,L|256:208,1,80,2|4,0:3|0:3,0:2:0:0:
204,248,305458,5,4,0:2:0:0:
44,268,305935,1,0,3:2:0:0:
104,120,306411,1,2,0:2:0:0:
204,248,306887,1,0,3:2:0:0:
124,260,307125,1,2,0:2:0:0:
124,260,307601,1,2,0:2:0:0:
176,324,307839,2,0,L|264:328,1,80,0|2,3:2|0:2,0:2:0:0:
336,188,308316,5,2,0:2:0:0:
412,156,308554,1,2,0:2:0:0:
476,208,308792,1,2,3:2:0:0:
400,232,309030,1,2,0:2:0:0:
288,120,309506,1,2,0:2:0:0:
208,108,309744,6,0,L|292:104,1,80,0|0,3:2|0:2,0:2:0:0:
52,212,310458,1,2,0:2:0:0:
132,200,310696,6,0,L|48:196,1,80,2|0,3:2|0:2,0:2:0:0:
208,324,311411,1,0,0:2:0:0:
288,312,311649,1,2,3:2:0:0:
288,312,312125,6,0,P|336:320|364:344,1,80,2|0,0:2|0:2,0:2:0:0:
432,224,312601,2,0,P|384:232|356:256,1,80,2|0,3:2|0:2,0:2:0:0:
440,384,313077,5,2,0:2:0:0:
432,224,313554,1,0,3:2:0:0:
288,312,314030,1,2,0:2:0:0:
440,384,314506,1,0,3:2:0:0:
436,304,314744,1,2,0:2:0:0:
436,304,315220,1,2,0:2:0:0:
368,344,315458,2,0,L|280:348,1,80,0|2,3:2|0:2,0:2:0:0:
180,224,315935,5,2,0:2:0:0:
112,180,316173,1,2,0:2:0:0:
36,208,316411,1,2,3:2:0:0:
104,252,316649,1,2,0:2:0:0:
120,56,317125,6,0,L|32:52,2,80,2|0|2,0:2|3:2|0:2,0:2:0:0:
264,96,318077,2,0,L|176:100,2,80,2|0|2,0:2|3:2|0:2,0:2:0:0:
416,40,319030,1,2,0:2:0:0:
400,192,319506,1,2,0:2:0:0:
460,140,319744,5,2,0:2:0:0:
408,200,319982,1,2,0:2:0:0:
396,280,320220,1,4,1:0:0:0:
336,228,320458,1,0,0:2:0:0:
256,216,320696,5,6,0:2:0:0:
176,228,321173,1,0,3:2:0:0:
112,276,321649,1,2,0:2:0:0:
32,288,322125,1,0,3:2:0:0:
80,352,322601,5,0,0:2:0:0:
56,276,323077,1,2,3:2:0:0:
64,196,323554,1,0,0:2:0:0:
108,132,324030,1,2,3:2:0:0:
152,68,324506,5,0,0:2:0:0:
220,112,324982,1,2,3:2:0:0:
300,120,325458,1,0,0:2:0:0:
380,104,325935,1,2,3:2:0:0:
436,48,326411,1,0,0:2:0:0:
436,48,326887,1,2,3:2:0:0:
436,48,327363,1,2,0:2:0:0:
436,48,327839,5,0,3:2:0:0:
440,88,328077,1,0,3:2:0:0:
444,128,328316,1,0,0:2:0:0:
436,208,328792,1,2,3:2:0:0:
356,200,329268,1,0,0:2:0:0:
364,120,329744,1,2,3:2:0:0:
340,196,330220,5,0,0:2:0:0:
296,264,330696,1,2,3:2:0:0:
228,304,331173,1,0,0:2:0:0:
148,304,331649,1,2,3:2:0:0:
148,304,331887,1,0,3:2:0:0:
148,304,332125,5,0,0:2:0:0:
68,292,332601,1,2,3:2:0:0:
148,292,333077,1,0,0:2:0:0:
220,324,333554,1,2,3:2:0:0:
296,344,334030,1,0,0:2:0:0:
376,344,334506,1,2,3:2:0:0:
444,304,334982,1,0,0:2:0:0:
464,228,335458,1,2,3:2:0:0:
464,228,335696,1,0,3:2:0:0:
256,192,335935,12,0,346173,0:0:0:0:
