osu file format v14

[General]
AudioFilename: audio.mp3
AudioLeadIn: 0
PreviewTime: 18727
Countdown: 0
SampleSet: Normal
StackLeniency: 0.7
Mode: 1
LetterboxInBreaks: 0
WidescreenStoryboard: 0

[Editor]
Bookmarks: 266,18727,43342,67958,98727,123342,149496,180266,204881,229496,260266,284881,311035,341804
DistanceSpacing: 0.8
BeatDivisor: 4
GridSize: 32
TimelineZoom: 2.3

[Metadata]
Title:Karakuri Spirits [MEIKAI ARRANGE VERSION]
TitleUnicode:Karakuri Spirits [MEIKAI ARRANGE VERSION]
Artist:Ayako Saso
ArtistUnicode:佐宗綾子
Creator:Stefan
Version:Oni Collab
Source:まもるクンは呪われてしまった!
Tags:yousuke yasui video game instrumental mamoru-kun wa norowarete shimatta! mamoru has been cursed! katsugeki grimbow streeteelf yuki_momoiro722 k3v227 [i]mmortal[s] ayyri eiri lyawi midnaait taikocracy incandescence jdrago14 thenutritiousguy tng
BeatmapID:2008582
BeatmapSetID:959380

[Difficulty]
HPDrainRate:5
CircleSize:5
OverallDifficulty:5.5
ApproachRate:5
SliderMultiplier:1.4
SliderTickRate:1

[Events]
//Background and Video events
0,0,"Mamorukun Curse Screenshot 1.png",0,0
//Break Periods
2,123542,134450
2,285081,295989
//Storyboard Layer 0 (Background)
//Storyboard Layer 1 (Fail)
//Storyboard Layer 2 (Pass)
//Storyboard Layer 3 (Foreground)
//Storyboard Layer 4 (Overlay)
//Storyboard Sound Samples

[TimingPoints]
266,384.615384615385,4,1,0,70,1,0
124112,-100,4,1,0,5,0,0
149400,-100,4,1,0,70,0,0
149496,-100,4,1,0,70,0,1
174112,-100,4,1,0,70,0,0
285266,-100,4,1,0,10,0,0
311035,-100,4,1,0,70,0,1
335650,-100,4,1,0,70,0,0
340266,-100,4,1,0,60,0,0
341035,-100,4,1,0,50,0,0
341804,-100,4,1,0,40,0,0

[HitObjects]
256,192,266,5,4,0:0:0:0:
256,192,458,1,0,0:0:0:0:
256,192,650,1,8,0:0:0:0:
256,192,842,1,8,0:0:0:0:
256,192,1035,1,8,0:0:0:0:
256,192,1227,1,0,0:0:0:0:
256,192,1323,1,0,0:0:0:0:
256,192,1419,1,8,0:0:0:0:
256,192,1612,1,0,0:0:0:0:
256,192,1804,1,8,0:0:0:0:
256,192,1996,1,8,0:0:0:0:
256,192,2189,1,0,0:0:0:0:
256,192,2381,1,8,0:0:0:0:
256,192,2573,1,8,0:0:0:0:
256,192,2669,1,8,0:0:0:0:
256,192,2766,1,0,0:0:0:0:
256,192,2958,1,0,0:0:0:0:
256,192,3150,1,8,0:0:0:0:
256,192,3535,1,0,0:0:0:0:
256,192,3727,1,8,0:0:0:0:
256,192,3919,1,8,0:0:0:0:
256,192,4112,1,8,0:0:0:0:
256,192,4304,1,0,0:0:0:0:
256,192,4400,1,0,0:0:0:0:
256,192,4496,1,8,0:0:0:0:
256,192,4689,1,0,0:0:0:0:
256,192,4881,1,8,0:0:0:0:
256,192,5073,1,8,0:0:0:0:
256,192,5266,1,0,0:0:0:0:
256,192,5458,1,8,0:0:0:0:
256,192,5650,1,8,0:0:0:0:
256,192,5746,1,8,0:0:0:0:
256,192,5842,1,0,0:0:0:0:
256,192,6035,1,0,0:0:0:0:
256,192,6227,1,8,0:0:0:0:
256,192,6419,1,4,0:0:0:0:
256,192,6612,1,0,0:0:0:0:
256,192,6804,1,8,0:0:0:0:
256,192,6996,1,8,0:0:0:0:
256,192,7189,1,8,0:0:0:0:
256,192,7381,1,0,0:0:0:0:
256,192,7477,1,0,0:0:0:0:
256,192,7573,1,8,0:0:0:0:
256,192,7669,1,0,0:0:0:0:
256,192,7766,1,0,0:0:0:0:
256,192,7958,1,8,0:0:0:0:
256,192,8150,1,8,0:0:0:0:
256,192,8342,1,8,0:0:0:0:
256,192,8535,1,0,0:0:0:0:
256,192,8727,1,8,0:0:0:0:
256,192,8823,1,8,0:0:0:0:
256,192,8919,1,0,0:0:0:0:
256,192,9112,1,8,0:0:0:0:
256,192,9304,1,8,0:0:0:0:
256,192,9496,1,0,0:0:0:0:
256,192,9689,1,0,0:0:0:0:
256,192,9881,1,8,0:0:0:0:
256,192,10073,1,8,0:0:0:0:
256,192,10266,1,0,0:0:0:0:
256,192,10458,1,0,0:0:0:0:
256,192,10554,1,0,0:0:0:0:
256,192,10650,1,8,0:0:0:0:
256,192,10746,1,8,0:0:0:0:
256,192,10842,1,0,0:0:0:0:
256,192,11035,1,0,0:0:0:0:
256,192,11227,1,8,0:0:0:0:
256,192,11419,1,8,0:0:0:0:
256,192,11612,1,8,0:0:0:0:
256,192,11804,1,0,0:0:0:0:
256,192,11900,1,8,0:0:0:0:
256,192,11996,1,0,0:0:0:0:
256,192,12092,1,0,0:0:0:0:
256,192,12189,1,8,0:0:0:0:
256,192,12285,1,0,0:0:0:0:
256,192,12381,1,8,0:0:0:0:
256,192,12573,1,4,0:0:0:0:
256,192,12766,1,0,0:0:0:0:
256,192,12862,1,0,0:0:0:0:
256,192,12958,1,8,0:0:0:0:
256,192,13150,1,0,0:0:0:0:
256,192,13342,1,8,0:0:0:0:
256,192,13535,1,8,0:0:0:0:
256,192,13631,1,0,0:0:0:0:
256,192,13727,1,8,0:0:0:0:
256,192,13823,1,8,0:0:0:0:
256,192,13919,1,0,0:0:0:0:
256,192,14112,1,8,0:0:0:0:
256,192,14304,1,8,0:0:0:0:
256,192,14496,1,8,0:0:0:0:
256,192,14592,1,0,0:0:0:0:
256,192,14689,1,8,0:0:0:0:
256,192,14785,1,0,0:0:0:0:
256,192,14881,1,8,0:0:0:0:
256,192,14977,1,8,0:0:0:0:
256,192,15073,1,0,0:0:0:0:
256,192,15266,1,8,0:0:0:0:
256,192,15458,1,8,0:0:0:0:
256,192,15650,1,4,0:0:0:0:
256,192,15842,1,0,0:0:0:0:
256,192,16035,1,8,0:0:0:0:
256,192,16227,1,8,0:0:0:0:
256,192,16419,1,12,0:0:0:0:
256,192,16612,1,0,0:0:0:0:
256,192,16708,1,8,0:0:0:0:
256,192,16804,1,8,0:0:0:0:
256,192,16900,1,8,0:0:0:0:
256,192,16996,1,0,0:0:0:0:
256,192,17189,1,12,0:0:0:0:
256,192,17381,1,8,0:0:0:0:
256,192,17573,1,8,0:0:0:0:
256,192,17766,1,0,0:0:0:0:
256,192,17862,1,8,0:0:0:0:
256,192,17958,1,8,0:0:0:0:
256,192,18054,1,8,0:0:0:0:
256,192,18150,1,0,0:0:0:0:
256,192,18246,1,0,0:0:0:0:
256,192,18342,1,8,0:0:0:0:
256,192,18535,1,0,0:0:0:0:
256,192,18631,1,0,0:0:0:0:
256,192,18727,5,8,0:0:0:0:
256,192,18919,1,8,0:0:0:0:
256,192,19112,1,0,0:0:0:0:
256,192,19304,1,0,0:0:0:0:
256,192,19400,1,0,0:0:0:0:
256,192,19496,1,8,0:0:0:0:
256,192,19592,1,8,0:0:0:0:
256,192,19689,1,0,0:0:0:0:
256,192,19785,1,0,0:0:0:0:
256,192,19881,1,8,0:0:0:0:
256,192,20073,1,0,0:0:0:0:
256,192,20266,1,8,0:0:0:0:
256,192,20362,1,8,0:0:0:0:
256,192,20458,1,8,0:0:0:0:
256,192,20650,1,0,0:0:0:0:
256,192,20746,1,0,0:0:0:0:
256,192,20842,1,0,0:0:0:0:
256,192,21035,1,8,0:0:0:0:
256,192,21131,1,8,0:0:0:0:
256,192,21227,1,0,0:0:0:0:
256,192,21419,1,8,0:0:0:0:
256,192,21612,1,0,0:0:0:0:
256,192,21708,1,0,0:0:0:0:
256,192,21804,1,8,0:0:0:0:
256,192,21996,1,8,0:0:0:0:
256,192,22189,1,0,0:0:0:0:
256,192,22381,1,0,0:0:0:0:
256,192,22573,1,8,0:0:0:0:
256,192,22766,1,0,0:0:0:0:
256,192,22830,1,0,0:0:0:0:
256,192,22894,1,0,0:0:0:0:
256,192,22958,1,8,0:0:0:0:
256,192,23150,1,0,0:0:0:0:
256,192,23342,1,8,0:0:0:0:
256,192,23727,1,8,0:0:0:0:
256,192,24112,1,0,0:0:0:0:
256,192,24208,1,8,0:0:0:0:
256,192,24400,1,8,0:0:0:0:
256,192,24496,1,0,0:0:0:0:
256,192,24689,1,8,0:0:0:0:
256,192,24881,1,0,0:0:0:0:
256,192,25073,1,0,0:0:0:0:
256,192,25266,1,8,0:0:0:0:
256,192,25458,1,8,0:0:0:0:
256,192,25650,1,0,0:0:0:0:
256,192,26035,1,0,0:0:0:0:
256,192,26419,1,8,0:0:0:0:
256,192,26612,1,8,0:0:0:0:
256,192,26804,1,0,0:0:0:0:
256,192,26996,1,0,0:0:0:0:
256,192,27189,1,8,0:0:0:0:
256,192,27573,1,0,0:0:0:0:
256,192,27669,1,0,0:0:0:0:
256,192,27766,1,0,0:0:0:0:
256,192,27862,1,0,0:0:0:0:
256,192,27958,1,12,0:0:0:0:
256,192,28342,1,0,0:0:0:0:
256,192,28535,1,0,0:0:0:0:
256,192,28727,1,12,0:0:0:0:
256,192,29112,1,0,0:0:0:0:
256,192,29304,1,0,0:0:0:0:
256,192,29496,1,8,0:0:0:0:
256,192,29592,1,8,0:0:0:0:
256,192,29689,1,8,0:0:0:0:
256,192,29785,1,8,0:0:0:0:
256,192,29881,1,0,0:0:0:0:
256,192,29977,1,0,0:0:0:0:
256,192,30073,1,0,0:0:0:0:
256,192,30169,1,0,0:0:0:0:
256,192,30266,1,8,0:0:0:0:
256,192,30650,1,8,0:0:0:0:
256,192,31035,1,8,0:0:0:0:
256,192,31227,1,8,0:0:0:0:
256,192,31419,1,0,0:0:0:0:
256,192,31612,1,0,0:0:0:0:
256,192,31708,1,0,0:0:0:0:
256,192,31804,1,0,0:0:0:0:
256,192,31900,1,0,0:0:0:0:
256,192,31996,1,8,0:0:0:0:
256,192,32092,1,8,0:0:0:0:
256,192,32189,1,0,0:0:0:0:
256,192,32381,1,0,0:0:0:0:
256,192,32573,1,8,0:0:0:0:
256,192,32669,1,8,0:0:0:0:
256,192,32766,1,8,0:0:0:0:
256,192,32958,1,0,0:0:0:0:
256,192,33054,1,0,0:0:0:0:
256,192,33150,1,0,0:0:0:0:
256,192,33342,1,8,0:0:0:0:
256,192,33439,1,8,0:0:0:0:
256,192,33535,1,0,0:0:0:0:
256,192,33727,1,8,0:0:0:0:
256,192,33919,1,0,0:0:0:0:
256,192,34016,1,0,0:0:0:0:
256,192,34112,1,8,0:0:0:0:
256,192,34304,1,8,0:0:0:0:
256,192,34496,1,0,0:0:0:0:
256,192,34689,1,0,0:0:0:0:
256,192,34881,1,8,0:0:0:0:
256,192,35073,1,0,0:0:0:0:
256,192,35137,1,0,0:0:0:0:
256,192,35201,1,0,0:0:0:0:
256,192,35266,1,8,0:0:0:0:
256,192,35458,1,0,0:0:0:0:
256,192,35650,1,8,0:0:0:0:
256,192,36035,1,8,0:0:0:0:
256,192,36419,1,0,0:0:0:0:
256,192,36516,1,8,0:0:0:0:
256,192,36708,1,8,0:0:0:0:
256,192,36804,1,0,0:0:0:0:
256,192,36996,1,8,0:0:0:0:
256,192,37189,1,0,0:0:0:0:
256,192,37766,1,0,0:0:0:0:
256,192,37958,1,8,0:0:0:0:
256,192,38150,1,0,0:0:0:0:
256,192,38246,1,0,0:0:0:0:
256,192,38342,1,0,0:0:0:0:
256,192,38439,1,0,0:0:0:0:
256,192,38535,1,0,0:0:0:0:
256,192,38727,1,8,0:0:0:0:
256,192,38919,1,8,0:0:0:0:
256,192,39112,1,0,0:0:0:0:
256,192,39304,1,0,0:0:0:0:
256,192,39496,1,8,0:0:0:0:
256,192,39881,1,0,0:0:0:0:
256,192,39977,1,0,0:0:0:0:
256,192,40073,1,0,0:0:0:0:
256,192,40169,1,0,0:0:0:0:
256,192,40266,1,12,0:0:0:0:
256,192,40650,1,0,0:0:0:0:
256,192,40842,1,0,0:0:0:0:
256,192,41035,1,12,0:0:0:0:
256,192,41419,1,0,0:0:0:0:
256,192,41612,1,0,0:0:0:0:
256,192,41804,1,8,0:0:0:0:
256,192,41900,1,8,0:0:0:0:
256,192,41996,1,8,0:0:0:0:
256,192,42092,1,8,0:0:0:0:
256,192,42189,1,0,0:0:0:0:
256,192,42285,1,0,0:0:0:0:
256,192,42381,1,0,0:0:0:0:
256,192,42477,1,0,0:0:0:0:
256,192,42573,1,8,0:0:0:0:
256,192,42958,1,8,0:0:0:0:
256,192,43342,5,4,0:0:0:0:
256,192,43727,1,8,0:0:0:0:
256,192,43919,1,0,0:0:0:0:
256,192,44016,1,8,0:0:0:0:
256,192,44112,1,0,0:0:0:0:
256,192,44304,1,0,0:0:0:0:
256,192,44496,1,8,0:0:0:0:
256,192,44689,1,0,0:0:0:0:
256,192,44785,1,0,0:0:0:0:
256,192,44881,1,8,0:0:0:0:
256,192,45073,1,0,0:0:0:0:
256,192,45266,1,8,0:0:0:0:
256,192,45458,1,8,0:0:0:0:
256,192,45554,1,0,0:0:0:0:
256,192,45650,1,0,0:0:0:0:
256,192,45746,1,8,0:0:0:0:
256,192,45842,1,0,0:0:0:0:
256,192,46035,1,8,0:0:0:0:
256,192,46227,1,0,0:0:0:0:
256,192,46323,1,0,0:0:0:0:
256,192,46419,1,8,0:0:0:0:
256,192,46612,1,0,0:0:0:0:
256,192,46804,1,8,0:0:0:0:
256,192,46996,1,8,0:0:0:0:
256,192,47092,1,0,0:0:0:0:
256,192,47189,1,0,0:0:0:0:
256,192,47285,1,8,0:0:0:0:
256,192,47381,1,0,0:0:0:0:
256,192,47573,1,8,0:0:0:0:
256,192,47766,1,0,0:0:0:0:
256,192,47862,1,0,0:0:0:0:
256,192,47958,1,8,0:0:0:0:
256,192,48150,1,0,0:0:0:0:
256,192,48342,1,8,0:0:0:0:
256,192,48535,1,8,0:0:0:0:
256,192,48631,1,0,0:0:0:0:
256,192,48727,1,8,0:0:0:0:
256,192,48823,1,8,0:0:0:0:
256,192,48919,1,0,0:0:0:0:
256,192,49016,1,0,0:0:0:0:
256,192,49112,1,8,0:0:0:0:
256,192,49304,1,8,0:0:0:0:
256,192,49496,1,4,0:0:0:0:
256,192,49881,1,8,0:0:0:0:
256,192,50073,1,0,0:0:0:0:
256,192,50169,1,0,0:0:0:0:
256,192,50266,1,8,0:0:0:0:
256,192,50458,1,0,0:0:0:0:
256,192,50650,1,8,0:0:0:0:
256,192,50746,1,8,0:0:0:0:
256,192,50842,1,0,0:0:0:0:
256,192,50939,1,0,0:0:0:0:
256,192,51035,1,8,0:0:0:0:
256,192,51227,1,0,0:0:0:0:
256,192,51419,1,8,0:0:0:0:
256,192,51612,1,8,0:0:0:0:
256,192,51708,1,0,0:0:0:0:
256,192,51804,1,0,0:0:0:0:
256,192,51900,1,8,0:0:0:0:
256,192,51996,1,0,0:0:0:0:
256,192,52189,1,8,0:0:0:0:
256,192,52381,1,0,0:0:0:0:
256,192,52573,1,12,0:0:0:0:
256,192,52958,1,8,0:0:0:0:
256,192,53150,1,8,0:0:0:0:
256,192,53246,1,0,0:0:0:0:
256,192,53342,1,0,0:0:0:0:
256,192,53535,1,0,0:0:0:0:
256,192,53727,1,8,0:0:0:0:
256,192,53919,1,0,0:0:0:0:
256,192,54016,1,0,0:0:0:0:
256,192,54112,1,8,0:0:0:0:
256,192,54304,1,0,0:0:0:0:
256,192,54400,1,0,0:0:0:0:
256,192,54496,1,8,0:0:0:0:
256,192,54592,1,8,0:0:0:0:
256,192,54689,1,0,0:0:0:0:
256,192,54785,1,0,0:0:0:0:
256,192,54881,1,8,0:0:0:0:
256,192,54977,1,8,0:0:0:0:
256,192,55073,1,0,0:0:0:0:
256,192,55169,1,0,0:0:0:0:
256,192,55266,1,8,0:0:0:0:
256,192,55362,1,0,0:0:0:0:
256,192,55458,1,8,0:0:0:0:
256,192,55650,1,4,0:0:0:0:
256,192,56035,1,8,0:0:0:0:
256,192,56227,1,0,0:0:0:0:
256,192,56323,1,8,0:0:0:0:
256,192,56419,1,0,0:0:0:0:
256,192,56612,1,0,0:0:0:0:
256,192,56804,1,8,0:0:0:0:
256,192,56996,1,0,0:0:0:0:
256,192,57092,1,0,0:0:0:0:
256,192,57189,1,8,0:0:0:0:
256,192,57285,1,8,0:0:0:0:
256,192,57381,1,0,0:0:0:0:
256,192,57573,1,8,0:0:0:0:
256,192,57766,1,8,0:0:0:0:
256,192,57862,1,0,0:0:0:0:
256,192,57958,1,0,0:0:0:0:
256,192,58054,1,8,0:0:0:0:
256,192,58150,1,0,0:0:0:0:
256,192,58246,1,0,0:0:0:0:
256,192,58342,1,8,0:0:0:0:
256,192,58535,1,0,0:0:0:0:
256,192,58631,1,0,0:0:0:0:
256,192,58727,1,8,0:0:0:0:
256,192,58919,1,0,0:0:0:0:
256,192,59112,1,8,0:0:0:0:
256,192,59304,1,8,0:0:0:0:
256,192,59400,1,8,0:0:0:0:
256,192,59496,1,0,0:0:0:0:
256,192,59592,1,8,0:0:0:0:
256,192,59689,1,0,0:0:0:0:
256,192,59881,1,0,0:0:0:0:
256,192,60073,1,8,0:0:0:0:
256,192,60169,1,8,0:0:0:0:
256,192,60266,1,0,0:0:0:0:
256,192,60458,1,0,0:0:0:0:
256,192,60650,1,8,0:0:0:0:
256,192,60842,1,8,0:0:0:0:
256,192,60939,1,0,0:0:0:0:
256,192,61035,1,8,0:0:0:0:
256,192,61131,1,8,0:0:0:0:
256,192,61227,1,0,0:0:0:0:
256,192,61419,1,8,0:0:0:0:
256,192,61612,1,0,0:0:0:0:
256,192,61804,1,12,0:0:0:0:
256,192,62189,1,8,0:0:0:0:
256,192,62381,1,0,0:0:0:0:
256,192,62477,1,0,0:0:0:0:
256,192,62573,1,8,0:0:0:0:
256,192,62766,1,0,0:0:0:0:
256,192,62958,1,8,0:0:0:0:
256,192,63054,1,8,0:0:0:0:
256,192,63150,1,0,0:0:0:0:
256,192,63342,1,0,0:0:0:0:
256,192,63535,1,0,0:0:0:0:
256,192,63631,1,0,0:0:0:0:
256,192,63727,1,8,0:0:0:0:
256,192,63919,1,0,0:0:0:0:
256,192,64112,1,8,0:0:0:0:
256,192,64208,1,8,0:0:0:0:
256,192,64304,1,0,0:0:0:0:
256,192,64400,1,0,0:0:0:0:
256,192,64496,1,8,0:0:0:0:
256,192,64689,1,8,0:0:0:0:
256,192,64881,1,4,0:0:0:0:
256,192,65266,1,8,0:0:0:0:
256,192,65458,1,0,0:0:0:0:
256,192,65554,1,8,0:0:0:0:
256,192,65650,1,0,0:0:0:0:
256,192,65842,1,0,0:0:0:0:
256,192,66035,1,8,0:0:0:0:
256,192,66227,1,0,0:0:0:0:
256,192,66323,1,0,0:0:0:0:
256,192,66419,1,8,0:0:0:0:
256,192,66612,1,0,0:0:0:0:
256,192,66708,1,0,0:0:0:0:
256,192,66804,1,8,0:0:0:0:
256,192,66900,1,8,0:0:0:0:
256,192,66996,1,0,0:0:0:0:
256,192,67092,1,0,0:0:0:0:
256,192,67189,1,8,0:0:0:0:
256,192,67381,1,8,0:0:0:0:
256,192,67477,1,0,0:0:0:0:
256,192,67573,1,8,0:0:0:0:
256,192,67669,1,8,0:0:0:0:
256,192,67766,1,8,0:0:0:0:
256,192,67958,5,0,0:0:0:0:
256,192,68150,1,8,0:0:0:0:
256,192,68342,1,0,0:0:0:0:
256,192,68535,1,8,0:0:0:0:
256,192,68727,1,8,0:0:0:0:
256,192,68823,1,8,0:0:0:0:
256,192,68919,1,0,0:0:0:0:
256,192,69016,1,0,0:0:0:0:
256,192,69112,1,8,0:0:0:0:
256,192,69304,1,0,0:0:0:0:
256,192,69496,1,8,0:0:0:0:
256,192,69592,1,8,0:0:0:0:
256,192,69689,1,8,0:0:0:0:
256,192,69785,1,8,0:0:0:0:
256,192,69881,1,0,0:0:0:0:
256,192,70073,1,8,0:0:0:0:
256,192,70266,1,8,0:0:0:0:
256,192,70362,1,8,0:0:0:0:
256,192,70458,1,0,0:0:0:0:
256,192,70554,1,8,0:0:0:0:
256,192,70650,1,0,0:0:0:0:
256,192,70842,1,8,0:0:0:0:
256,192,71227,1,8,0:0:0:0:
256,192,71419,1,0,0:0:0:0:
256,192,71612,1,8,0:0:0:0:
256,192,71804,1,8,0:0:0:0:
256,192,71996,1,0,0:0:0:0:
256,192,72092,1,0,0:0:0:0:
256,192,72189,1,8,0:0:0:0:
256,192,72381,1,0,0:0:0:0:
256,192,72573,1,8,0:0:0:0:
256,192,72669,1,8,0:0:0:0:
256,192,72766,1,8,0:0:0:0:
256,192,72862,1,8,0:0:0:0:
256,192,72958,1,0,0:0:0:0:
256,192,73150,1,8,0:0:0:0:
256,192,73342,1,8,0:0:0:0:
256,192,73439,1,8,0:0:0:0:
256,192,73535,1,0,0:0:0:0:
256,192,73727,1,8,0:0:0:0:
256,192,73919,1,0,0:0:0:0:
256,192,74112,1,12,0:0:0:0:
256,192,74304,1,8,0:0:0:0:
256,192,74496,1,8,0:0:0:0:
256,192,74560,1,8,0:0:0:0:
256,192,74624,1,8,0:0:0:0:
256,192,74689,1,0,0:0:0:0:
256,192,74881,1,8,0:0:0:0:
256,192,75073,1,8,0:0:0:0:
256,192,75169,1,0,0:0:0:0:
256,192,75266,1,8,0:0:0:0:
256,192,75362,1,8,0:0:0:0:
256,192,75458,1,0,0:0:0:0:
256,192,75650,1,8,0:0:0:0:
256,192,75842,1,8,0:0:0:0:
256,192,75939,1,8,0:0:0:0:
256,192,76035,1,0,0:0:0:0:
256,192,76227,1,0,0:0:0:0:
256,192,76419,1,8,0:0:0:0:
256,192,76516,1,8,0:0:0:0:
256,192,76612,1,0,0:0:0:0:
256,192,76708,1,0,0:0:0:0:
256,192,76804,1,8,0:0:0:0:
256,192,76996,1,8,0:0:0:0:
256,192,77092,1,0,0:0:0:0:
256,192,77189,1,8,0:0:0:0:
256,192,77381,1,8,0:0:0:0:
256,192,77573,1,8,0:0:0:0:
256,192,77669,1,0,0:0:0:0:
256,192,77766,1,0,0:0:0:0:
256,192,77958,1,8,0:0:0:0:
256,192,78150,1,8,0:0:0:0:
256,192,78214,1,8,0:0:0:0:
256,192,78278,1,8,0:0:0:0:
256,192,78342,1,0,0:0:0:0:
256,192,78439,1,0,0:0:0:0:
256,192,78535,1,8,0:0:0:0:
256,192,78631,1,0,0:0:0:0:
256,192,78727,1,8,0:0:0:0:
256,192,79016,1,0,0:0:0:0:
256,192,79112,1,8,0:0:0:0:
256,192,79304,1,0,0:0:0:0:
256,192,79400,1,0,0:0:0:0:
256,192,79496,1,8,0:0:0:0:
256,192,79592,1,0,0:0:0:0:
256,192,79689,1,8,0:0:0:0:
256,192,79785,1,8,0:0:0:0:
256,192,79881,1,0,0:0:0:0:
256,192,80073,1,0,0:0:0:0:
256,192,80169,1,0,0:0:0:0:
256,192,80266,1,8,0:0:0:0:
256,192,80458,1,8,0:0:0:0:
256,192,80650,1,8,0:0:0:0:
256,192,80746,1,8,0:0:0:0:
256,192,80842,1,0,0:0:0:0:
256,192,80939,1,8,0:0:0:0:
256,192,81035,1,0,0:0:0:0:
256,192,81227,1,0,0:0:0:0:
256,192,81419,1,8,0:0:0:0:
256,192,81516,1,8,0:0:0:0:
256,192,81612,1,0,0:0:0:0:
256,192,81708,1,0,0:0:0:0:
256,192,81804,1,8,0:0:0:0:
256,192,81996,1,8,0:0:0:0:
256,192,82092,1,8,0:0:0:0:
256,192,82189,1,0,0:0:0:0:
256,192,82381,1,8,0:0:0:0:
256,192,82573,1,0,0:0:0:0:
256,192,82766,1,0,0:0:0:0:
256,192,82862,1,0,0:0:0:0:
256,192,82958,1,8,0:0:0:0:
256,192,83054,1,8,0:0:0:0:
256,192,83150,1,0,0:0:0:0:
256,192,83214,1,0,0:0:0:0:
256,192,83278,1,0,0:0:0:0:
256,192,83342,1,8,0:0:0:0:
256,192,83535,1,8,0:0:0:0:
256,192,83727,1,0,0:0:0:0:
256,192,83823,1,0,0:0:0:0:
256,192,83919,1,8,0:0:0:0:
256,192,84016,1,0,0:0:0:0:
256,192,84112,1,8,0:0:0:0:
256,192,84304,1,8,0:0:0:0:
256,192,84400,1,8,0:0:0:0:
256,192,84496,1,0,0:0:0:0:
256,192,84689,1,8,0:0:0:0:
256,192,84881,1,0,0:0:0:0:
256,192,84977,1,8,0:0:0:0:
256,192,85073,1,0,0:0:0:0:
256,192,85266,1,8,0:0:0:0:
256,192,85458,1,0,0:0:0:0:
256,192,85554,1,0,0:0:0:0:
256,192,85650,1,8,0:0:0:0:
256,192,85746,1,8,0:0:0:0:
256,192,85842,1,0,0:0:0:0:
256,192,85939,1,0,0:0:0:0:
256,192,86035,1,8,0:0:0:0:
256,192,86227,1,0,0:0:0:0:
256,192,86419,1,12,0:0:0:0:
256,192,86612,1,8,0:0:0:0:
256,192,86804,1,8,0:0:0:0:
256,192,86868,1,8,0:0:0:0:
256,192,86932,1,8,0:0:0:0:
256,192,86996,1,0,0:0:0:0:
256,192,87189,1,8,0:0:0:0:
256,192,87381,1,8,0:0:0:0:
256,192,87477,1,0,0:0:0:0:
256,192,87573,1,8,0:0:0:0:
256,192,87669,1,8,0:0:0:0:
256,192,87766,1,0,0:0:0:0:
256,192,87958,1,8,0:0:0:0:
256,192,88150,1,8,0:0:0:0:
256,192,88246,1,8,0:0:0:0:
256,192,88342,1,0,0:0:0:0:
256,192,88535,1,0,0:0:0:0:
256,192,88727,1,8,0:0:0:0:
256,192,88823,1,8,0:0:0:0:
256,192,88919,1,0,0:0:0:0:
256,192,89016,1,0,0:0:0:0:
256,192,89112,1,8,0:0:0:0:
256,192,89304,1,8,0:0:0:0:
256,192,89400,1,0,0:0:0:0:
256,192,89496,1,8,0:0:0:0:
256,192,89689,1,8,0:0:0:0:
256,192,89881,1,8,0:0:0:0:
256,192,89977,1,0,0:0:0:0:
256,192,90073,1,0,0:0:0:0:
256,192,90266,1,8,0:0:0:0:
256,192,90458,1,8,0:0:0:0:
256,192,90522,1,8,0:0:0:0:
256,192,90586,1,8,0:0:0:0:
256,192,90650,1,0,0:0:0:0:
256,192,90746,1,0,0:0:0:0:
256,192,90842,1,8,0:0:0:0:
256,192,90939,1,0,0:0:0:0:
256,192,91035,1,8,0:0:0:0:
256,192,91323,1,0,0:0:0:0:
256,192,91419,1,8,0:0:0:0:
256,192,91516,1,0,0:0:0:0:
256,192,91612,1,0,0:0:0:0:
256,192,91804,1,8,0:0:0:0:
256,192,91900,1,8,0:0:0:0:
256,192,91996,1,0,0:0:0:0:
256,192,92092,1,0,0:0:0:0:
256,192,92189,1,8,0:0:0:0:
256,192,92381,1,0,0:0:0:0:
256,192,92477,1,0,0:0:0:0:
256,192,92573,1,8,0:0:0:0:
256,192,92766,1,0,0:0:0:0:
256,192,92862,1,0,0:0:0:0:
256,192,92958,1,0,0:0:0:0:
256,192,93150,1,8,0:0:0:0:
256,192,93342,1,8,0:0:0:0:
256,192,93439,1,8,0:0:0:0:
256,192,93535,1,0,0:0:0:0:
256,192,93631,1,0,0:0:0:0:
256,192,93727,1,8,0:0:0:0:
256,192,93919,1,0,0:0:0:0:
256,192,94112,1,8,0:0:0:0:
256,192,94208,1,8,0:0:0:0:
256,192,94304,1,8,0:0:0:0:
256,192,94496,1,0,0:0:0:0:
256,192,94689,1,8,0:0:0:0:
256,192,94881,1,0,0:0:0:0:
256,192,95073,1,0,0:0:0:0:
256,192,95169,1,0,0:0:0:0:
256,192,95266,1,8,0:0:0:0:
256,192,95362,1,8,0:0:0:0:
256,192,95458,1,0,0:0:0:0:
256,192,95522,1,0,0:0:0:0:
256,192,95586,1,0,0:0:0:0:
256,192,95650,1,8,0:0:0:0:
256,192,95939,1,0,0:0:0:0:
256,192,96035,1,8,0:0:0:0:
256,192,96227,1,0,0:0:0:0:
256,192,96323,1,0,0:0:0:0:
256,192,96419,1,8,0:0:0:0:
256,192,96612,1,8,0:0:0:0:
256,192,96708,1,8,0:0:0:0:
256,192,96804,1,0,0:0:0:0:
256,192,96996,1,8,0:0:0:0:
256,192,97189,1,0,0:0:0:0:
256,192,97285,1,8,0:0:0:0:
256,192,97381,1,0,0:0:0:0:
256,192,97573,1,8,0:0:0:0:
256,192,97766,1,8,0:0:0:0:
256,192,97862,1,0,0:0:0:0:
256,192,97958,1,8,0:0:0:0:
256,192,98054,1,8,0:0:0:0:
256,192,98150,1,0,0:0:0:0:
256,192,98246,1,0,0:0:0:0:
256,192,98342,1,8,0:0:0:0:
256,192,98535,1,8,0:0:0:0:
256,192,98727,5,0,0:0:0:0:
256,192,99112,1,8,0:0:0:0:
256,192,99304,1,0,0:0:0:0:
256,192,99400,1,8,0:0:0:0:
256,192,99496,1,0,0:0:0:0:
256,192,99689,1,0,0:0:0:0:
256,192,99785,1,0,0:0:0:0:
256,192,99881,1,8,0:0:0:0:
256,192,100073,1,0,0:0:0:0:
256,192,100169,1,0,0:0:0:0:
256,192,100266,1,0,0:0:0:0:
256,192,100554,1,0,0:0:0:0:
256,192,100650,1,8,0:0:0:0:
256,192,100842,1,0,0:0:0:0:
256,192,100939,1,8,0:0:0:0:
256,192,101035,1,0,0:0:0:0:
256,192,101227,1,0,0:0:0:0:
256,192,101323,1,0,0:0:0:0:
256,192,101419,1,8,0:0:0:0:
256,192,101612,1,0,0:0:0:0:
256,192,101708,1,8,0:0:0:0:
256,192,101804,1,0,0:0:0:0:
256,192,102092,1,0,0:0:0:0:
256,192,102189,1,8,0:0:0:0:
256,192,102381,1,0,0:0:0:0:
256,192,102477,1,0,0:0:0:0:
256,192,102573,1,0,0:0:0:0:
256,192,102766,1,0,0:0:0:0:
256,192,102958,1,8,0:0:0:0:
256,192,103150,1,0,0:0:0:0:
256,192,103342,1,0,0:0:0:0:
256,192,103535,1,0,0:0:0:0:
256,192,103631,1,0,0:0:0:0:
256,192,103727,1,8,0:0:0:0:
256,192,103823,1,0,0:0:0:0:
256,192,103919,1,0,0:0:0:0:
256,192,104016,1,0,0:0:0:0:
256,192,104112,1,8,0:0:0:0:
256,192,104208,1,8,0:0:0:0:
256,192,104304,1,0,0:0:0:0:
256,192,104400,1,0,0:0:0:0:
256,192,104496,1,8,0:0:0:0:
256,192,104689,1,8,0:0:0:0:
256,192,104785,1,8,0:0:0:0:
256,192,104881,1,0,0:0:0:0:
256,192,105169,1,0,0:0:0:0:
256,192,105266,1,8,0:0:0:0:
256,192,105458,1,0,0:0:0:0:
256,192,105554,1,0,0:0:0:0:
256,192,105650,1,0,0:0:0:0:
256,192,105842,1,0,0:0:0:0:
256,192,106035,1,8,0:0:0:0:
256,192,106227,1,0,0:0:0:0:
256,192,106323,1,0,0:0:0:0:
256,192,106419,1,0,0:0:0:0:
256,192,106708,1,0,0:0:0:0:
256,192,106804,1,8,0:0:0:0:
256,192,106996,1,0,0:0:0:0:
256,192,107092,1,8,0:0:0:0:
256,192,107189,1,0,0:0:0:0:
256,192,107381,1,0,0:0:0:0:
256,192,107477,1,0,0:0:0:0:
256,192,107573,1,8,0:0:0:0:
256,192,107766,1,0,0:0:0:0:
256,192,107862,1,8,0:0:0:0:
256,192,107958,1,0,0:0:0:0:
256,192,108246,1,0,0:0:0:0:
256,192,108342,1,8,0:0:0:0:
256,192,108535,1,8,0:0:0:0:
256,192,108631,1,8,0:0:0:0:
256,192,108727,1,0,0:0:0:0:
256,192,108919,1,0,0:0:0:0:
256,192,109112,1,8,0:0:0:0:
256,192,109304,1,0,0:0:0:0:
256,192,109400,1,0,0:0:0:0:
256,192,109496,1,0,0:0:0:0:
256,192,109689,1,0,0:0:0:0:
256,192,109785,1,0,0:0:0:0:
256,192,109881,1,8,0:0:0:0:
256,192,109977,1,8,0:0:0:0:
256,192,110073,1,0,0:0:0:0:
256,192,110137,1,0,0:0:0:0:
256,192,110201,1,0,0:0:0:0:
256,192,110266,1,8,0:0:0:0:
256,192,110458,1,0,0:0:0:0:
256,192,110650,1,8,0:0:0:0:
256,192,110842,1,0,0:0:0:0:
256,192,110939,1,0,0:0:0:0:
256,192,111035,1,0,0:0:0:0:
256,192,111323,1,0,0:0:0:0:
256,192,111419,1,8,0:0:0:0:
256,192,111612,1,0,0:0:0:0:
256,192,111708,1,0,0:0:0:0:
256,192,111804,1,0,0:0:0:0:
256,192,111996,1,0,0:0:0:0:
256,192,112092,1,0,0:0:0:0:
256,192,112189,1,8,0:0:0:0:
256,192,112381,1,0,0:0:0:0:
256,192,112477,1,0,0:0:0:0:
256,192,112573,1,0,0:0:0:0:
256,192,112862,1,0,0:0:0:0:
256,192,112958,1,8,0:0:0:0:
256,192,113150,1,0,0:0:0:0:
256,192,113246,1,0,0:0:0:0:
256,192,113342,1,0,0:0:0:0:
256,192,113535,1,0,0:0:0:0:
256,192,113631,1,0,0:0:0:0:
256,192,113727,1,8,0:0:0:0:
256,192,113919,1,8,0:0:0:0:
256,192,114016,1,8,0:0:0:0:
256,192,114112,1,0,0:0:0:0:
256,192,114400,1,0,0:0:0:0:
256,192,114496,1,8,0:0:0:0:
256,192,114689,1,0,0:0:0:0:
256,192,114785,1,0,0:0:0:0:
256,192,114881,1,0,0:0:0:0:
256,192,115073,1,0,0:0:0:0:
256,192,115169,1,0,0:0:0:0:
256,192,115266,1,8,0:0:0:0:
256,192,115458,1,8,0:0:0:0:
256,192,115650,1,0,0:0:0:0:
256,192,115842,1,0,0:0:0:0:
256,192,115939,1,0,0:0:0:0:
256,192,116035,1,8,0:0:0:0:
256,192,116131,1,8,0:0:0:0:
256,192,116227,1,0,0:0:0:0:
256,192,116323,1,0,0:0:0:0:
256,192,116419,1,8,0:0:0:0:
256,192,116516,1,0,0:0:0:0:
256,192,116612,1,0,0:0:0:0:
256,192,116708,1,0,0:0:0:0:
256,192,116804,1,8,0:0:0:0:
256,192,116996,1,0,0:0:0:0:
256,192,117189,1,8,0:0:0:0:
256,192,117381,1,0,0:0:0:0:
256,192,117445,1,0,0:0:0:0:
256,192,117509,1,0,0:0:0:0:
256,192,117573,1,8,0:0:0:0:
256,192,117766,1,0,0:0:0:0:
256,192,117862,1,8,0:0:0:0:
256,192,117958,1,0,0:0:0:0:
256,192,118150,1,0,0:0:0:0:
256,192,118342,1,8,0:0:0:0:
256,192,118535,1,8,0:0:0:0:
256,192,118727,1,0,0:0:0:0:
256,192,118919,1,0,0:0:0:0:
256,192,119016,1,0,0:0:0:0:
256,192,119112,1,8,0:0:0:0:
256,192,119304,1,0,0:0:0:0:
256,192,119400,1,0,0:0:0:0:
256,192,119496,1,0,0:0:0:0:
256,192,119689,1,0,0:0:0:0:
256,192,119785,1,0,0:0:0:0:
256,192,119881,1,8,0:0:0:0:
256,192,120073,1,0,0:0:0:0:
256,192,120169,1,0,0:0:0:0:
256,192,120266,1,0,0:0:0:0:
256,192,120458,1,0,0:0:0:0:
256,192,120554,1,0,0:0:0:0:
256,192,120650,1,0,0:0:0:0:
256,192,120746,1,0,0:0:0:0:
256,192,120842,1,0,0:0:0:0:
256,192,120939,1,0,0:0:0:0:
256,192,121035,1,0,0:0:0:0:
256,192,121227,1,8,0:0:0:0:
256,192,121323,1,8,0:0:0:0:
256,192,121419,1,0,0:0:0:0:
256,192,121516,1,0,0:0:0:0:
256,192,121612,1,8,0:0:0:0:
256,192,121708,1,8,0:0:0:0:
256,192,121804,1,8,0:0:0:0:
256,192,121900,1,8,0:0:0:0:
256,192,121996,1,0,0:0:0:0:
256,192,122092,1,0,0:0:0:0:
256,192,122189,1,8,0:0:0:0:
256,192,122285,1,8,0:0:0:0:
256,192,122381,1,0,0:0:0:0:
256,192,122477,1,0,0:0:0:0:
256,192,122573,1,8,0:0:0:0:
256,192,122766,1,0,0:0:0:0:
256,192,122958,1,12,0:0:0:0:
256,192,123150,1,0,0:0:0:0:
256,192,123342,1,4,0:0:0:0:
256,192,135650,5,0,0:0:0:0:
256,192,136035,1,0,0:0:0:0:
256,192,136227,1,0,0:0:0:0:
256,192,136419,1,8,0:0:0:0:
256,192,136804,1,0,0:0:0:0:
256,192,136996,1,0,0:0:0:0:
256,192,137189,1,8,0:0:0:0:
256,192,137381,1,8,0:0:0:0:
256,192,137573,1,0,0:0:0:0:
256,192,137766,1,0,0:0:0:0:
256,192,137958,1,8,0:0:0:0:
256,192,138342,1,0,0:0:0:0:
256,192,138535,1,0,0:0:0:0:
256,192,138727,1,8,0:0:0:0:
256,192,139016,1,0,0:0:0:0:
256,192,139112,1,8,0:0:0:0:
256,192,139304,1,0,0:0:0:0:
256,192,139496,1,8,0:0:0:0:
256,192,139689,1,0,0:0:0:0:
256,192,139881,1,8,0:0:0:0:
256,192,140073,1,0,0:0:0:0:
256,192,140266,1,8,0:0:0:0:
256,192,141419,1,0,0:0:0:0:
256,192,141612,1,0,0:0:0:0:
256,192,141804,1,8,0:0:0:0:
256,192,142092,1,0,0:0:0:0:
256,192,142189,1,8,0:0:0:0:
256,192,142381,1,0,0:0:0:0:
256,192,142573,1,8,0:0:0:0:
256,192,142766,1,0,0:0:0:0:
256,192,142958,1,8,0:0:0:0:
256,192,143150,1,0,0:0:0:0:
256,192,143342,1,8,0:0:0:0:
256,192,143535,1,0,0:0:0:0:
256,192,143727,1,8,0:0:0:0:
256,192,143919,1,8,0:0:0:0:
256,192,144112,1,0,0:0:0:0:
256,192,144496,1,0,0:0:0:0:
256,192,144689,1,0,0:0:0:0:
256,192,144881,1,8,0:0:0:0:
256,192,145266,1,8,0:0:0:0:
256,192,145458,1,8,0:0:0:0:
256,192,145650,1,0,0:0:0:0:
256,192,145939,1,0,0:0:0:0:
256,192,146035,1,8,0:0:0:0:
256,192,146227,1,0,0:0:0:0:
256,192,146419,1,8,0:0:0:0:
256,192,146612,12,0,147766,0:0:0:0:
128,128,147958,6,0,L|96:64,7,70
256,192,149496,5,12,0:0:0:0:
256,192,149785,1,0,0:0:0:0:
256,192,149881,1,8,0:0:0:0:
256,192,150073,1,0,0:0:0:0:
256,192,150266,1,8,0:0:0:0:
256,192,150362,1,8,0:0:0:0:
256,192,150554,1,0,0:0:0:0:
256,192,150650,1,8,0:0:0:0:
256,192,150842,1,0,0:0:0:0:
256,192,151035,1,8,0:0:0:0:
256,192,151131,1,0,0:0:0:0:
256,192,151227,1,8,0:0:0:0:
256,192,151419,1,0,0:0:0:0:
256,192,151483,1,0,0:0:0:0:
256,192,151548,1,0,0:0:0:0:
256,192,151612,1,8,0:0:0:0:
256,192,151804,1,0,0:0:0:0:
256,192,152092,1,0,0:0:0:0:
256,192,152189,1,8,0:0:0:0:
256,192,152381,1,0,0:0:0:0:
256,192,152573,1,8,0:0:0:0:
256,192,152669,1,0,0:0:0:0:
256,192,152862,1,0,0:0:0:0:
256,192,152958,1,8,0:0:0:0:
256,192,153150,1,0,0:0:0:0:
256,192,153342,1,8,0:0:0:0:
256,192,153439,1,8,0:0:0:0:
256,192,153535,1,0,0:0:0:0:
256,192,153631,1,8,0:0:0:0:
256,192,153727,1,8,0:0:0:0:
256,192,153919,1,0,0:0:0:0:
256,192,154112,1,12,0:0:0:0:
256,192,154304,1,0,0:0:0:0:
256,192,154400,1,0,0:0:0:0:
256,192,154496,1,8,0:0:0:0:
256,192,154689,1,0,0:0:0:0:
256,192,154881,1,12,0:0:0:0:
256,192,155073,1,0,0:0:0:0:
256,192,155266,1,12,0:0:0:0:
256,192,155458,1,4,0:0:0:0:
256,192,155650,1,12,0:0:0:0:
256,192,155939,1,0,0:0:0:0:
256,192,156035,1,8,0:0:0:0:
256,192,156227,1,0,0:0:0:0:
256,192,156419,1,8,0:0:0:0:
256,192,156612,1,8,0:0:0:0:
256,192,156676,1,8,0:0:0:0:
256,192,156740,1,8,0:0:0:0:
256,192,156804,1,0,0:0:0:0:
256,192,156996,1,8,0:0:0:0:
256,192,157189,1,0,0:0:0:0:
256,192,157285,1,0,0:0:0:0:
256,192,157381,1,8,0:0:0:0:
256,192,157573,1,8,0:0:0:0:
256,192,157669,1,0,0:0:0:0:
256,192,157766,1,8,0:0:0:0:
256,192,157958,1,0,0:0:0:0:
256,192,158054,1,8,0:0:0:0:
256,192,158150,1,8,0:0:0:0:
256,192,158246,1,8,0:0:0:0:
256,192,158342,1,0,0:0:0:0:
256,192,158535,1,0,0:0:0:0:
256,192,158727,1,12,0:0:0:0:
256,192,158919,1,0,0:0:0:0:
256,192,159112,1,8,0:0:0:0:
256,192,159208,1,0,0:0:0:0:
256,192,159304,1,8,0:0:0:0:
256,192,159496,1,8,0:0:0:0:
256,192,159785,1,0,0:0:0:0:
256,192,159881,1,8,0:0:0:0:
256,192,160073,1,0,0:0:0:0:
256,192,160266,1,12,0:0:0:0:
256,192,160458,1,0,0:0:0:0:
256,192,160650,1,8,0:0:0:0:
256,192,160746,1,8,0:0:0:0:
256,192,160842,1,0,0:0:0:0:
256,192,161035,1,12,0:0:0:0:
256,192,161323,1,0,0:0:0:0:
256,192,161419,1,8,0:0:0:0:
256,192,161516,1,8,0:0:0:0:
256,192,161612,1,0,0:0:0:0:
256,192,161804,1,12,0:0:0:0:
256,192,162092,1,8,0:0:0:0:
256,192,162189,1,0,0:0:0:0:
256,192,162285,1,0,0:0:0:0:
256,192,162381,1,8,0:0:0:0:
256,192,162573,1,0,0:0:0:0:
256,192,162766,1,0,0:0:0:0:
256,192,162862,1,0,0:0:0:0:
256,192,162958,1,8,0:0:0:0:
256,192,163150,1,0,0:0:0:0:
256,192,163342,1,8,0:0:0:0:
256,192,163439,1,0,0:0:0:0:
256,192,163535,1,8,0:0:0:0:
256,192,163727,1,0,0:0:0:0:
256,192,163791,1,0,0:0:0:0:
256,192,163855,1,0,0:0:0:0:
256,192,163919,1,8,0:0:0:0:
256,192,164112,1,8,0:0:0:0:
256,192,164208,1,8,0:0:0:0:
256,192,164400,1,0,0:0:0:0:
256,192,164496,1,8,0:0:0:0:
256,192,164689,1,0,0:0:0:0:
256,192,164881,1,8,0:0:0:0:
256,192,165073,1,0,0:0:0:0:
256,192,165169,1,8,0:0:0:0:
256,192,165266,1,0,0:0:0:0:
256,192,165458,1,8,0:0:0:0:
256,192,165650,1,0,0:0:0:0:
256,192,165746,1,8,0:0:0:0:
256,192,165842,1,8,0:0:0:0:
256,192,165939,1,0,0:0:0:0:
256,192,166035,1,8,0:0:0:0:
256,192,166227,1,0,0:0:0:0:
256,192,166419,1,12,0:0:0:0:
256,192,166612,1,0,0:0:0:0:
256,192,166708,1,0,0:0:0:0:
256,192,166804,1,8,0:0:0:0:
256,192,166996,1,0,0:0:0:0:
256,192,167189,1,12,0:0:0:0:
256,192,167381,1,0,0:0:0:0:
256,192,167573,1,12,0:0:0:0:
256,192,167766,1,4,0:0:0:0:
256,192,167958,1,12,0:0:0:0:
256,192,168246,1,0,0:0:0:0:
256,192,168342,1,8,0:0:0:0:
256,192,168439,1,0,0:0:0:0:
256,192,168535,1,8,0:0:0:0:
256,192,168727,1,8,0:0:0:0:
256,192,168919,1,0,0:0:0:0:
256,192,168983,1,0,0:0:0:0:
256,192,169048,1,0,0:0:0:0:
256,192,169112,1,8,0:0:0:0:
256,192,169304,1,0,0:0:0:0:
256,192,169496,1,8,0:0:0:0:
256,192,169592,1,0,0:0:0:0:
256,192,169689,1,8,0:0:0:0:
256,192,169881,1,8,0:0:0:0:
256,192,170073,1,0,0:0:0:0:
256,192,170169,1,0,0:0:0:0:
256,192,170266,1,8,0:0:0:0:
256,192,170458,1,0,0:0:0:0:
256,192,170650,1,8,0:0:0:0:
256,192,170746,1,8,0:0:0:0:
256,192,170842,1,0,0:0:0:0:
256,192,171035,1,12,0:0:0:0:
256,192,171227,1,0,0:0:0:0:
256,192,171419,1,8,0:0:0:0:
256,192,171516,1,0,0:0:0:0:
256,192,171612,1,8,0:0:0:0:
256,192,171804,1,8,0:0:0:0:
256,192,171996,1,0,0:0:0:0:
256,192,172092,1,0,0:0:0:0:
256,192,172189,1,8,0:0:0:0:
256,192,172285,1,0,0:0:0:0:
256,192,172381,1,8,0:0:0:0:
256,192,172573,1,12,0:0:0:0:
256,192,172766,1,0,0:0:0:0:
256,192,172862,1,0,0:0:0:0:
256,192,172958,1,8,0:0:0:0:
256,192,173150,1,0,0:0:0:0:
256,192,173342,1,12,0:0:0:0:
256,192,173535,1,0,0:0:0:0:
256,192,173631,1,0,0:0:0:0:
256,192,173727,1,8,0:0:0:0:
256,192,173823,1,8,0:0:0:0:
256,192,173919,1,0,0:0:0:0:
256,192,174112,1,12,0:0:0:0:
256,192,174304,1,0,0:0:0:0:
256,192,174400,1,0,0:0:0:0:
256,192,174496,1,8,0:0:0:0:
256,192,174689,1,0,0:0:0:0:
256,192,174881,1,8,0:0:0:0:
256,192,175073,1,8,0:0:0:0:
256,192,175169,1,0,0:0:0:0:
256,192,175266,1,8,0:0:0:0:
256,192,175458,1,0,0:0:0:0:
256,192,175650,1,12,0:0:0:0:
256,192,175842,1,8,0:0:0:0:
256,192,175939,1,8,0:0:0:0:
256,192,176035,1,0,0:0:0:0:
256,192,176227,1,0,0:0:0:0:
256,192,176419,1,8,0:0:0:0:
256,192,176612,1,8,0:0:0:0:
256,192,176708,1,0,0:0:0:0:
256,192,176804,1,8,0:0:0:0:
256,192,176996,1,0,0:0:0:0:
256,192,177189,1,12,0:0:0:0:
256,192,177381,1,0,0:0:0:0:
256,192,177477,1,0,0:0:0:0:
256,192,177573,1,8,0:0:0:0:
256,192,177766,1,0,0:0:0:0:
256,192,177958,1,12,0:0:0:0:
256,192,178150,1,8,0:0:0:0:
256,192,178246,1,0,0:0:0:0:
256,192,178342,1,8,0:0:0:0:
256,192,178535,1,0,0:0:0:0:
256,192,178727,1,12,0:0:0:0:
256,192,178919,1,4,0:0:0:0:
256,192,179112,1,12,0:0:0:0:
256,192,179304,1,4,0:0:0:0:
256,192,179496,1,12,0:0:0:0:
256,192,179689,1,0,0:0:0:0:
256,192,179881,1,12,0:0:0:0:
256,192,180073,1,0,0:0:0:0:
256,192,180266,5,0,0:0:0:0:
256,192,180458,1,8,0:0:0:0:
256,192,180650,1,8,0:0:0:0:
256,192,180842,1,0,0:0:0:0:
256,192,181035,1,8,0:0:0:0:
256,192,181227,1,8,0:0:0:0:
256,192,181323,1,8,0:0:0:0:
256,192,181419,1,0,0:0:0:0:
256,192,181516,1,8,0:0:0:0:
256,192,181708,1,8,0:0:0:0:
256,192,181804,1,0,0:0:0:0:
256,192,181996,1,0,0:0:0:0:
256,192,182092,1,0,0:0:0:0:
256,192,182189,1,8,0:0:0:0:
256,192,182381,1,0,0:0:0:0:
256,192,182573,1,8,0:0:0:0:
256,192,182669,1,8,0:0:0:0:
256,192,182766,1,0,0:0:0:0:
256,192,182862,1,0,0:0:0:0:
256,192,182958,1,8,0:0:0:0:
256,192,183054,1,0,0:0:0:0:
256,192,183150,1,8,0:0:0:0:
256,192,183246,1,8,0:0:0:0:
256,192,183342,1,0,0:0:0:0:
256,192,183535,1,0,0:0:0:0:
256,192,183727,1,8,0:0:0:0:
256,192,183919,1,0,0:0:0:0:
256,192,184112,1,8,0:0:0:0:
256,192,184304,1,0,0:0:0:0:
256,192,184368,1,0,0:0:0:0:
256,192,184432,1,0,0:0:0:0:
256,192,184496,1,8,0:0:0:0:
256,192,184689,1,0,0:0:0:0:
256,192,184881,1,0,0:0:0:0:
256,192,184977,1,0,0:0:0:0:
256,192,185073,1,8,0:0:0:0:
256,192,185169,1,0,0:0:0:0:
256,192,185266,1,8,0:0:0:0:
256,192,185362,1,8,0:0:0:0:
256,192,185458,1,0,0:0:0:0:
256,192,185554,1,0,0:0:0:0:
256,192,185650,1,8,0:0:0:0:
256,192,185842,1,0,0:0:0:0:
256,192,185939,1,0,0:0:0:0:
256,192,186035,1,8,0:0:0:0:
256,192,186131,1,0,0:0:0:0:
256,192,186227,1,8,0:0:0:0:
256,192,186323,1,8,0:0:0:0:
256,192,186419,1,0,0:0:0:0:
256,192,186612,1,0,0:0:0:0:
256,192,186804,1,8,0:0:0:0:
256,192,186996,1,8,0:0:0:0:
256,192,187189,1,0,0:0:0:0:
256,192,187573,1,0,0:0:0:0:
256,192,187766,1,8,0:0:0:0:
256,192,187862,1,8,0:0:0:0:
256,192,187958,1,0,0:0:0:0:
256,192,188150,1,8,0:0:0:0:
256,192,188342,1,0,0:0:0:0:
256,192,188535,1,8,0:0:0:0:
256,192,188727,1,8,0:0:0:0:
256,192,189112,1,8,0:0:0:0:
256,192,189304,1,0,0:0:0:0:
256,192,189496,1,6,0:0:0:0:
256,192,189881,1,8,0:0:0:0:
256,192,190073,1,0,0:0:0:0:
256,192,190266,1,6,0:0:0:0:
256,192,190458,1,0,0:0:0:0:
256,192,190650,1,8,0:0:0:0:
256,192,190842,1,8,0:0:0:0:
256,192,191035,1,4,0:0:0:0:
256,192,191227,1,8,0:0:0:0:
256,192,191323,1,8,0:0:0:0:
256,192,191419,1,0,0:0:0:0:
256,192,191612,1,0,0:0:0:0:
256,192,191804,1,6,0:0:0:0:
256,192,192189,1,6,0:0:0:0:
256,192,192573,1,4,0:0:0:0:
256,192,192766,1,8,0:0:0:0:
256,192,192958,1,8,0:0:0:0:
256,192,193150,1,0,0:0:0:0:
256,192,193342,1,8,0:0:0:0:
256,192,193535,1,8,0:0:0:0:
256,192,193631,1,8,0:0:0:0:
256,192,193727,1,0,0:0:0:0:
256,192,193823,1,8,0:0:0:0:
256,192,194016,1,8,0:0:0:0:
256,192,194112,1,0,0:0:0:0:
256,192,194304,1,0,0:0:0:0:
256,192,194400,1,0,0:0:0:0:
256,192,194496,1,8,0:0:0:0:
256,192,194689,1,0,0:0:0:0:
256,192,194881,1,8,0:0:0:0:
256,192,194977,1,8,0:0:0:0:
256,192,195073,1,0,0:0:0:0:
256,192,195169,1,0,0:0:0:0:
256,192,195266,1,8,0:0:0:0:
256,192,195362,1,0,0:0:0:0:
256,192,195458,1,8,0:0:0:0:
256,192,195554,1,8,0:0:0:0:
256,192,195650,1,0,0:0:0:0:
256,192,195842,1,0,0:0:0:0:
256,192,196035,1,8,0:0:0:0:
256,192,196227,1,0,0:0:0:0:
256,192,196419,1,8,0:0:0:0:
256,192,196612,1,0,0:0:0:0:
256,192,196676,1,0,0:0:0:0:
256,192,196740,1,0,0:0:0:0:
256,192,196804,1,8,0:0:0:0:
256,192,196996,1,0,0:0:0:0:
256,192,197189,1,0,0:0:0:0:
256,192,197285,1,0,0:0:0:0:
256,192,197381,1,8,0:0:0:0:
256,192,197477,1,0,0:0:0:0:
256,192,197573,1,8,0:0:0:0:
256,192,197669,1,8,0:0:0:0:
256,192,197766,1,0,0:0:0:0:
256,192,197862,1,0,0:0:0:0:
256,192,197958,1,8,0:0:0:0:
256,192,198150,1,0,0:0:0:0:
256,192,198246,1,0,0:0:0:0:
256,192,198342,1,8,0:0:0:0:
256,192,198439,1,0,0:0:0:0:
256,192,198535,1,8,0:0:0:0:
256,192,198727,1,6,0:0:0:0:
256,192,198919,1,0,0:0:0:0:
256,192,199304,1,0,0:0:0:0:
256,192,199496,1,8,0:0:0:0:
256,192,199689,1,8,0:0:0:0:
256,192,199881,1,0,0:0:0:0:
256,192,200073,1,8,0:0:0:0:
256,192,200266,1,4,0:0:0:0:
256,192,200458,1,8,0:0:0:0:
256,192,200650,1,0,0:0:0:0:
256,192,200842,1,8,0:0:0:0:
256,192,201035,1,6,0:0:0:0:
256,192,201419,1,8,0:0:0:0:
256,192,201612,1,0,0:0:0:0:
256,192,201804,1,6,0:0:0:0:
256,192,202189,1,8,0:0:0:0:
256,192,202381,1,0,0:0:0:0:
256,192,202573,1,6,0:0:0:0:
256,192,202766,1,0,0:0:0:0:
256,192,202958,1,8,0:0:0:0:
256,192,203150,1,8,0:0:0:0:
256,192,203342,1,0,0:0:0:0:
256,192,203439,1,0,0:0:0:0:
256,192,203535,1,8,0:0:0:0:
256,192,203631,1,8,0:0:0:0:
256,192,203727,1,0,0:0:0:0:
256,192,203823,1,0,0:0:0:0:
256,192,203919,1,8,0:0:0:0:
256,192,204112,1,6,0:0:0:0:
256,192,204496,1,6,0:0:0:0:
256,192,204881,5,4,0:0:0:0:
192,160,205266,1,8,0:0:0:0:
192,160,205554,1,0,0:0:0:0:
192,160,205650,1,0,0:0:0:0:
192,160,205842,1,0,0:0:0:0:
192,160,206035,1,8,0:0:0:0:
192,160,206419,1,0,0:0:0:0:
192,160,206612,1,0,0:0:0:0:
192,160,206708,1,0,0:0:0:0:
192,160,206804,1,8,0:0:0:0:
192,160,207092,1,8,0:0:0:0:
192,160,207189,1,0,0:0:0:0:
192,160,207381,1,0,0:0:0:0:
192,160,207477,1,0,0:0:0:0:
192,160,207573,1,8,0:0:0:0:
192,160,207766,1,0,0:0:0:0:
192,160,207958,1,0,0:0:0:0:
192,160,208342,1,8,0:0:0:0:
192,160,208631,1,0,0:0:0:0:
192,160,208727,1,0,0:0:0:0:
192,160,208919,1,0,0:0:0:0:
192,160,209016,1,0,0:0:0:0:
192,160,209112,1,8,0:0:0:0:
160,160,209304,1,8,0:0:0:0:
192,160,209496,1,0,0:0:0:0:
160,160,209881,1,8,0:0:0:0:
160,160,210169,1,0,0:0:0:0:
160,160,210266,1,8,0:0:0:0:
160,160,210362,1,8,0:0:0:0:
160,160,210458,1,0,0:0:0:0:
160,160,210650,1,8,0:0:0:0:
160,160,210842,1,8,0:0:0:0:
160,160,210939,1,8,0:0:0:0:
160,160,211035,1,0,0:0:0:0:
160,160,211419,1,8,0:0:0:0:
160,160,211708,1,8,0:0:0:0:
160,160,211804,1,0,0:0:0:0:
160,160,211996,1,0,0:0:0:0:
160,160,212189,1,8,0:0:0:0:
160,160,212381,1,8,0:0:0:0:
160,160,212477,1,8,0:0:0:0:
160,160,212573,1,0,0:0:0:0:
160,160,212766,1,0,0:0:0:0:
160,160,212958,1,8,0:0:0:0:
160,160,213246,1,0,0:0:0:0:
160,160,213342,1,8,0:0:0:0:
160,160,213535,1,0,0:0:0:0:
160,160,213631,1,0,0:0:0:0:
160,160,213727,1,8,0:0:0:0:
160,160,213823,1,8,0:0:0:0:
160,160,213919,1,0,0:0:0:0:
160,160,214112,1,0,0:0:0:0:
160,160,214208,1,8,0:0:0:0:
160,128,214304,1,0,0:0:0:0:
160,128,214496,1,8,0:0:0:0:
160,128,214785,1,8,0:0:0:0:
160,128,214881,1,0,0:0:0:0:
160,128,215073,1,8,0:0:0:0:
160,128,215169,1,8,0:0:0:0:
160,128,215266,1,0,0:0:0:0:
160,128,215458,1,8,0:0:0:0:
160,128,215650,1,0,0:0:0:0:
160,128,215746,1,0,0:0:0:0:
160,128,215842,1,8,0:0:0:0:
160,128,215939,1,8,0:0:0:0:
160,128,216035,1,0,0:0:0:0:
160,128,216131,1,0,0:0:0:0:
160,128,216227,1,8,0:0:0:0:
160,128,216323,1,0,0:0:0:0:
160,128,216419,1,8,0:0:0:0:
160,128,216516,1,8,0:0:0:0:
160,128,216612,1,0,0:0:0:0:
160,128,216708,1,0,0:0:0:0:
160,128,216804,1,8,0:0:0:0:
160,128,216900,1,0,0:0:0:0:
160,128,216996,1,8,0:0:0:0:
192,160,217060,1,8,0:0:0:0:
160,128,217124,1,8,0:0:0:0:
192,160,217189,1,0,0:0:0:0:
192,160,217573,1,8,0:0:0:0:
192,160,217766,1,0,0:0:0:0:
192,160,217862,1,8,0:0:0:0:
192,160,217958,1,0,0:0:0:0:
192,160,218150,1,0,0:0:0:0:
192,160,218342,1,8,0:0:0:0:
192,160,218727,1,8,0:0:0:0:
192,160,218919,1,0,0:0:0:0:
192,160,219016,1,0,0:0:0:0:
192,160,219112,1,8,0:0:0:0:
192,160,219304,1,0,0:0:0:0:
192,160,219368,1,8,0:0:0:0:
192,160,219432,1,8,0:0:0:0:
192,160,219496,1,0,0:0:0:0:
192,160,219689,1,0,0:0:0:0:
192,160,219785,1,0,0:0:0:0:
192,160,219881,1,8,0:0:0:0:
192,160,220073,1,8,0:0:0:0:
192,160,220266,1,0,0:0:0:0:
192,160,220650,1,8,0:0:0:0:
192,160,220842,1,8,0:0:0:0:
192,160,220939,1,8,0:0:0:0:
192,160,221035,1,0,0:0:0:0:
192,160,221227,1,0,0:0:0:0:
192,160,221323,1,0,0:0:0:0:
192,160,221419,1,8,0:0:0:0:
160,160,221612,1,8,0:0:0:0:
192,160,221804,1,0,0:0:0:0:
192,160,221900,1,0,0:0:0:0:
192,160,221996,1,0,0:0:0:0:
160,160,222189,1,8,0:0:0:0:
192,160,222285,1,8,0:0:0:0:
160,160,222477,1,0,0:0:0:0:
160,160,222573,1,8,0:0:0:0:
160,160,222669,1,8,0:0:0:0:
160,160,222766,1,0,0:0:0:0:
160,160,222958,1,8,0:0:0:0:
160,160,223150,1,0,0:0:0:0:
160,160,223246,1,0,0:0:0:0:
160,160,223342,1,8,0:0:0:0:
160,160,223727,1,8,0:0:0:0:
160,160,223919,1,8,0:0:0:0:
160,160,224016,1,8,0:0:0:0:
160,160,224112,1,0,0:0:0:0:
160,160,224304,1,8,0:0:0:0:
128,160,224368,1,0,0:0:0:0:
128,160,224432,1,0,0:0:0:0:
160,160,224496,1,8,0:0:0:0:
160,160,224689,1,8,0:0:0:0:
160,160,224785,1,8,0:0:0:0:
160,160,224881,1,0,0:0:0:0:
160,160,225073,1,0,0:0:0:0:
160,160,225266,1,8,0:0:0:0:
160,160,225458,1,8,0:0:0:0:
160,160,225522,1,8,0:0:0:0:
160,160,225586,1,8,0:0:0:0:
160,160,225650,1,0,0:0:0:0:
160,160,225842,1,0,0:0:0:0:
160,160,225939,1,0,0:0:0:0:
160,160,226035,1,8,0:0:0:0:
160,160,226227,1,8,0:0:0:0:
160,160,226419,1,0,0:0:0:0:
160,160,226516,1,8,0:0:0:0:
160,128,226612,1,0,0:0:0:0:
160,128,226804,1,8,0:0:0:0:
192,128,226996,1,8,0:0:0:0:
160,128,227092,1,8,0:0:0:0:
160,128,227189,1,0,0:0:0:0:
160,128,227381,1,0,0:0:0:0:
160,128,227477,1,0,0:0:0:0:
160,128,227573,1,8,0:0:0:0:
160,128,227669,1,8,0:0:0:0:
160,128,227766,1,0,0:0:0:0:
160,128,227862,1,8,0:0:0:0:
160,128,227958,1,8,0:0:0:0:
160,128,228054,1,8,0:0:0:0:
160,128,228150,1,0,0:0:0:0:
160,128,228246,1,8,0:0:0:0:
160,128,228342,1,8,0:0:0:0:
160,128,228439,1,0,0:0:0:0:
160,128,228535,1,8,0:0:0:0:
160,128,228631,1,8,0:0:0:0:
160,128,228727,1,0,0:0:0:0:
160,128,228823,1,0,0:0:0:0:
160,128,228919,1,8,0:0:0:0:
160,128,229016,1,0,0:0:0:0:
160,128,229112,1,8,0:0:0:0:
160,128,229208,1,8,0:0:0:0:
160,128,229304,1,8,0:0:0:0:
160,128,229400,1,8,0:0:0:0:
256,192,229496,5,0,0:0:0:0:
256,192,229689,1,8,0:0:0:0:
256,192,229881,1,0,0:0:0:0:
256,192,230073,1,8,0:0:0:0:
256,192,230266,1,8,0:0:0:0:
256,192,230362,1,8,0:0:0:0:
256,192,230458,1,0,0:0:0:0:
256,192,230554,1,0,0:0:0:0:
256,192,230650,1,8,0:0:0:0:
256,192,230842,1,0,0:0:0:0:
256,192,231035,1,8,0:0:0:0:
256,192,231131,1,8,0:0:0:0:
256,192,231227,1,8,0:0:0:0:
256,192,231323,1,8,0:0:0:0:
256,192,231419,1,0,0:0:0:0:
256,192,231612,1,8,0:0:0:0:
256,192,231804,1,8,0:0:0:0:
256,192,231900,1,8,0:0:0:0:
256,192,231996,1,0,0:0:0:0:
256,192,232092,1,8,0:0:0:0:
256,192,232189,1,0,0:0:0:0:
256,192,232381,1,8,0:0:0:0:
256,192,232766,1,8,0:0:0:0:
256,192,232958,1,0,0:0:0:0:
256,192,233150,1,8,0:0:0:0:
256,192,233342,1,8,0:0:0:0:
256,192,233535,1,0,0:0:0:0:
256,192,233631,1,0,0:0:0:0:
256,192,233727,1,8,0:0:0:0:
256,192,233919,1,0,0:0:0:0:
256,192,234112,1,8,0:0:0:0:
256,192,234208,1,8,0:0:0:0:
256,192,234304,1,8,0:0:0:0:
256,192,234400,1,8,0:0:0:0:
256,192,234496,1,0,0:0:0:0:
256,192,234689,1,8,0:0:0:0:
256,192,234881,1,8,0:0:0:0:
256,192,234977,1,8,0:0:0:0:
256,192,235073,1,0,0:0:0:0:
256,192,235266,1,8,0:0:0:0:
256,192,235458,1,0,0:0:0:0:
256,192,235650,1,12,0:0:0:0:
256,192,235842,1,8,0:0:0:0:
256,192,236035,1,8,0:0:0:0:
256,192,236099,1,8,0:0:0:0:
256,192,236163,1,8,0:0:0:0:
256,192,236227,1,0,0:0:0:0:
256,192,236419,1,8,0:0:0:0:
256,192,236612,1,8,0:0:0:0:
256,192,236708,1,0,0:0:0:0:
256,192,236804,1,8,0:0:0:0:
256,192,236900,1,8,0:0:0:0:
256,192,236996,1,0,0:0:0:0:
256,192,237189,1,8,0:0:0:0:
256,192,237381,1,8,0:0:0:0:
256,192,237477,1,8,0:0:0:0:
256,192,237573,1,0,0:0:0:0:
256,192,237766,1,0,0:0:0:0:
256,192,237958,1,8,0:0:0:0:
256,192,238054,1,8,0:0:0:0:
256,192,238150,1,0,0:0:0:0:
256,192,238246,1,0,0:0:0:0:
256,192,238342,1,8,0:0:0:0:
256,192,238535,1,8,0:0:0:0:
256,192,238631,1,0,0:0:0:0:
256,192,238727,1,8,0:0:0:0:
256,192,238919,1,8,0:0:0:0:
256,192,239112,1,8,0:0:0:0:
256,192,239208,1,0,0:0:0:0:
256,192,239304,1,0,0:0:0:0:
256,192,239496,1,8,0:0:0:0:
256,192,239689,1,8,0:0:0:0:
256,192,239753,1,8,0:0:0:0:
256,192,239817,1,8,0:0:0:0:
256,192,239881,1,0,0:0:0:0:
256,192,239977,1,0,0:0:0:0:
256,192,240073,1,8,0:0:0:0:
256,192,240169,1,0,0:0:0:0:
256,192,240266,1,8,0:0:0:0:
256,192,240554,1,0,0:0:0:0:
256,192,240650,1,8,0:0:0:0:
256,192,240842,1,0,0:0:0:0:
256,192,240939,1,0,0:0:0:0:
256,192,241035,1,8,0:0:0:0:
256,192,241131,1,0,0:0:0:0:
256,192,241227,1,8,0:0:0:0:
256,192,241323,1,8,0:0:0:0:
256,192,241419,1,0,0:0:0:0:
256,192,241612,1,0,0:0:0:0:
256,192,241708,1,0,0:0:0:0:
256,192,241804,1,8,0:0:0:0:
256,192,241996,1,8,0:0:0:0:
256,192,242189,1,8,0:0:0:0:
256,192,242285,1,8,0:0:0:0:
256,192,242381,1,0,0:0:0:0:
256,192,242477,1,8,0:0:0:0:
256,192,242573,1,0,0:0:0:0:
256,192,242766,1,0,0:0:0:0:
256,192,242958,1,8,0:0:0:0:
256,192,243054,1,8,0:0:0:0:
256,192,243150,1,0,0:0:0:0:
256,192,243246,1,0,0:0:0:0:
256,192,243342,1,8,0:0:0:0:
256,192,243535,1,8,0:0:0:0:
256,192,243631,1,8,0:0:0:0:
256,192,243727,1,0,0:0:0:0:
256,192,243919,1,8,0:0:0:0:
256,192,244112,1,0,0:0:0:0:
256,192,244304,1,0,0:0:0:0:
256,192,244400,1,0,0:0:0:0:
256,192,244496,1,8,0:0:0:0:
256,192,244592,1,8,0:0:0:0:
256,192,244689,1,0,0:0:0:0:
256,192,244753,1,0,0:0:0:0:
256,192,244817,1,0,0:0:0:0:
256,192,244881,1,8,0:0:0:0:
256,192,245073,1,8,0:0:0:0:
256,192,245266,1,0,0:0:0:0:
256,192,245362,1,0,0:0:0:0:
256,192,245458,1,8,0:0:0:0:
256,192,245554,1,0,0:0:0:0:
256,192,245650,1,8,0:0:0:0:
256,192,245842,1,8,0:0:0:0:
256,192,245939,1,8,0:0:0:0:
256,192,246035,1,0,0:0:0:0:
256,192,246227,1,8,0:0:0:0:
256,192,246419,1,0,0:0:0:0:
256,192,246516,1,8,0:0:0:0:
256,192,246612,1,0,0:0:0:0:
256,192,246804,1,8,0:0:0:0:
256,192,246996,1,0,0:0:0:0:
256,192,247092,1,0,0:0:0:0:
256,192,247189,1,8,0:0:0:0:
256,192,247285,1,8,0:0:0:0:
256,192,247381,1,0,0:0:0:0:
256,192,247477,1,0,0:0:0:0:
256,192,247573,1,8,0:0:0:0:
256,192,247766,1,0,0:0:0:0:
256,192,247958,1,12,0:0:0:0:
256,192,248150,1,8,0:0:0:0:
256,192,248342,1,8,0:0:0:0:
256,192,248407,1,8,0:0:0:0:
256,192,248471,1,8,0:0:0:0:
256,192,248535,1,0,0:0:0:0:
256,192,248727,1,8,0:0:0:0:
256,192,248919,1,8,0:0:0:0:
256,192,249016,1,0,0:0:0:0:
256,192,249112,1,8,0:0:0:0:
256,192,249208,1,8,0:0:0:0:
256,192,249304,1,0,0:0:0:0:
256,192,249496,1,8,0:0:0:0:
256,192,249689,1,8,0:0:0:0:
256,192,249785,1,8,0:0:0:0:
256,192,249881,1,0,0:0:0:0:
256,192,250073,1,0,0:0:0:0:
256,192,250266,1,8,0:0:0:0:
256,192,250362,1,8,0:0:0:0:
256,192,250458,1,0,0:0:0:0:
256,192,250554,1,0,0:0:0:0:
256,192,250650,1,8,0:0:0:0:
256,192,250842,1,8,0:0:0:0:
256,192,250939,1,0,0:0:0:0:
256,192,251035,1,8,0:0:0:0:
256,192,251227,1,8,0:0:0:0:
256,192,251419,1,8,0:0:0:0:
256,192,251516,1,0,0:0:0:0:
256,192,251612,1,0,0:0:0:0:
256,192,251804,1,8,0:0:0:0:
256,192,251996,1,8,0:0:0:0:
256,192,252060,1,8,0:0:0:0:
256,192,252124,1,8,0:0:0:0:
256,192,252189,1,0,0:0:0:0:
256,192,252285,1,0,0:0:0:0:
256,192,252381,1,8,0:0:0:0:
256,192,252477,1,0,0:0:0:0:
256,192,252573,1,8,0:0:0:0:
256,192,252862,1,0,0:0:0:0:
256,192,252958,1,8,0:0:0:0:
256,192,253054,1,0,0:0:0:0:
256,192,253150,1,0,0:0:0:0:
256,192,253342,1,8,0:0:0:0:
256,192,253439,1,8,0:0:0:0:
256,192,253535,1,0,0:0:0:0:
256,192,253631,1,0,0:0:0:0:
256,192,253727,1,8,0:0:0:0:
256,192,253919,1,0,0:0:0:0:
256,192,254016,1,0,0:0:0:0:
256,192,254112,1,8,0:0:0:0:
256,192,254304,1,0,0:0:0:0:
256,192,254400,1,0,0:0:0:0:
256,192,254496,1,0,0:0:0:0:
256,192,254689,1,8,0:0:0:0:
256,192,254881,1,8,0:0:0:0:
256,192,254977,1,8,0:0:0:0:
256,192,255073,1,0,0:0:0:0:
256,192,255169,1,0,0:0:0:0:
256,192,255266,1,8,0:0:0:0:
256,192,255458,1,0,0:0:0:0:
256,192,255650,1,8,0:0:0:0:
256,192,255746,1,8,0:0:0:0:
256,192,255842,1,8,0:0:0:0:
256,192,256035,1,0,0:0:0:0:
256,192,256227,1,8,0:0:0:0:
256,192,256419,1,0,0:0:0:0:
256,192,256612,1,0,0:0:0:0:
256,192,256708,1,0,0:0:0:0:
256,192,256804,1,8,0:0:0:0:
256,192,256900,1,8,0:0:0:0:
256,192,256996,1,0,0:0:0:0:
256,192,257060,1,0,0:0:0:0:
256,192,257124,1,0,0:0:0:0:
256,192,257189,1,8,0:0:0:0:
256,192,257477,1,0,0:0:0:0:
256,192,257573,1,8,0:0:0:0:
256,192,257766,1,0,0:0:0:0:
256,192,257862,1,0,0:0:0:0:
256,192,257958,1,8,0:0:0:0:
256,192,258150,1,8,0:0:0:0:
256,192,258246,1,8,0:0:0:0:
256,192,258342,1,0,0:0:0:0:
256,192,258535,1,8,0:0:0:0:
256,192,258727,1,0,0:0:0:0:
256,192,258823,1,8,0:0:0:0:
256,192,258919,1,0,0:0:0:0:
256,192,259112,1,8,0:0:0:0:
256,192,259304,1,8,0:0:0:0:
256,192,259400,1,0,0:0:0:0:
256,192,259496,1,8,0:0:0:0:
256,192,259592,1,8,0:0:0:0:
256,192,259689,1,0,0:0:0:0:
256,192,259785,1,0,0:0:0:0:
256,192,259881,1,8,0:0:0:0:
256,192,260073,1,8,0:0:0:0:
192,160,260266,5,0,0:0:0:0:
192,160,260458,1,0,0:0:0:0:
288,128,260650,1,8,0:0:0:0:
128,224,260842,1,8,0:0:0:0:
192,224,260939,1,8,0:0:0:0:
160,192,261035,1,0,0:0:0:0:
160,192,261227,1,0,0:0:0:0:
256,160,261419,1,8,0:0:0:0:
224,192,261804,1,0,0:0:0:0:
224,160,261996,1,0,0:0:0:0:
224,160,262189,1,8,0:0:0:0:
224,96,262285,1,8,0:0:0:0:
128,160,262381,1,0,0:0:0:0:
128,160,262477,1,8,0:0:0:0:
224,96,262573,1,0,0:0:0:0:
352,160,262766,1,0,0:0:0:0:
160,224,262958,1,8,0:0:0:0:
224,192,263342,1,0,0:0:0:0:
224,160,263439,1,8,0:0:0:0:
224,192,263535,1,0,0:0:0:0:
384,160,263727,1,8,0:0:0:0:
224,160,263919,1,8,0:0:0:0:
224,160,264016,1,8,0:0:0:0:
224,160,264112,1,0,0:0:0:0:
224,160,264304,1,0,0:0:0:0:
320,224,264496,1,8,0:0:0:0:
320,160,264689,1,0,0:0:0:0:
224,160,264881,1,0,0:0:0:0:
288,192,264977,1,8,0:0:0:0:
224,160,265073,1,0,0:0:0:0:
224,160,265169,1,0,0:0:0:0:
288,192,265266,1,8,0:0:0:0:
224,160,265458,1,0,0:0:0:0:
224,160,265554,1,0,0:0:0:0:
288,192,265650,1,8,0:0:0:0:
288,128,265746,1,8,0:0:0:0:
128,224,265842,1,0,0:0:0:0:
288,128,266035,1,8,0:0:0:0:
224,192,266131,1,8,0:0:0:0:
352,96,266227,1,0,0:0:0:0:
256,192,266419,1,0,0:0:0:0:
256,192,266516,1,0,0:0:0:0:
256,192,266612,1,0,0:0:0:0:
224,192,266804,1,8,0:0:0:0:
256,160,266900,1,8,0:0:0:0:
352,96,266996,1,0,0:0:0:0:
256,160,267092,1,8,0:0:0:0:
256,160,267189,1,0,0:0:0:0:
256,160,267381,1,0,0:0:0:0:
384,224,267573,1,8,0:0:0:0:
224,192,267958,1,0,0:0:0:0:
224,192,268054,1,0,0:0:0:0:
256,192,268150,1,0,0:0:0:0:
256,192,268342,1,8,0:0:0:0:
256,192,268439,1,0,0:0:0:0:
320,160,268535,1,8,0:0:0:0:
256,192,268631,1,8,0:0:0:0:
320,160,268727,1,0,0:0:0:0:
320,160,268919,1,0,0:0:0:0:
160,224,269112,1,8,0:0:0:0:
192,224,269496,1,0,0:0:0:0:
352,128,269689,1,0,0:0:0:0:
128,256,269881,1,8,0:0:0:0:
256,192,270073,1,8,0:0:0:0:
256,192,270169,1,8,0:0:0:0:
288,160,270266,1,0,0:0:0:0:
288,160,270458,1,0,0:0:0:0:
352,256,270650,1,8,0:0:0:0:
192,160,270842,1,0,0:0:0:0:
224,192,271035,1,8,0:0:0:0:
224,192,271131,1,8,0:0:0:0:
224,128,271227,1,0,0:0:0:0:
128,160,271323,1,0,0:0:0:0:
224,192,271419,1,8,0:0:0:0:
256,160,271612,1,0,0:0:0:0:
256,160,271708,1,0,0:0:0:0:
256,192,271804,1,8,0:0:0:0:
256,192,271900,1,8,0:0:0:0:
224,128,271996,1,0,0:0:0:0:
384,224,272092,1,8,0:0:0:0:
96,224,272189,1,8,0:0:0:0:
128,224,272285,1,8,0:0:0:0:
224,128,272381,1,0,0:0:0:0:
224,192,272573,1,8,0:0:0:0:
256,96,272766,1,0,0:0:0:0:
288,160,272862,1,0,0:0:0:0:
256,192,272958,1,8,0:0:0:0:
192,192,273150,1,0,0:0:0:0:
192,192,273342,1,8,0:0:0:0:
288,128,273535,1,0,0:0:0:0:
288,160,273631,1,0,0:0:0:0:
288,192,273727,1,8,0:0:0:0:
416,96,273919,1,0,0:0:0:0:
288,192,274112,1,8,0:0:0:0:
256,128,274304,1,0,0:0:0:0:
192,160,274496,1,8,0:0:0:0:
256,128,274592,1,8,0:0:0:0:
256,128,274689,1,0,0:0:0:0:
272,137,274753,1,8,0:0:0:0:
288,160,274817,1,8,0:0:0:0:
224,128,274881,1,0,0:0:0:0:
256,224,275073,1,0,0:0:0:0:
256,96,275266,1,8,0:0:0:0:
256,128,275458,1,0,0:0:0:0:
256,192,275650,1,8,0:0:0:0:
256,128,275842,1,0,0:0:0:0:
320,160,276035,1,8,0:0:0:0:
256,192,276227,1,8,0:0:0:0:
256,192,276323,1,8,0:0:0:0:
288,128,276419,1,0,0:0:0:0:
160,128,276612,1,0,0:0:0:0:
288,192,276804,1,8,0:0:0:0:
352,96,276996,1,8,0:0:0:0:
64,192,277189,1,8,0:0:0:0:
160,192,277285,1,8,0:0:0:0:
256,192,277381,1,0,0:0:0:0:
352,192,277477,1,0,0:0:0:0:
448,192,277573,1,8,0:0:0:0:
448,192,277766,1,0,0:0:0:0:
352,192,277862,1,0,0:0:0:0:
256,192,277958,1,8,0:0:0:0:
160,192,278054,1,8,0:0:0:0:
64,192,278150,1,0,0:0:0:0:
256,96,278342,1,0,0:0:0:0:
256,288,278439,1,0,0:0:0:0:
256,192,278535,1,8,0:0:0:0:
128,128,278727,1,8,0:0:0:0:
384,128,278919,1,0,0:0:0:0:
384,128,279112,1,0,0:0:0:0:
128,128,279304,1,8,0:0:0:0:
128,128,279496,1,8,0:0:0:0:
256,192,279689,1,8,0:0:0:0:
256,192,279753,1,8,0:0:0:0:
256,192,279817,1,8,0:0:0:0:
288,160,279881,1,0,0:0:0:0:
256,96,280073,1,8,0:0:0:0:
224,192,280266,1,0,0:0:0:0:
256,128,280458,1,0,0:0:0:0:
224,192,280554,1,0,0:0:0:0:
128,96,280650,1,8,0:0:0:0:
128,288,280842,1,8,0:0:0:0:
256,192,280939,1,8,0:0:0:0:
384,96,281035,1,0,0:0:0:0:
160,64,281227,1,0,0:0:0:0:
160,288,281419,1,8,0:0:0:0:
416,160,281612,1,8,0:0:0:0:
256,160,281804,1,0,0:0:0:0:
256,160,281900,1,0,0:0:0:0:
256,160,281996,1,0,0:0:0:0:
224,192,282092,1,0,0:0:0:0:
224,192,282189,1,8,0:0:0:0:
224,192,282381,1,8,0:0:0:0:
224,192,282477,1,8,0:0:0:0:
288,96,282573,1,0,0:0:0:0:
288,96,282766,1,0,0:0:0:0:
352,224,282958,1,8,0:0:0:0:
416,96,283150,1,0,0:0:0:0:
224,192,283342,1,8,0:0:0:0:
224,192,283439,1,0,0:0:0:0:
256,128,283535,1,8,0:0:0:0:
128,160,283631,1,8,0:0:0:0:
160,64,283727,1,0,0:0:0:0:
256,128,283823,1,8,0:0:0:0:
320,160,283919,1,0,0:0:0:0:
224,192,284016,1,0,0:0:0:0:
224,192,284112,1,8,0:0:0:0:
224,192,284208,1,8,0:0:0:0:
288,128,284304,1,0,0:0:0:0:
288,128,284400,1,0,0:0:0:0:
320,160,284496,1,8,0:0:0:0:
160,192,284689,1,8,0:0:0:0:
160,192,284785,1,8,0:0:0:0:
192,160,284881,5,0,0:0:0:0:
256,192,297189,5,0,0:0:0:0:
256,192,297573,1,0,0:0:0:0:
256,192,297766,1,0,0:0:0:0:
256,192,297958,1,8,0:0:0:0:
256,192,298342,1,0,0:0:0:0:
256,192,298535,1,0,0:0:0:0:
256,192,298727,1,8,0:0:0:0:
256,192,298919,1,8,0:0:0:0:
256,192,299112,1,0,0:0:0:0:
256,192,299304,1,0,0:0:0:0:
256,192,299496,1,8,0:0:0:0:
256,192,299881,1,0,0:0:0:0:
256,192,300073,1,0,0:0:0:0:
256,192,300266,1,8,0:0:0:0:
256,192,300554,1,0,0:0:0:0:
256,192,300650,1,8,0:0:0:0:
256,192,300842,1,0,0:0:0:0:
256,192,301035,1,8,0:0:0:0:
256,192,301227,1,0,0:0:0:0:
256,192,301419,1,8,0:0:0:0:
256,192,301612,1,0,0:0:0:0:
256,192,301804,1,8,0:0:0:0:
256,192,302958,1,0,0:0:0:0:
256,192,303150,1,0,0:0:0:0:
256,192,303342,1,12,0:0:0:0:
256,192,304112,1,12,0:0:0:0:
256,192,304496,1,0,0:0:0:0:
256,192,304881,1,12,0:0:0:0:
256,192,305266,1,0,0:0:0:0:
256,192,305650,1,12,0:0:0:0:
256,192,306035,1,0,0:0:0:0:
256,192,306227,1,0,0:0:0:0:
256,192,306419,1,12,0:0:0:0:
256,192,306804,1,0,0:0:0:0:
256,192,307189,1,12,0:0:0:0:
256,192,307573,1,0,0:0:0:0:
256,192,307766,1,0,0:0:0:0:
256,192,307958,1,12,0:0:0:0:
256,192,308150,12,0,309304,0:0:0:0:
288,96,309496,6,0,L|352:64,7,70
256,192,311035,5,4,0:0:0:0:
256,192,311323,1,0,0:0:0:0:
256,192,311419,1,8,0:0:0:0:
256,192,311612,1,0,0:0:0:0:
256,192,311804,1,8,0:0:0:0:
256,192,311996,1,0,0:0:0:0:
256,192,312092,1,0,0:0:0:0:
256,192,312189,1,8,0:0:0:0:
256,192,312381,1,0,0:0:0:0:
224,160,312573,1,8,0:0:0:0:
224,160,312669,1,8,0:0:0:0:
224,160,312766,1,0,0:0:0:0:
256,192,312958,1,8,0:0:0:0:
224,160,313022,1,8,0:0:0:0:
256,192,313086,1,8,0:0:0:0:
256,192,313150,1,0,0:0:0:0:
256,192,313342,1,8,0:0:0:0:
256,192,313535,1,0,0:0:0:0:
256,192,313631,1,0,0:0:0:0:
256,192,313727,1,8,0:0:0:0:
256,192,313919,1,0,0:0:0:0:
256,192,314112,1,4,0:0:0:0:
256,192,314400,1,0,0:0:0:0:
256,192,314496,1,8,0:0:0:0:
256,192,314689,1,0,0:0:0:0:
256,192,314881,1,8,0:0:0:0:
256,192,314977,1,8,0:0:0:0:
256,192,315073,1,0,0:0:0:0:
256,192,315169,1,0,0:0:0:0:
256,192,315266,1,8,0:0:0:0:
224,160,315330,1,8,0:0:0:0:
256,192,315394,1,8,0:0:0:0:
256,192,315458,1,0,0:0:0:0:
224,160,315650,1,8,0:0:0:0:
224,160,315746,1,8,0:0:0:0:
224,160,315842,1,0,0:0:0:0:
224,160,315939,1,0,0:0:0:0:
256,192,316035,1,8,0:0:0:0:
256,192,316131,1,0,0:0:0:0:
256,192,316227,1,8,0:0:0:0:
256,192,316323,1,8,0:0:0:0:
256,192,316419,1,8,0:0:0:0:
256,192,316612,1,0,0:0:0:0:
256,192,316708,1,0,0:0:0:0:
256,192,316804,1,8,0:0:0:0:
256,192,316996,1,0,0:0:0:0:
256,192,317189,1,4,0:0:0:0:
256,192,317477,1,0,0:0:0:0:
256,192,317573,1,8,0:0:0:0:
256,192,317766,1,0,0:0:0:0:
256,192,317958,1,8,0:0:0:0:
256,192,318150,1,0,0:0:0:0:
256,192,318214,1,0,0:0:0:0:
224,160,318278,1,0,0:0:0:0:
256,192,318342,1,8,0:0:0:0:
256,192,318439,1,0,0:0:0:0:
256,192,318535,1,8,0:0:0:0:
224,160,318727,1,8,0:0:0:0:
224,160,318919,1,0,0:0:0:0:
224,160,319016,1,0,0:0:0:0:
256,192,319112,1,8,0:0:0:0:
224,160,319208,1,0,0:0:0:0:
256,192,319304,1,8,0:0:0:0:
256,192,319496,1,8,0:0:0:0:
256,192,319689,1,0,0:0:0:0:
224,160,319785,1,0,0:0:0:0:
256,192,319881,1,8,0:0:0:0:
256,192,320073,1,0,0:0:0:0:
256,192,320266,1,12,0:0:0:0:
256,192,320554,1,0,0:0:0:0:
256,192,320650,1,8,0:0:0:0:
256,192,320842,1,0,0:0:0:0:
256,192,321035,1,12,0:0:0:0:
256,192,321323,1,0,0:0:0:0:
256,192,321419,1,8,0:0:0:0:
256,192,321612,1,0,0:0:0:0:
224,160,321804,1,8,0:0:0:0:
224,160,321900,1,0,0:0:0:0:
224,160,321996,1,8,0:0:0:0:
224,160,322092,1,8,0:0:0:0:
256,192,322189,1,0,0:0:0:0:
256,192,322285,1,0,0:0:0:0:
256,192,322381,1,8,0:0:0:0:
256,192,322477,1,0,0:0:0:0:
256,192,322573,1,8,0:0:0:0:
256,192,322766,1,0,0:0:0:0:
256,192,322862,1,0,0:0:0:0:
256,192,322958,1,8,0:0:0:0:
256,192,323054,1,8,0:0:0:0:
256,192,323150,1,0,0:0:0:0:
256,192,323342,1,4,0:0:0:0:
256,192,323631,1,0,0:0:0:0:
256,192,323727,1,8,0:0:0:0:
256,192,323919,1,0,0:0:0:0:
256,192,324112,1,8,0:0:0:0:
256,192,324304,1,0,0:0:0:0:
256,192,324400,1,0,0:0:0:0:
256,192,324496,1,8,0:0:0:0:
256,192,324689,1,0,0:0:0:0:
224,160,324881,1,8,0:0:0:0:
224,160,324977,1,8,0:0:0:0:
224,160,325073,1,0,0:0:0:0:
256,192,325266,1,8,0:0:0:0:
224,160,325330,1,8,0:0:0:0:
256,192,325394,1,8,0:0:0:0:
256,192,325458,1,0,0:0:0:0:
256,192,325650,1,8,0:0:0:0:
256,192,325842,1,0,0:0:0:0:
256,192,325939,1,0,0:0:0:0:
256,192,326035,1,8,0:0:0:0:
256,192,326227,1,0,0:0:0:0:
256,192,326419,1,4,0:0:0:0:
256,192,326708,1,0,0:0:0:0:
256,192,326804,1,8,0:0:0:0:
256,192,326996,1,0,0:0:0:0:
256,192,327189,1,8,0:0:0:0:
256,192,327285,1,8,0:0:0:0:
256,192,327381,1,0,0:0:0:0:
256,192,327477,1,0,0:0:0:0:
256,192,327573,1,8,0:0:0:0:
224,160,327637,1,8,0:0:0:0:
256,192,327701,1,8,0:0:0:0:
256,192,327766,1,0,0:0:0:0:
224,160,327958,1,8,0:0:0:0:
224,160,328054,1,8,0:0:0:0:
224,160,328150,1,0,0:0:0:0:
224,160,328246,1,0,0:0:0:0:
256,192,328342,1,8,0:0:0:0:
256,192,328439,1,0,0:0:0:0:
256,192,328535,1,8,0:0:0:0:
256,192,328631,1,8,0:0:0:0:
256,192,328727,1,8,0:0:0:0:
256,192,328919,1,0,0:0:0:0:
256,192,329016,1,0,0:0:0:0:
256,192,329112,1,8,0:0:0:0:
256,192,329304,1,0,0:0:0:0:
256,192,329496,1,12,0:0:0:0:
256,192,329785,1,0,0:0:0:0:
256,192,329881,1,8,0:0:0:0:
256,192,330073,1,0,0:0:0:0:
256,192,330266,1,8,0:0:0:0:
256,192,330458,1,0,0:0:0:0:
256,192,330522,1,0,0:0:0:0:
224,160,330586,1,0,0:0:0:0:
256,192,330650,1,8,0:0:0:0:
256,192,330746,1,0,0:0:0:0:
256,192,330842,1,8,0:0:0:0:
224,160,331035,1,8,0:0:0:0:
224,160,331131,1,8,0:0:0:0:
224,160,331227,1,8,0:0:0:0:
224,160,331323,1,0,0:0:0:0:
256,192,331419,1,8,0:0:0:0:
224,160,331516,1,8,0:0:0:0:
256,192,331612,1,0,0:0:0:0:
224,160,331708,1,0,0:0:0:0:
256,192,331804,1,8,0:0:0:0:
256,192,331996,1,0,0:0:0:0:
256,192,332092,1,0,0:0:0:0:
256,192,332189,1,8,0:0:0:0:
256,192,332381,1,0,0:0:0:0:
256,192,332573,1,12,0:0:0:0:
256,192,332862,1,0,0:0:0:0:
256,192,332958,1,8,0:0:0:0:
256,192,333150,1,0,0:0:0:0:
256,192,333342,1,12,0:0:0:0:
256,192,333535,1,0,0:0:0:0:
256,192,333631,1,0,0:0:0:0:
256,192,333727,1,8,0:0:0:0:
256,192,333919,1,0,0:0:0:0:
224,160,334112,1,8,0:0:0:0:
224,160,334208,1,0,0:0:0:0:
224,160,334304,1,8,0:0:0:0:
224,160,334400,1,8,0:0:0:0:
256,192,334496,1,8,0:0:0:0:
256,192,334592,1,0,0:0:0:0:
256,192,334689,1,8,0:0:0:0:
256,192,334785,1,0,0:0:0:0:
256,192,334881,1,8,0:0:0:0:
224,160,334977,1,0,0:0:0:0:
256,192,335073,1,0,0:0:0:0:
224,160,335169,1,0,0:0:0:0:
256,192,335266,1,8,0:0:0:0:
224,160,335362,1,8,0:0:0:0:
256,192,335458,1,0,0:0:0:0:
224,160,335554,1,0,0:0:0:0:
224,160,335650,1,0,0:0:0:0:
224,160,335842,1,8,0:0:0:0:
224,160,336035,1,8,0:0:0:0:
224,160,336227,1,0,0:0:0:0:
224,160,336419,1,8,0:0:0:0:
224,160,336612,1,0,0:0:0:0:
224,160,336708,1,0,0:0:0:0:
224,160,336804,1,8,0:0:0:0:
224,160,336996,1,0,0:0:0:0:
224,160,337189,1,8,0:0:0:0:
224,160,337381,1,8,0:0:0:0:
224,160,337573,1,0,0:0:0:0:
224,160,337766,1,0,0:0:0:0:
224,160,337958,1,8,0:0:0:0:
224,160,338054,1,8,0:0:0:0:
224,160,338150,1,0,0:0:0:0:
224,160,338246,1,0,0:0:0:0:
224,160,338342,1,0,0:0:0:0:
224,160,338535,1,8,0:0:0:0:
224,160,338727,1,4,0:0:0:0:
224,160,338919,1,8,0:0:0:0:
224,160,339112,1,0,0:0:0:0:
224,160,339208,1,0,0:0:0:0:
224,160,339304,1,8,0:0:0:0:
224,160,339496,1,4,0:0:0:0:
224,160,339689,1,0,0:0:0:0:
224,160,339785,1,0,0:0:0:0:
224,160,339881,1,8,0:0:0:0:
224,160,340073,1,0,0:0:0:0:
224,160,340266,1,4,0:0:0:0:
224,160,340458,1,0,0:0:0:0:
224,160,340650,1,8,0:0:0:0:
224,160,340746,1,0,0:0:0:0:
224,160,340842,1,0,0:0:0:0:
224,160,341035,1,4,0:0:0:0:
224,160,341227,1,0,0:0:0:0:
224,160,341419,1,8,0:0:0:0:
224,160,341516,1,8,0:0:0:0:
224,160,341612,1,0,0:0:0:0:
224,160,341804,1,4,0:0:0:0:
