osu file format v14

[General]
AudioFilename: audio.mp3
AudioLeadIn: 0
PreviewTime: -1
Countdown: 0
SampleSet: Soft
StackLeniency: 0.7
Mode: 0
LetterboxInBreaks: 0
WidescreenStoryboard: 0

[Editor]
DistanceSpacing: 1.1
BeatDivisor: 4
GridSize: 32
TimelineZoom: 1

[Metadata]
Title:You & I (TV Size)
TitleUnicode:ユー&アイ(TVサイズ)
Artist:Ayaka Ohashi
ArtistUnicode:大橋彩香
Creator:Kiriyume
Version:Normal
Source:ナイツ&マジック
Tags:
BeatmapID:1410042
BeatmapSetID:666210

[Difficulty]
HPDrainRate:3
CircleSize:3
OverallDifficulty:4
ApproachRate:5
SliderMultiplier:1.1
SliderTickRate:1

[Events]
//Background and Video events
0,0,"knightsmagic.jpg",0,0
//Break Periods
//Storyboard Layer 0 (Background)
//Storyboard Layer 1 (Fail)
//Storyboard Layer 2 (Pass)
//Storyboard Layer 3 (Foreground)
//Storyboard Sound Samples

[TimingPoints]
922,461.538461538462,4,2,1,50,1,0
8306,-100,4,2,1,60,0,0
32306,-100,4,2,1,65,0,0
34152,-100,4,2,1,70,0,0
54460,-100,4,2,1,80,0,1
84922,-100,4,2,1,80,0,0
85845,-100,4,2,1,80,0,1
88614,-100,4,2,1,80,0,0

[HitObjects]
92,95,922,6,0,L|102:168,1,55,4|0,3:2|0:0,0:0:0:0:
133,192,1383,2,0,L|143:265,1,55,8|0,0:0|0:0,0:0:0:0:
162,292,1845,2,0,P|207:310|279:290,1,110,0|8,3:0|0:0,0:0:0:0:
368,212,2768,6,0,P|374:173|363:140,1,55,0|0,3:0|0:0,0:0:0:0:
347,107,3229,2,0,P|318:90|281:87,1,55,8|0,0:0|0:0,0:0:0:0:
247,86,3691,2,0,L|134:100,1,110,0|8,3:0|0:0,0:0:0:0:
42,207,4614,6,0,L|37:269,1,55,4|0,3:2|0:0,0:0:0:0:
58,309,5075,2,0,P|84:329|126:331,1,55,8|0,0:0|0:0,0:0:0:0:
154,322,5537,2,0,B|208:310|208:310|266:331,1,110,4|8,3:2|0:3,0:0:0:0:
309,320,6229,6,0,P|336:268|318:202,1,110,2|0,3:0|3:0,0:0:0:0:
296,179,6922,1,8,3:2:0:0:
186,136,7383,1,8,3:2:0:0:
81,207,7845,1,8,0:1:0:0:
133,313,8306,6,0,P|165:319|198:310,1,55,0|0,3:0|0:0,0:0:0:0:
238,300,8768,2,0,P|270:295|305:305,1,55,8|0,0:0|0:0,0:0:0:0:
346,312,9229,2,0,L|363:190,1,110,0|8,3:0|0:0,0:0:0:0:
297,101,10152,6,0,P|264:85|192:94,1,110,0|8,3:0|0:0,0:0:0:0:
146,121,10845,1,0,0:0:0:0:
146,121,11075,1,0,3:0:0:0:
73,216,11537,2,0,L|80:279,1,55,8|0,0:0|0:0,0:0:0:0:
82,319,11998,5,0,3:0:0:0:
183,362,12460,1,8,0:0:0:0:
269,288,12922,2,0,P|323:277|397:293,1,110,0|8,3:0|0:0,0:0:0:0:
429,296,13614,1,0,0:0:0:0:
479,268,13845,6,0,L|485:208,1,55,0|0,3:0|0:0,0:0:0:0:
455,171,14306,2,0,L|463:104,1,55,8|0,0:0|0:0,0:0:0:0:
433,72,14768,2,0,P|383:55|314:73,1,110,0|8,3:0|0:0,0:0:0:0:
205,125,15691,6,0,P|170:136|100:116,1,110,0|8,3:0|0:0,0:0:0:0:
13,184,16614,2,0,L|80:229,1,55,0|0,3:0|0:0,0:0:0:0:
102,237,17075,1,8,0:0:0:0:
217,305,17537,5,0,3:0:0:0:
319,219,17998,1,8,0:0:0:0:
272,116,18460,2,0,L|248:63,2,55,0|0|8,3:0|0:0|0:0,0:0:0:0:
319,219,19383,5,8,3:2:0:0:
319,219,19614,1,8,3:2:0:0:
239,322,20075,2,0,P|194:333|126:305,1,110,8|8,3:2|3:2,0:0:0:0:
99,273,20768,1,8,3:2:0:0:
73,154,21229,6,0,L|88:39,1,110,0|8,3:0|0:0,0:0:0:0:
218,32,22152,2,0,L|200:142,1,110,0|8,3:0|0:0,0:0:0:0:
218,189,22845,1,0,0:0:0:0:
218,189,23075,6,0,P|285:172|338:169,1,110,0|8,3:0|0:0,0:0:0:0:
379,183,23768,1,0,0:0:0:0:
379,183,23998,1,0,3:0:0:0:
463,268,24460,2,0,L|449:322,1,55,8|0,0:0|0:0,0:0:0:0:
406,355,24922,6,0,P|352:357|302:327,1,110,0|8,3:0|0:0,0:0:0:0:
247,230,25845,2,0,L|261:114,1,110,0|8,3:0|0:0,0:0:0:0:
236,78,26537,1,0,0:0:0:0:
192,50,26768,6,0,P|164:53|118:75,1,55,0|0,3:0|0:0,0:0:0:0:
93,95,27229,2,0,P|83:122|88:167,1,55,8|0,0:0|0:0,0:0:0:0:
116,191,27691,2,0,P|131:238|139:305,1,110,0|8,3:0|0:0,0:0:0:0:
242,349,28614,5,0,3:0:0:0:
332,285,29075,2,0,P|368:277|406:278,1,55,8|0,0:0|0:0,0:0:0:0:
437,261,29537,2,0,P|445:220|444:184,1,55,0|0,3:0|0:0,0:0:0:0:
437,153,29998,1,8,0:0:0:0:
355,72,30460,6,0,B|312:62|312:62|242:77,1,110,0|8,3:0|0:0,0:0:0:0:
135,143,31383,2,0,L|72:135,2,55,0|0|8,3:0|0:0|0:0,0:0:0:0:
230,206,32306,5,0,3:0:0:0:
230,206,32537,1,0,3:0:0:0:
319,293,32998,2,0,L|442:272,1,110,0|0,3:0|3:0,0:0:0:0:
480,261,33691,1,8,0:0:0:0:
509,154,34152,6,0,P|471:132|383:138,1,110,4|8,3:2|0:0,0:0:0:0:
355,128,34845,2,0,P|313:136|236:127,1,110,0|0,0:0|0:0,0:0:0:0:
199,112,35537,1,8,0:0:0:0:
90,61,35998,6,0,P|59:110|58:175,1,110,0|8,3:0|0:0,0:0:0:0:
85,200,36691,2,0,B|104:240|104:240|101:311,1,110,0|0,0:0|0:0,0:0:0:0:
93,353,37383,1,8,0:0:0:0:
209,365,37845,6,0,L|220:255,1,110,0|8,3:0|0:0,0:0:0:0:
247,213,38537,1,0,0:0:0:0:
247,213,38768,2,0,P|303:187|352:198,1,110,0|8,3:0|0:0,0:0:0:0:
450,255,39691,6,0,L|459:320,2,55,0|0|8,3:0|0:0|0:0,0:0:0:0:
455,138,40614,2,0,L|447:83,1,55,0|0,3:0|0:0,0:0:0:0:
341,36,41306,6,0,P|293:77|195:56,1,165,4|8,3:2|0:0,0:0:0:0:
155,41,42229,2,0,L|38:35,1,110,0|0,0:0|0:0,0:0:0:0:
22,84,42922,1,8,0:0:0:0:
22,84,43152,6,0,P|47:132|47:206,1,110,0|0,0:0|0:0,0:0:0:0:
36,235,43845,1,8,0:0:0:0:
36,235,44075,1,0,0:0:0:0:
130,306,44537,2,0,L|146:364,1,55,0|8,0:0|0:0,0:0:0:0:
194,370,44998,6,0,P|236:349|305:345,1,110,0|0,0:0|0:0,0:0:0:0:
422,326,45922,2,0,P|432:275|424:212,1,110,0|0,0:0|0:0,0:0:0:0:
386,181,46614,2,0,L|392:115,1,55,8|0,0:0|0:0,0:0:0:0:
397,75,47075,5,0,3:0:0:0:
397,75,47306,2,0,P|342:95|272:79,2,110,0|0|0,0:0|0:0|0:0,0:0:0:0:
334,226,48922,5,12,3:2:0:0:
334,226,49152,1,8,3:2:0:0:
216,285,49614,2,0,L|101:268,2,110,8|8|8,3:2|3:2|3:2,0:0:0:0:
321,333,50998,5,8,3:2:0:0:
321,333,51229,2,0,P|378:313|441:312,1,110,8|0,3:2|3:0,0:0:0:0:
496,218,52152,1,8,0:0:0:0:
380,196,52614,6,0,P|359:148|429:65,1,165,4|4,3:2|3:2,0:0:0:0:
471,58,53537,1,4,3:2:0:0:
416,284,54460,6,0,P|371:300|302:280,1,110,4|8,3:2|0:0,0:0:0:0:
261,264,55152,1,0,0:0:0:0:
261,264,55383,2,0,P|209:245|146:265,1,110,0|8,3:0|0:0,0:0:0:0:
51,227,56306,6,0,L|57:171,1,55,0|0,3:0|0:0,0:0:0:0:
82,124,56768,2,0,P|109:111|144:110,1,55,8|0,0:0|0:0,0:0:0:0:
183,114,57229,2,0,P|219:122|295:102,1,110,0|8,3:0|0:0,0:0:0:0:
421,53,58152,6,0,L|429:114,1,55,4|0,3:2|0:0,0:0:0:0:
466,140,58614,2,0,L|464:206,1,55,8|0,0:0|0:0,0:0:0:0:
436,242,59075,1,0,3:0:0:0:
436,242,59306,2,0,P|392:268|320:261,1,110,0|0,0:0|0:0,0:0:0:0:
287,251,59998,6,0,B|233:250|233:250|180:296,2,110,4|8|0,3:2|0:0|3:0,0:0:0:0:
405,293,61383,1,8,0:0:0:0:
481,208,61845,6,0,P|492:165|485:87,1,110,4|8,3:2|0:0,0:0:0:0:
458,60,62537,1,0,0:0:0:0:
458,60,62768,2,0,P|400:42|346:57,1,110,0|8,3:0|0:0,0:0:0:0:
252,112,63691,6,0,L|175:102,2,55,4|0|8,3:2|0:0|0:0,0:0:0:0:
291,145,64383,2,0,P|310:198|297:260,1,110,0|0,0:0|0:0,0:0:0:0:
274,292,65075,1,8,0:0:0:0:
149,305,65537,6,0,P|126:273|132:199,1,110,4|8,3:2|0:0,0:0:0:0:
150,161,66229,1,0,0:0:0:0:
150,161,66460,2,0,L|272:132,1,110,0|8,3:0|0:0,0:0:0:0:
374,158,67383,6,0,L|386:103,2,55,4|0|8,3:2|0:0|0:0,0:0:0:0:
292,241,68306,2,0,L|304:296,2,55,0|0|8,3:0|0:0|0:0,0:0:0:0:
213,145,69229,6,0,P|168:124|102:145,1,110,4|8,3:2|0:0,0:0:0:0:
66,164,69922,1,0,0:0:0:0:
66,164,70152,2,0,L|49:290,1,110,0|8,3:0|0:0,0:0:0:0:
137,349,71075,6,0,P|170:359|202:354,1,55,0|0,3:0|0:0,0:0:0:0:
238,344,71537,2,0,P|272:336|314:339,1,55,8|0,0:0|0:0,0:0:0:0:
346,348,71998,2,0,P|364:290|361:237,1,110,0|8,3:0|0:0,0:0:0:0:
301,139,72922,6,0,P|266:131|228:134,1,55,4|0,3:2|0:0,0:0:0:0:
196,146,73383,2,0,L|138:158,1,55,8|0,0:0|0:0,0:0:0:0:
91,175,73845,1,0,3:0:0:0:
91,175,74075,2,0,P|67:224|86:293,1,110,0|0,0:0|0:0,0:0:0:0:
109,319,74768,6,0,P|163:308|230:317,2,110,4|8|0,3:2|0:0|3:0,0:0:0:0:
26,226,76152,1,8,0:0:0:0:
147,216,76614,6,0,P|162:165|154:102,1,110,0|8,3:0|0:0,0:0:0:0:
141,61,77306,1,0,0:0:0:0:
141,61,77537,2,0,L|263:43,1,110,0|8,3:0|0:0,0:0:0:0:
372,87,78460,6,0,L|430:74,2,55,4|0|8,3:2|0:0|0:0,0:0:0:0:
329,123,79152,2,0,P|320:167|336:234,1,110,0|0,0:0|0:0,0:0:0:0:
364,269,79845,1,8,0:0:0:0:
272,342,80306,6,0,L|153:333,1,110,4|8,3:2|0:0,0:0:0:0:
84,242,81229,2,0,L|203:221,1,110,0|8,3:0|0:0,0:0:0:0:
298,162,82152,5,8,3:2:0:0:
246,61,82614,1,8,3:2:0:0:
143,123,83075,1,8,3:2:0:0:
35,79,83537,1,8,3:2:0:0:
5,190,83998,6,0,P|30:242|42:316,2,110,8|8|4,3:2|3:2|3:2,0:0:0:0:
207,278,85845,6,0,L|262:271,1,55,8|0,3:2|0:0,0:0:0:0:
308,300,86306,2,0,L|372:291,1,55,8|0,0:0|0:0,0:0:0:0:
408,317,86768,2,0,P|439:274|437:210,1,110,0|8,3:0|0:0,0:0:0:0:
409,176,87460,6,0,P|386:132|435:29,1,165,8|8,3:2|3:2,0:0:0:0:
478,112,88614,1,8,3:2:0:0:
