osu file format v14

[General]
AudioFilename: audio.mp3
AudioLeadIn: 0
PreviewTime: 50761
Countdown: 0
SampleSet: Normal
StackLeniency: 0.7
Mode: 0
LetterboxInBreaks: 1
WidescreenStoryboard: 0

[Editor]
Bookmarks: 62694,70650,75954
DistanceSpacing: 2.3
BeatDivisor: 2
GridSize: 8
TimelineZoom: 0.9

[Metadata]
Title:Wagamama MIRROR HEART
TitleUnicode:ワガママMIRROR HEART
Artist:Ayaka Ohashi
ArtistUnicode:彩香盤
Creator:october
Version:Revenge
Source:政宗くんのリベンジ
Tags:masamune kun no revenge op
BeatmapID:1174215
BeatmapSetID:554678

[Difficulty]
HPDrainRate:6
CircleSize:4
OverallDifficulty:9
ApproachRate:9.4
SliderMultiplier:2
SliderTickRate:1

[Events]
//Background and Video events
0,0,"Untitled-1.png",0,0
//Break Periods
//Storyboard Layer 0 (Background)
//Storyboard Layer 1 (Fail)
//Storyboard Layer 2 (Pass)
//Storyboard Layer 3 (Foreground)
//Storyboard Sound Samples

[TimingPoints]
374,331.491712707182,4,1,0,80,1,0
6175,-200,4,1,0,80,0,0
7003,-100,4,1,0,80,0,0
52086,-100,4,1,0,80,0,1
73302,-100,4,1,0,80,0,0
75954,-100,4,1,0,80,0,1
86561,-100,4,1,0,80,0,0

[Colours]
Combo1 : 162,0,255
Combo2 : 255,0,128

[HitObjects]
160,120,871,5,0,0:0:0:0:
160,120,1037,2,0,P|152:240|128:272,1,100
320,80,1369,2,0,P|304:192|320:224,1,100
296,312,1700,6,0,P|168:336|104:296,1,200
128,176,2197,2,0,P|264:152|320:184,1,200
128,280,2695,1,0,0:0:0:0:
200,96,2860,1,0,0:0:0:0:
200,96,2943,1,0,0:0:0:0:
200,96,3026,6,0,P|272:80|328:96,1,100
384,264,3358,2,0,P|416:176|400:160,1,100
176,200,3689,2,0,P|144:272|168:328,1,100
320,112,4021,2,0,P|200:80|144:112,1,150
192,160,4352,6,0,P|112:64|168:16,1,200
328,104,4849,1,0,0:0:0:0:
328,104,5015,2,0,P|304:192|272:208,1,100
192,296,5347,2,0,P|101:211|98:146,1,150
164,162,5678,6,0,P|40:145|29:217,1,200
224,96,6175,2,0,P|352:72|416:184,1,250
248,184,7832,2,0,P|208:200|192:224,1,50
376,112,7998,2,0,P|432:144|448:168,1,50
248,40,8164,2,0,P|189:36|176:48,2,50
216,200,8661,6,0,P|296:160|392:224,1,200
232,96,9158,1,0,0:0:0:0:
232,96,9324,2,0,P|152:96|112:120,1,100
312,56,9655,2,0,P|416:96|424:120,1,100
344,128,9987,2,0,P|256:168|224:152,1,100
80,88,10318,6,0,P|48:184|112:256,1,200
288,128,10815,1,0,0:0:0:0:
288,128,10981,2,0,P|248:208|208:216,1,100
352,88,11313,2,0,P|272:56|240:72,1,100
152,176,11644,6,0,P|192:224|216:224,1,50
192,96,11810,2,0,P|144:64|112:72,1,50
288,168,11976,1,0,0:0:0:0:
288,168,12141,2,0,P|360:152|360:32,1,200
160,80,12639,5,0,0:0:0:0:
128,112,12722,1,0,0:0:0:0:
112,144,12804,1,0,0:0:0:0:
96,184,12887,1,0,0:0:0:0:
96,224,12970,1,0,0:0:0:0:
320,176,13136,1,0,0:0:0:0:
320,176,13302,2,0,P|232:240|240:312,1,150
304,280,13633,6,0,P|256:344|152:288,1,200
176,104,14130,1,0,0:0:0:0:
328,200,14296,2,0,P|272:208|232:248,1,100
304,48,14628,2,0,P|384:104|384:144,1,100
400,272,14959,6,0,P|480:200|448:96,1,200
280,128,15456,1,0,0:0:0:0:
280,128,15622,2,0,P|264:184|312:240,1,100
448,168,15954,1,0,0:0:0:0:
440,120,16036,1,0,0:0:0:0:
408,88,16119,1,0,0:0:0:0:
376,64,16202,1,0,0:0:0:0:
336,48,16285,2,0,P|256:40|216:64,1,100
352,192,16617,2,0,P|264:232|232:216,1,100
120,88,16948,5,0,0:0:0:0:
168,280,17114,1,0,0:0:0:0:
240,96,17280,1,0,0:0:0:0:
304,280,17445,1,0,0:0:0:0:
304,280,17528,1,0,0:0:0:0:
304,280,17611,2,0,P|344:232|352:184,1,100
408,32,17943,2,0,P|472:144|424:224,1,200
128,80,18606,5,0,0:0:0:0:
168,104,18688,1,0,0:0:0:0:
200,136,18771,1,0,0:0:0:0:
224,176,18854,1,0,0:0:0:0:
240,216,18937,2,0,B|272:280|360:328|432:272,1,200
344,80,19434,1,0,0:0:0:0:
472,136,19600,6,0,P|384:200|352:192,1,100
240,120,19932,1,0,0:0:0:0:
304,288,20097,1,0,0:0:0:0:
312,104,20263,2,0,P|216:192|192:176,1,100
80,96,20594,6,0,P|96:200|120:216,1,100
144,344,20926,2,0,P|168:232|160:216,1,100
320,64,21257,6,0,P|208:104|184:128,1,100
392,152,21589,1,0,0:0:0:0:
224,208,21755,1,0,0:0:0:0:
384,288,21920,2,0,P|288:344|256:336,1,100
160,160,22252,6,0,P|160:256|208:296,1,100
304,104,22583,1,0,0:0:0:0:
248,272,22749,1,0,0:0:0:0:
176,64,22915,2,0,P|80:144|64:240,1,200
328,128,23412,5,0,0:0:0:0:
328,128,23578,2,0,P|232:192|152:168,1,200
352,40,24075,5,0,0:0:0:0:
352,40,24158,1,0,0:0:0:0:
352,40,24241,2,0,P|432:88|440:208,1,200
192,136,24738,5,0,0:0:0:0:
192,136,24904,2,0,P|192:208|240:248,1,100
376,72,25235,2,0,P|328:152|296:152,1,100
168,64,25567,2,0,P|120:112|120:152,1,100
344,272,25898,2,0,P|352:224|320:176,1,100
96,232,26230,2,0,P|160:288|208:288,1,100
184,72,26561,1,0,0:0:0:0:
312,208,26727,1,0,0:0:0:0:
88,80,26893,6,0,P|144:144|272:120,1,200
96,304,27390,5,0,0:0:0:0:
96,304,27556,2,0,P|160:256|208:248,1,100
368,144,27887,1,0,0:0:0:0:
256,336,28053,1,0,0:0:0:0:
192,104,28219,6,0,P|152:168|168:208,1,100
336,64,28550,1,0,0:0:0:0:
264,272,28716,1,0,0:0:0:0:
264,112,28882,1,0,0:0:0:0:
248,72,28965,1,0,0:0:0:0:
216,48,29048,1,0,0:0:0:0:
176,32,29130,1,0,0:0:0:0:
128,32,29213,1,0,0:0:0:0:
88,48,29296,1,0,0:0:0:0:
56,80,29379,2,0,P|24:128|32:192,1,100
256,152,29711,5,0,0:0:0:0:
256,152,29876,2,0,P|224:224|184:240,1,100
48,304,30208,2,0,P|104:344|176:336,1,100
80,136,30539,2,0,P|160:112|192:128,1,100
408,160,30871,6,0,P|336:256|248:232,1,200
160,72,31368,1,0,0:0:0:0:
160,72,31534,2,0,P|112:120|128:184,1,100
304,152,31865,2,0,P|272:224|232:240,1,100
56,64,32197,2,0,P|40:176|112:264,1,200
232,80,32694,5,0,0:0:0:0:
232,80,32860,2,0,P|291:105|304:176,1,100
296,336,33191,2,0,P|216:256|200:256,1,100
48,96,33523,6,0,P|128:40|224:80,1,200
176,288,34020,5,0,0:0:0:0:
176,288,34186,2,0,P|272:280|288:256,1,100
288,64,34517,2,0,P|224:128|216:168,1,100
440,312,34849,6,0,P|480:232|432:128,1,200
176,120,35346,5,0,0:0:0:0:
176,120,35512,2,0,P|160:184|288:248,1,200
464,64,36009,5,0,0:0:0:0:
464,64,36175,2,0,P|456:128|336:176,1,200
192,56,36672,1,0,0:0:0:0:
272,288,36838,1,0,0:0:0:0:
112,184,37003,1,0,0:0:0:0:
384,80,37169,1,0,0:0:0:0:
184,280,37335,1,0,0:0:0:0:
184,280,37501,2,0,P|200:184|288:152,1,200
424,288,37998,5,0,0:0:0:0:
400,144,38164,1,0,0:0:0:0:
376,104,38246,1,0,0:0:0:0:
336,80,38329,1,0,0:0:0:0:
288,80,38412,1,0,0:0:0:0:
256,112,38495,1,0,0:0:0:0:
240,152,38578,1,0,0:0:0:0:
208,184,38661,1,0,0:0:0:0:
88,80,38992,5,0,0:0:0:0:
208,280,39324,5,0,0:0:0:0:
320,96,39655,5,0,0:0:0:0:
320,96,39821,2,0,P|304:168|272:192,1,100
88,64,40153,2,0,P|72:144|104:184,1,100
248,272,40484,1,0,0:0:0:0:
128,216,40981,5,0,0:0:0:0:
128,216,41147,2,0,P|144:144|176:119,1,100
360,247,41479,2,0,P|376:167|343:127,1,100
200,40,41810,1,0,0:0:0:0:
224,232,41976,1,0,0:0:0:0:
352,96,42141,2,0,P|256:112|232:136,1,100
104,80,42473,2,0,P|64:160|80:200,1,100
336,192,42804,5,0,0:0:0:0:
112,312,42970,1,0,0:0:0:0:
312,144,43136,1,0,0:0:0:0:
112,96,43633,5,0,0:0:0:0:
216,288,43799,1,0,0:0:0:0:
288,40,43965,2,0,P|208:88|192:128,1,100
320,232,44296,1,0,0:0:0:0:
144,184,44462,2,0,P|88:256|96:288,1,100
344,152,44793,2,0,P|272:112|224:112,1,100
48,96,45125,2,0,P|64:216|128:240,1,200
176,96,47445,5,0,0:0:0:0:
256,280,47611,1,0,0:0:0:0:
344,40,47777,5,0,0:0:0:0:
216,192,47943,1,0,0:0:0:0:
464,136,48108,6,0,P|392:240|368:248,1,100
240,112,48440,2,0,P|296:216|288:240,1,100
144,320,48771,1,0,0:0:0:0:
344,312,48937,1,0,0:0:0:0:
136,168,49103,6,0,P|224:232|248:224,1,100
240,40,49434,2,0,P|144:96|136:112,1,100
400,192,49766,1,0,0:0:0:0:
104,328,49932,1,0,0:0:0:0:
352,112,50097,1,0,0:0:0:0:
64,248,50263,1,0,0:0:0:0:
304,32,50429,1,0,0:0:0:0:
216,288,50594,1,0,0:0:0:0:
64,72,50760,1,0,0:0:0:0:
296,120,51257,6,0,P|200:176|160:176,1,100
408,224,51589,1,0,0:0:0:0:
240,328,51755,1,0,0:0:0:0:
440,352,51920,1,0,0:0:0:0:
296,112,52086,6,0,P|200:160|176:264,1,200
424,248,52583,1,0,0:0:0:0:
368,80,52749,2,0,P|304:32|232:56,1,100
192,208,53081,1,0,0:0:0:0:
408,160,53246,1,0,0:0:0:0:
128,168,53412,6,0,P|152:280|184:296,1,100
328,56,53744,2,0,P|296:176|280:184,1,100
120,72,54075,1,0,0:0:0:0:
264,240,54241,1,0,0:0:0:0:
208,24,54407,1,0,0:0:0:0:
336,200,54572,1,0,0:0:0:0:
456,40,54738,2,0,P|472:168|424:224,1,200
152,64,55235,5,0,0:0:0:0:
152,64,55401,2,0,P|104:160|168:240,1,200
304,48,55898,1,0,0:0:0:0:
296,272,56064,1,0,0:0:0:0:
216,72,56230,1,0,0:0:0:0:
432,120,56396,1,0,0:0:0:0:
232,200,56561,1,0,0:0:0:0:
424,40,56727,6,0,P|320:40|304:56,1,100
368,280,57059,2,0,B|352:208|288:168,1,100
136,64,57390,6,0,P|96:208|144:256,1,200
264,72,57887,1,0,0:0:0:0:
432,216,58053,2,0,P|288:224|272:208,1,100
160,120,58385,1,0,0:0:0:0:
224,328,58550,1,0,0:0:0:0:
312,112,58716,2,0,P|264:48|232:32,1,100
72,176,59048,2,0,P|88:56|112:40,1,100
328,272,59379,6,0,P|224:272|208:248,1,100
168,88,59711,2,0,P|272:64|336:104,1,100
72,256,60042,6,0,P|192:352|248:352,1,200
208,72,60539,5,0,0:0:0:0:
208,72,60705,2,0,P|176:168|184:200,1,100
376,288,61036,1,0,0:0:0:0:
312,80,61202,1,0,0:0:0:0:
144,240,61368,6,0,P|272:264|288:248,1,100
400,144,61699,1,0,0:0:0:0:
208,40,61865,1,0,0:0:0:0:
208,40,62031,2,0,P|144:128|152:152,1,100
280,280,62362,2,0,P|208:192|168:192,1,100
32,96,62694,5,0,0:0:0:0:
128,344,62860,1,0,0:0:0:0:
184,48,63025,1,0,0:0:0:0:
40,320,63191,1,0,0:0:0:0:
88,40,63357,1,0,0:0:0:0:
288,352,63523,1,0,0:0:0:0:
40,104,63688,1,0,0:0:0:0:
368,232,63854,5,0,0:0:0:0:
368,232,64020,2,0,P|256:176|184:200,1,200
192,40,64517,5,0,0:0:0:0:
192,40,64683,2,0,P|328:56|400:112,1,200
184,192,65180,5,0,0:0:0:0:
352,336,65346,1,0,0:0:0:0:
376,120,65512,1,0,0:0:0:0:
376,120,65677,2,0,P|432:144|472:200,1,100
200,40,66009,5,0,0:0:0:0:
296,240,66175,1,0,0:0:0:0:
296,240,66340,2,0,P|200:200|192:168,1,100
408,56,66672,5,0,0:0:0:0:
408,280,66838,1,0,0:0:0:0:
216,112,67003,1,0,0:0:0:0:
216,112,67169,2,0,P|152:224|208:320,1,200
408,160,67666,2,0,P|328:248|296:256,1,100
208,56,67998,6,0,P|144:136|144:168,1,100
240,328,68329,1,0,0:0:0:0:
64,200,68495,1,0,0:0:0:0:
272,128,68661,2,0,P|248:232|224:240,1,100
104,40,68992,2,0,P|72:136|80:160,1,100
352,182,69324,6,0,P|264:126|232:126,1,100
88,248,69655,2,0,P|168:320|200:312,1,100
200,104,69987,1,0,0:0:0:0:
280,312,70153,1,0,0:0:0:0:
416,136,70318,2,0,P|320:192|272:176,1,100
96,88,70650,5,0,0:0:0:0:
208,328,70815,1,0,0:0:0:0:
320,88,70981,1,0,0:0:0:0:
96,328,71147,1,0,0:0:0:0:
208,48,71313,1,0,0:0:0:0:
312,328,71478,1,0,0:0:0:0:
64,112,71644,1,0,0:0:0:0:
64,112,71810,2,0,P|128:192|240:200,1,200
400,80,72307,5,0,0:0:0:0:
200,224,72473,1,0,0:0:0:0:
368,264,72639,1,0,0:0:0:0:
424,248,72722,1,0,0:0:0:0:
464,208,72804,1,0,0:0:0:0:
472,152,72887,1,0,0:0:0:0:
448,104,72970,1,0,0:0:0:0:
408,72,73053,1,0,0:0:0:0:
368,64,73136,1,0,0:0:0:0:
160,192,73302,5,0,0:0:0:0:
376,160,73467,1,0,0:0:0:0:
168,32,73633,5,0,0:0:0:0:
184,296,73799,1,0,0:0:0:0:
376,160,73965,2,0,P|368:240|320:264,1,100
96,88,74296,5,0,0:0:0:0:
312,192,74462,2,0,P|248:232|224:224,1,100
416,56,74793,5,0,0:0:0:0:
416,56,74959,2,0,P|336:80|312:112,1,100
360,312,75291,2,0,P|272:304|224:264,1,100
152,136,75622,2,0,P|272:144|304:176,1,100
432,256,75954,5,0,0:0:0:0:
144,280,76119,1,0,0:0:0:0:
432,176,76285,1,0,0:0:0:0:
144,352,76451,1,0,0:0:0:0:
432,328,76617,1,0,0:0:0:0:
144,208,76782,1,0,0:0:0:0:
432,104,76948,2,0,P|432:216|432:240,1,100
192,72,77280,5,0,0:0:0:0:
296,304,77445,1,0,0:0:0:0:
128,96,77611,1,0,0:0:0:0:
352,264,77777,1,0,0:0:0:0:
352,80,77943,5,0,0:0:0:0:
136,280,78108,1,0,0:0:0:0:
376,152,78274,1,0,0:0:0:0:
96,216,78440,1,0,0:0:0:0:
240,40,78606,5,0,0:0:0:0:
256,336,78771,1,0,0:0:0:0:
328,48,78937,1,0,0:0:0:0:
168,304,79103,1,0,0:0:0:0:
152,56,79269,5,0,0:0:0:0:
336,304,79434,2,0,P|408:224|408:200,1,100
112,136,79766,5,0,0:0:0:0:
112,136,79932,2,0,P|224:224|296:200,1,200
352,48,80429,5,0,0:0:0:0:
352,48,80594,2,0,P|440:128|432:216,1,200
136,280,81092,1,0,0:0:0:0:
136,48,81257,6,0,P|232:80|264:192,1,200
112,272,81755,1,0,0:0:0:0:
344,248,81920,1,0,0:0:0:0:
136,344,82086,1,0,0:0:0:0:
312,144,82252,1,0,0:0:0:0:
80,64,82418,1,0,0:0:0:0:
80,64,82583,6,0,P|48:192|88:248,1,200
344,80,83081,5,0,0:0:0:0:
344,80,83246,2,0,P|296:184|256:192,1,100
424,320,83578,2,0,P|344:336|280:296,1,100
160,72,83909,5,0,0:0:0:0:
200,296,84075,1,0,0:0:0:0:
200,296,84241,2,0,P|280:208|280:192,1,100
56,48,84572,5,0,0:0:0:0:
96,296,84738,1,0,0:0:0:0:
96,296,84904,2,0,P|16:224|24:200,1,100
256,72,85235,5,0,0:0:0:0:
88,224,85401,1,0,0:0:0:0:
88,224,85567,2,0,P|152:256|160:336,1,100
336,128,85898,5,0,0:0:0:0:
264,344,86064,1,0,0:0:0:0:
192,64,86230,1,0,0:0:0:0:
304,240,86396,1,0,0:0:0:0:
40,192,86561,6,0,P|112:280|128:280,1,100
288,128,86893,2,0,P|200:208|168:200,1,100
112,48,87224,2,0,P|96:152|120:168,1,100
248,64,87556,2,0,P|328:64|376:112,1,100
304,176,87887,5,0,0:0:0:0:
176,160,88053,1,0,0:0:0:0:
360,280,88219,2,0,P|256:288|232:272,1,100
96,96,88550,5,0,0:0:0:0:
168,328,88716,1,0,0:0:0:0:
264,32,88882,1,0,0:0:0:0:
448,224,89048,2,0,P|328:264|256:224,1,200
