osu file format v14

[General]
AudioFilename: audio.mp3
AudioLeadIn: 0
PreviewTime: 64447
Countdown: 0
SampleSet: Soft
StackLeniency: 0.7
Mode: 0
LetterboxInBreaks: 0
WidescreenStoryboard: 0

[Editor]
Bookmarks: 221160
DistanceSpacing: 1
BeatDivisor: 4
GridSize: 4
TimelineZoom: 1

[Metadata]
Title:Wagamama MIRROR HEART
TitleUnicode:ワガママMIRROR HEART
Artist:Ayaka Ohashi
ArtistUnicode:大橋彩香
Creator:Rizia
Version:Normal
Source:政宗くんのリベンジ
Tags:kawaiwkyik Doormat Kibberu sahuang My Angel Azusa Flask kisses anime opening op Masamune kun no Ribenji Revenge
BeatmapID:1219003
BeatmapSetID:554618

[Difficulty]
HPDrainRate:4
CircleSize:3.5
OverallDifficulty:4
ApproachRate:4.5
SliderMultiplier:1.1
SliderTickRate:1

[Events]
//Background and Video events
0,0,"BG.jpg",0,0
//Break Periods
2,102686,109182
2,172796,181944
2,195504,201999
//Storyboard Layer 0 (Background)
//Storyboard Layer 1 (Fail)
//Storyboard Layer 2 (Pass)
//Storyboard Layer 3 (Foreground)
//Storyboard Sound Samples

[TimingPoints]
3039,331.491712707182,4,2,1,50,1,0
3039,-100,4,2,1,50,0,0
20110,-100,4,2,1,60,0,0
21602,-100,4,2,1,60,0,0
26906,-100,4,2,1,60,0,0
32210,-100,4,2,1,60,0,0
42652,-100,4,2,1,60,0,0
51934,-100,4,2,1,60,0,0
58729,-100,4,2,1,60,0,0
60718,-100,4,2,1,60,0,0
65359,-100,4,2,1,70,0,1
86574,-100,4,2,1,70,0,1
87900,-100,4,2,1,70,0,1
99834,-100,4,2,1,60,0,0
105138,-100,4,2,1,60,0,0
110442,-100,4,2,1,60,0,0
120387,-100,4,2,1,60,0,0
121381,-100,4,2,1,60,0,0
128840,-100,4,2,1,60,0,0
145580,-100,4,2,1,65,0,0
146243,-100,4,2,1,70,0,0
147900,-100,4,2,1,60,0,0
148895,-100,4,2,1,70,0,1
170110,-100,4,2,1,70,0,1
172099,-100,4,2,1,60,0,0
172597,-100,4,2,1,60,0,0
190000,-100,4,2,1,60,0,0
207237,-100,4,2,1,70,0,1
252320,-100,4,2,1,60,0,1
254806,-100,4,2,1,60,0,0

[Colours]
Combo1 : 0,64,128
Combo2 : 0,128,255
Combo3 : 237,184,97
Combo4 : 255,128,64

[HitObjects]
100,208,4364,6,0,P|76:164|96:56,2,165,2|2|0,0:0|0:0|0:0,0:0:0:0:
76,316,5690,2,0,L|208:304,1,110,2|2,0:0|0:0,0:0:0:0:
280,364,6353,2,0,L|412:352,1,110,2|2,0:0|0:0,0:0:0:0:
476,284,7016,6,0,P|500:224|492:160,2,110,2|2|2,0:0|0:0|0:0,0:0:0:0:
388,352,8011,1,2,0:0:0:0:
312,272,8342,1,2,0:0:0:0:
312,272,8508,2,0,P|260:264|216:312,1,110,2|2,0:0|0:0,0:0:0:0:
96,116,10994,5,4,0:1:0:0:
96,116,11326,2,0,L|208:104,1,110,0|2,0:0|0:0,0:0:0:0:
260,100,11823,1,0,0:0:0:0:
360,56,12155,2,0,P|408:56|440:168,1,165,2|2,0:0|0:0,0:0:0:0:
416,196,12818,2,0,P|404:232|416:312,1,110,2|0,0:0|0:0,0:0:0:0:
440,352,13315,1,2,0:0:0:0:
332,380,13646,6,0,L|200:372,1,110,2|2,0:0|0:0,0:0:0:0:
168,368,14143,1,2,0:0:0:0:
152,260,14475,1,2,0:0:0:0:
132,152,14806,2,0,B|128:100|100:68|100:68|184:136|276:72,1,275,2|0,0:0|0:0,0:0:0:0:
380,96,15967,2,0,L|388:36,2,55,4|0|4,0:0|0:0|0:1,0:0:0:0:
488,348,17127,5,2,0:0:0:0:
384,312,17458,1,2,0:0:0:0:
468,244,17790,1,2,0:0:0:0:
468,244,17956,2,0,L|480:180,1,55,2|2,0:0|0:0,0:0:0:0:
388,128,18453,1,2,0:0:0:0:
388,128,18619,2,0,L|376:192,1,55,2|6,0:0|0:0,0:0:0:0:
356,232,18950,6,0,P|328:272|252:284,1,110,4|0,0:1|0:0,0:0:0:0:
216,292,19447,2,0,L|88:288,1,110,2|2,0:0|0:0,0:0:0:0:
52,284,19945,1,8,0:0:0:0:
52,284,20110,2,0,B|44:220|44:220|52:184|52:184|36:112,1,165,4|8,0:0|0:0,0:0:0:0:
148,128,20939,2,0,P|160:76|160:36,2,82.5,4|8|8,0:3|0:3|0:3,0:0:0:0:
152,184,21602,6,0,P|212:144|332:216,1,220,4|0,0:0|0:0,0:0:0:0:
420,272,22597,1,0,0:0:0:0:
420,272,22762,2,0,B|436:216|432:172|432:172|452:96,1,165,2|2,0:0|0:0,0:0:0:0:
372,32,23591,2,0,P|328:32|276:72,1,110,0|2,0:0|0:0,0:0:0:0:
292,180,24254,6,0,P|244:172|164:168,1,110,4|0,0:3|0:0,0:0:0:0:
76,144,24917,2,0,L|84:204,1,55,0|0,0:0|0:0,0:0:0:0:
44,236,25248,2,0,L|52:296,1,55,0|2,0:0|0:0,0:0:0:0:
156,328,25746,2,0,L|164:388,2,55,0|2|0,0:0|0:0|0:0,0:0:0:0:
256,284,26409,2,0,L|264:344,2,55,0|8|0,0:0|0:0|0:0,0:0:0:0:
292,244,26906,6,0,P|324:240|400:284,1,110,4|8,0:0|0:0,0:0:0:0:
428,316,27403,1,0,0:0:0:0:
428,316,27569,2,0,L|440:196,1,110,0|8,0:0|0:0,0:0:0:0:
460,156,28066,2,0,P|456:124|336:108,1,165,0|8,0:0|0:0,0:0:0:0:
264,168,28895,1,0,0:0:0:0:
168,116,29226,1,8,0:0:0:0:
84,188,29558,6,0,L|28:200,2,55,4|0|8,0:0|0:0|0:0,0:0:0:0:
136,204,30055,2,0,L|124:320,1,110,0|0,0:0|0:0,0:0:0:0:
120,368,30552,1,8,0:0:0:0:
120,368,30718,2,0,P|176:352|236:344,1,110,4|8,0:0|0:0,0:0:0:0:
284,344,31215,1,8,0:0:0:0:
508,100,32210,6,0,P|480:56|316:68,1,220,4|0,0:0|0:0,0:0:0:0:
244,128,33204,1,0,0:0:0:0:
156,64,33536,2,0,L|32:80,1,110,0|0,0:0|0:0,0:0:0:0:
40,188,34199,2,0,L|149:173,1,110,0|8,0:0|0:0,0:0:0:0:
228,252,34862,6,0,P|232:308|208:380,2,110,0|0|0,0:0|0:0|0:0,0:0:0:0:
184,152,35856,1,0,0:0:0:0:
288,112,36188,2,0,P|344:108|416:132,2,110
328,216,37182,1,8,0:0:0:0:
372,316,37514,6,0,P|316:320|244:296,1,110,4|0,0:0|0:0,0:0:0:0:
164,352,38177,2,0,P|160:296|184:224,1,110,0|0,0:0|0:0,0:0:0:0:
232,152,38840,1,0,0:0:0:0:
208,44,39171,1,0,0:0:0:0:
100,68,39503,1,0,0:0:0:0:
124,176,39834,1,8,0:0:0:0:
72,272,40166,6,0,L|88:384,1,110,0|0,0:0|0:0,0:0:0:0:
196,364,40829,2,0,L|180:255,1,110,0|8,0:0|0:0,0:0:0:0:
180,144,41492,2,0,P|220:120|292:124,1,110,0|0,0:0|0:0,0:0:0:0:
388,148,42155,2,0,L|444:120,1,55,8|0,0:0|0:0,0:0:0:0:
488,104,42486,1,8,0:0:0:0:
488,104,42652,6,0,B|464:156|464:156|488:208|464:276,1,165,4|8,0:0|0:0,0:0:0:0:
448,368,43480,2,0,P|412:380|336:376,1,110,0|8,0:0|0:0,0:0:0:0:
288,356,43978,2,0,P|252:344|176:348,1,110,0|0,0:0|0:0,0:0:0:0:
132,368,44475,1,8,0:0:0:0:
40,308,44806,1,0,0:0:0:0:
88,208,45138,1,8,0:0:0:0:
16,124,45469,6,0,B|4:72|4:72|36:12,1,110,0|8,0:0|0:0,0:0:0:0:
76,52,45967,2,0,L|200:40,1,110,0|0,0:0|0:0,0:0:0:0:
240,40,46464,1,8,0:0:0:0:
240,40,46630,2,0,P|284:68|400:52,1,165,0|8,0:0|0:0,0:0:0:0:
496,20,47458,2,0,L|480:140,1,110,0|8,0:0|0:0,0:0:0:0:
488,240,48121,5,4,0:0:0:0:
380,264,48453,1,8,0:0:0:0:
380,264,48619,2,0,P|368:220|356:156,1,110,0|0,0:0|0:0,0:0:0:0:
356,100,49116,1,8,0:0:0:0:
288,16,49447,2,0,P|256:48|252:124,1,110,0|12,0:0|0:0,0:0:0:0:
256,220,50110,2,0,L|132:208,1,110,8|0,0:0|0:0,0:0:0:0:
96,184,50608,6,0,P|56:216|72:324,1,165,4|8,0:0|0:0,0:0:0:0:
168,368,51436,2,0,L|232:356,1,55,8|8,0:0|0:0,0:0:0:0:
276,376,51768,2,0,L|340:364,1,55,0|4,0:0|0:0,0:0:0:0:
440,372,52265,5,0,0:0:0:0:
460,264,52597,1,4,0:0:0:0:
480,156,52928,1,0,0:0:0:0:
480,156,53094,2,0,P|488:112|496:88,1,55,8|0,0:0|0:0,0:0:0:0:
508,48,53425,5,8,0:0:0:0:
508,48,53591,2,0,L|448:60,1,55,8|8,0:0|0:0,0:0:0:0:
356,108,54088,2,0,L|240:92,1,110,2|8,0:0|0:0,0:0:0:0:
204,56,54585,2,0,P|180:96|192:172,1,110,4|0,0:0|0:0,0:0:0:0:
208,208,55083,1,8,0:0:0:0:
152,304,55414,1,8,0:0:0:0:
48,268,55746,1,8,0:0:0:0:
32,160,56077,5,12,0:0:0:0:
32,160,56243,2,0,L|44:96,1,55,8|8,0:0|0:0,0:0:0:0:
120,28,56740,2,0,P|144:68|144:136,1,110,2|8,0:0|0:0,0:0:0:0:
136,184,57237,2,0,L|256:168,1,110,4|0,0:0|0:0,0:0:0:0:
300,160,57735,1,8,0:0:0:0:
384,88,58066,1,0,0:0:0:0:
456,168,58398,1,8,0:0:0:0:
404,264,58729,5,2,0:0:0:0:
104,48,60718,5,8,0:0:0:0:
104,48,61050,1,8,0:0:0:0:
104,48,61381,2,0,L|120:172,1,110,4|8,0:0|0:0,0:0:0:0:
112,212,61878,2,0,P|104:248|92:336,1,110,0|0,0:0|0:0,0:0:0:0:
96,376,62376,1,8,0:0:0:0:
96,376,62541,2,0,B|132:348|176:360|176:360|204:380|276:364,1,165,4|8,0:0|0:0,0:0:0:0:
348,312,63370,2,0,L|456:320,2,82.5,8|8|8,0:0|0:0|0:0,0:0:0:0:
312,272,64033,1,8,0:0:0:0:
392,60,65027,5,8,0:0:0:0:
392,60,65359,2,0,P|340:72|272:80,1,110,4|8,0:0|0:0,0:0:0:0:
215,160,66022,2,0,P|270:167|324:180,1,110,2|8,0:0|0:0,0:0:0:0:
412,244,66685,1,2,0:0:0:0:
372,348,67016,1,8,0:0:0:0:
264,368,67348,1,2,0:0:0:0:
192,284,67679,1,8,0:0:0:0:
232,180,68011,6,0,P|248:128|232:56,1,110,4|8,0:0|0:0,0:0:0:0:
144,20,68674,2,0,P|128:72|144:144,1,110,2|8,0:0|0:0,0:0:0:0:
136,236,69337,1,2,0:0:0:0:
136,236,69503,2,0,L|64:248,1,55,0|8,0:0|0:0,0:0:0:0:
28,256,69834,2,0,B|16:304|16:304|52:364|128:328,1,165,0|12,0:0|0:0,0:0:0:0:
220,368,70663,6,0,L|236:252,1,110,4|8,0:0|0:0,0:0:0:0:
336,216,71326,2,0,L|320:324,1,110,2|8,0:0|0:0,0:0:0:0:
416,380,71989,2,0,L|431:271,1,110,2|8,0:0|0:0,0:0:0:0:
436,160,72652,1,2,0:0:0:0:
388,60,72983,1,8,0:0:0:0:
288,12,73315,6,0,P|220:8|168:40,1,110,4|8,0:0|0:0,0:0:0:0:
128,36,73812,2,0,P|160:80|180:148,1,110,4|0,0:0|0:0,0:0:0:0:
220,168,74309,1,8,0:0:0:0:
220,168,74475,2,0,P|168:176|88:200,1,110,4|8,0:0|0:0,0:0:0:0:
64,212,74972,1,8,0:0:0:0:
64,212,75138,1,8,0:0:0:0:
64,212,75304,2,0,P|80:256|96:336,1,110,8|8,0:0|0:0,0:0:0:0:
192,364,75967,6,0,P|216:312|352:340,1,220,4|8,0:0|0:0,0:0:0:0:
456,364,76961,1,2,0:0:0:0:
456,364,77127,2,0,P|476:312|456:204,1,165,4|8,0:0|0:0,0:0:0:0:
460,96,77956,2,0,L|336:116,1,110,2|8,0:0|0:0,0:0:0:0:
248,72,78619,6,0,L|260:12,2,55,0|0|12,0:0|0:0|0:0,0:0:0:0:
144,104,79282,2,0,L|145:49,2,55,0|0|12,0:0|0:0|0:0,0:0:0:0:
48,160,79945,2,0,L|38:99,2,55,0|0|8,0:0|0:0|0:0,0:0:0:0:
64,212,80442,2,0,P|36:268|48:376,1,165,4|8,0:0|0:0,0:0:0:0:
152,352,81271,6,0,L|268:336,1,110,4|8,0:0|0:0,0:0:0:0:
368,360,81934,2,0,L|352:244,1,110,2|8,0:0|0:0,0:0:0:0:
380,144,82597,2,0,L|264:160,1,110,0|8,0:0|0:0,0:0:0:0:
164,136,83260,2,0,L|180:252,1,110,2|8,0:0|0:0,0:0:0:0:
248,328,83922,6,0,P|288:352|360:352,1,110,12|8,0:0|0:0,0:0:0:0:
404,344,84420,2,0,P|444:321|480:259,1,110,8|0,0:0|0:0,0:0:0:0:
484,216,84917,1,8,0:0:0:0:
484,216,85083,2,0,P|476:176|352:144,1,165,4|8,0:0|0:0,0:0:0:0:
280,76,85911,2,0,L|288:12,2,55,8|0|8,0:0|0:0|0:0,0:0:0:0:
196,148,86574,5,4,0:0:0:0:
196,148,86740,1,8,0:0:0:0:
92,180,87072,1,8,0:0:0:0:
92,180,87238,1,8,0:0:0:0:
60,284,87569,1,8,0:0:0:0:
60,284,87735,1,8,0:0:0:0:
128,368,88066,5,8,0:0:0:0:
128,368,88232,1,8,0:0:0:0:
128,368,88398,1,0,0:0:0:0:
128,368,88563,2,0,P|168:360|244:352,1,110,8|8,0:0|0:0,0:0:0:0:
348,360,89226,6,0,P|360:304|380:236,1,110,4|8,0:0|0:0,0:0:0:0:
484,264,89889,2,0,P|472:208|452:140,1,110,8|8,0:0|0:0,0:0:0:0:
424,52,90552,1,8,0:0:0:0:
316,28,90884,1,8,0:0:0:0:
288,136,91215,1,8,0:0:0:0:
180,112,91547,1,8,0:0:0:0:
152,220,91878,5,8,0:0:0:0:
44,196,92210,2,0,P|20:236|36:312,2,110,8|8|8,0:0|0:0|0:0,0:0:0:0:
152,220,93204,2,0,L|276:208,1,110,8|8,0:0|0:0,0:0:0:0:
260,320,93867,2,0,L|384:308,1,110,8|8,0:0|0:0,0:0:0:0:
460,244,94530,5,4,0:0:0:0:
460,132,94862,2,0,P|468:76|480:16,1,110,8|8,0:0|0:0,0:0:0:0:
372,44,95525,2,0,P|364:100|352:160,1,110,8|8,0:0|0:0,0:0:0:0:
328,260,96188,2,0,P|384:252|444:240,2,110,8|8|8,0:0|0:0|0:0,0:0:0:0:
268,352,97182,6,0,L|212:344,1,55,0|0,0:0|0:0,0:0:0:0:
164,364,97514,1,8,0:0:0:0:
80,292,97845,2,0,P|68:248|72:220,1,55,0|0,0:0|0:0,0:0:0:0:
80,184,98177,1,8,0:0:0:0:
132,88,98508,2,0,P|147:110|168:127,1,55,0|0,0:0|0:0,0:0:0:0:
220,148,98840,1,8,0:0:0:0:
312,204,99171,2,0,P|324:179|328:152,1,55,0|0,0:0|0:0,0:0:0:0:
324,96,99503,1,8,0:0:0:0:
420,44,99834,5,4,0:0:0:0:
256,192,100000,12,0,102486,0:0:0:0:
244,40,110442,5,4,0:0:0:0:
244,40,110939,2,0,P|196:32|100:108,1,165,0|0,0:0|0:0,0:0:0:0:
148,196,111768,2,0,P|196:204|292:128,2,165,0|0|8,0:0|0:0|0:0,0:0:0:0:
40,220,113094,6,0,B|52:324|52:324|112:372,2,165,0|0|0,0:0|0:0|0:0,0:0:0:0:
76,116,114420,2,0,P|152:136|220:72,1,165,0|0,0:0|0:0,0:0:0:0:
372,32,115414,1,8,0:0:0:0:
372,32,115746,6,0,B|376:88|352:136|352:136|432:120,2,165,4|0|0,0:0|0:0|0:0,0:0:0:0:
268,64,117072,2,0,P|220:84|152:8,2,165,0|0|8,0:0|0:0|0:0,0:0:0:0:
332,156,118398,2,0,P|280:176|256:288,1,165,0|0,0:0|0:0,0:0:0:0:
332,348,119226,2,0,L|404:336,1,55,0|0,0:0|0:0,0:0:0:0:
440,356,119558,1,12,0:0:0:0:
124,48,120884,6,0,P|72:80|60:144,1,110,4|0,0:0|0:0,0:0:0:0:
40,176,121381,2,0,L|160:156,1,110,8|2,0:0|0:0,0:0:0:0:
240,220,122044,1,8,0:0:0:0:
240,220,122210,2,0,P|224:268|208:352,1,110,2|0,0:0|0:0,0:0:0:0:
240,376,122707,1,8,0:0:0:0:
340,328,123038,1,2,0:0:0:0:
448,352,123370,1,8,0:0:0:0:
476,244,123701,6,0,P|444:216|360:220,1,110,6|8,0:0|0:0,0:0:0:0:
324,228,124199,2,0,L|312:104,1,110,0|0,0:0|0:0,0:0:0:0:
308,64,124696,1,8,0:0:0:0:
308,64,124862,2,0,B|248:60|248:60|224:76|224:76|140:64,1,165,2|8,0:0|0:0,0:0:0:0:
44,36,125690,1,2,0:0:0:0:
72,144,126022,1,8,0:0:0:0:
24,244,126353,6,0,P|12:300|40:360,1,110,4|8,0:0|0:0,0:0:0:0:
76,380,126851,2,0,L|188:360,1,110,2|0,0:0|0:0,0:0:0:0:
240,348,127348,1,8,0:0:0:0:
348,368,127679,1,0,0:0:0:0:
456,348,128011,1,12,0:0:0:0:
384,264,128342,1,8,0:0:0:0:
384,264,128508,2,0,L|396:196,1,55,8|8,0:0|0:0,0:0:0:0:
384,156,128840,6,0,P|372:120|464:120,1,165,4|8,0:0|0:0,0:0:0:0:
508,208,129668,2,0,L|488:316,1,110,8|8,0:0|0:0,0:0:0:0:
448,352,130166,1,4,0:0:0:0:
344,320,130497,1,0,0:0:0:0:
244,364,130829,1,4,0:0:0:0:
136,336,131160,1,0,0:0:0:0:
136,336,131326,1,8,0:0:0:0:
68,248,131657,5,8,0:0:0:0:
68,248,131823,2,0,L|56:184,1,55,8|8,0:0|0:0,0:0:0:0:
112,96,132320,2,0,L|124:32,2,55,0|2|8,0:0|0:0|0:0,0:0:0:0:
144,140,132818,2,0,P|184:144|256:120,1,110,4|0,0:0|0:0,0:0:0:0:
288,84,133315,1,8,0:0:0:0:
364,164,133646,1,8,0:0:0:0:
408,64,133978,1,8,0:0:0:0:
480,148,134309,5,8,0:0:0:0:
480,148,134475,2,0,L|488:212,1,55,8|8,0:0|0:0,0:0:0:0:
400,272,134972,2,0,L|408:336,2,55,0|0|8,0:0|0:0|0:0,0:0:0:0:
356,240,135469,2,0,P|316:232|252:272,1,110,4|0,0:0|0:0,0:0:0:0:
236,316,135967,1,8,0:0:0:0:
128,336,136298,1,8,0:0:0:0:
180,240,136630,1,8,0:0:0:0:
72,260,136961,5,2,0:0:0:0:
196,27,138950,5,8,0:0:0:0:
305,11,139282,1,8,0:0:0:0:
396,71,139613,2,0,P|416:135|348:279,1,220,4|0,0:0|0:0,0:0:0:0:
264,328,140608,1,8,0:0:0:0:
160,364,140939,2,0,P|144:324|156:248,1,110,0|8,0:0|0:0,0:0:0:0:
180,212,141436,1,8,0:0:0:0:
180,212,141602,2,0,L|60:232,1,110,0|8,0:0|0:0,0:0:0:0:
8,140,142265,5,4,0:0:0:0:
64,44,142597,1,8,0:0:0:0:
152,112,142928,1,8,0:0:0:0:
248,56,143260,1,8,0:0:0:0:
336,124,143591,1,0,0:0:0:0:
444,116,143922,2,0,P|464:68|456:4,2,110,12|0|8,0:0|0:0|0:0,0:0:0:0:
396,216,144917,6,0,L|404:284,1,55,0|0,0:0|0:0,0:0:0:0:
428,320,145248,1,12,0:0:0:0:
332,372,145580,2,0,L|260:352,1,55,0|0,0:0|0:0,0:0:0:0:
224,364,145911,1,12,0:0:0:0:
152,280,146243,6,0,P|188:256|256:256,1,110,8|8,0:0|0:0,0:0:0:0:
304,276,146740,2,0,L|316:144,1,110,4|8,0:0|0:0,0:0:0:0:
320,112,147237,1,8,0:0:0:0:
320,112,147403,1,8,0:0:0:0:
172,40,147900,6,0,L|112:56,1,55,0|8,0:0|0:0,0:0:0:0:
72,152,148398,2,0,L|125:137,2,55,0|0|0,0:0|0:0|0:0,0:0:0:0:
32,192,148895,6,0,P|16:236|20:304,1,110,4|8,0:0|0:0,0:0:0:0:
32,352,149392,2,0,B|120:372|112:304|200:320,1,165,0|8,0:0|0:0,0:0:0:0:
284,372,150221,2,0,P|300:324|292:252,1,110,2|8,0:0|0:0,0:0:0:0:
404,296,150884,2,0,P|402:245|370:180,1,110,2|8,0:0|0:0,0:0:0:0:
320,100,151547,6,0,L|440:60,2,110,4|8|2,0:0|0:0|0:0,0:0:0:0:
212,128,152541,1,8,0:0:0:0:
124,64,152873,1,2,0:0:0:0:
124,64,153038,2,0,P|104:96|100:132,1,55,0|8,0:0|0:0,0:0:0:0:
60,152,153370,2,0,P|76:192|84:280,1,110,0|0,0:0|0:0,0:0:0:0:
72,312,153867,1,8,0:0:0:0:
164,376,154199,6,0,P|196:352|268:324,1,110,4|8,0:0|0:0,0:0:0:0:
368,308,154862,1,2,0:0:0:0:
464,364,155193,1,8,0:0:0:0:
488,256,155525,2,0,L|476:140,1,110,2|8,0:0|0:0,0:0:0:0:
372,112,156188,2,0,L|383:221,1,110,2|8,0:0|0:0,0:0:0:0:
276,192,156851,6,0,P|228:216|164:200,1,110,4|8,0:0|0:0,0:0:0:0:
128,176,157348,1,4,0:0:0:0:
84,76,157679,2,0,P|120:56|148:52,1,55,0|8,0:0|0:0,0:0:0:0:
184,32,158011,2,0,P|224:44|300:56,1,110,4|0,0:0|0:0,0:0:0:0:
348,52,158508,2,0,P|368:48|408:44,1,55,8|10,0:0|0:0,0:0:0:0:
456,48,158840,1,8,0:0:0:0:
432,156,159171,1,8,0:0:0:0:
412,264,159503,6,0,B|372:264|340:280|340:280|368:328|368:328|320:352|256:352,1,220,4|8,0:0|0:0,0:0:0:0:
172,364,160497,1,0,0:0:0:0:
172,364,160663,2,0,P|164:260|116:208,1,165,4|8,0:0|0:0,0:0:0:0:
40,152,161492,2,0,L|56:28,1,110,2|8,0:0|0:0,0:0:0:0:
160,80,162155,6,0,L|169:5,2,55,0|0|8,0:0|0:0|0:0,0:0:0:0:
268,56,162818,2,0,L|277:-18,2,55,0|0|8,0:0|0:0|0:0,0:0:0:0:
352,128,163480,2,0,L|342:202,2,55,0|0|8,0:0|0:0|0:0,0:0:0:0:
396,92,163978,2,0,P|436:100|464:216,1,165,4|8,0:0|0:0,0:0:0:0:
376,264,164806,6,0,P|356:316|364:376,1,110,4|8,0:0|0:0,0:0:0:0:
252,372,165469,2,0,L|128:360,1,110,2|8,0:0|0:0,0:0:0:0:
124,252,166132,2,0,L|14:262,2,110,0|8|2,0:0|0:0|0:0,0:0:0:0:
204,176,167127,1,8,0:0:0:0:
204,68,167458,6,0,P|168:72|108:128,1,110,8|8,0:0|0:0,0:0:0:0:
88,168,167956,2,0,P|96:216|108:300,1,110,8|0,0:0|0:0,0:0:0:0:
108,332,168453,1,8,0:0:0:0:
108,332,168619,2,0,B|184:304|192:368|280:328,1,165,4|8,0:0|0:0,0:0:0:0:
376,364,169447,2,0,L|436:368,2,55,8|8|0,0:0|0:0|0:0,0:0:0:0:
348,256,170110,5,12,0:0:0:0:
348,256,170276,1,8,0:0:0:0:
436,192,170608,1,8,0:0:0:0:
436,192,170774,1,8,0:0:0:0:
348,128,171105,1,8,0:0:0:0:
348,128,171271,1,8,0:0:0:0:
260,192,171602,5,8,0:0:0:0:
260,192,171768,1,0,0:0:0:0:
180,267,172099,2,0,P|151:191|181:116,1,165,0|4,0:0|0:0,0:0:0:0:
72,144,183204,6,0,P|64:112|164:48,1,165,4|8,0:0|0:0,0:0:0:0:
252,100,184033,2,0,P|296:108|368:84,1,110,0|8,0:0|0:0,0:0:0:0:
400,56,184530,2,0,L|384:172,1,110,4|0,0:0|0:0,0:0:0:0:
380,220,185027,1,8,0:0:0:0:
424,320,185359,2,0,L|484:308,2,55,0|0|8,0:0|0:0|0:0,0:0:0:0:
384,360,185856,6,0,B|295:380|320:328|207:345,1,165,4|8,0:0|0:0,0:0:0:0:
116,368,186685,2,0,L|0:376,1,110,0|8,0:0|0:0,0:0:0:0:
0,320,187182,2,0,P|36:288|104:276,1,110,4|0,0:0|0:0,0:0:0:0:
148,288,187679,1,8,0:0:0:0:
148,288,187845,2,0,P|164:244|152:168,1,110,4|0,0:0|0:0,0:0:0:0:
128,136,188342,1,8,0:0:0:0:
204,56,188674,6,0,L|212:0,2,55,4|0|8,0:0|0:0|0:0,0:0:0:0:
292,124,189337,2,0,L|299:178,2,55,8|0|8,0:0|0:0|0:0,0:0:0:0:
396,84,190000,2,0,L|404:28,2,55,4|0|8,0:0|0:0|0:0,0:0:0:0:
484,152,190663,2,0,L|491:206,2,55,8|0|8,0:0|0:0|0:0,0:0:0:0:
408,232,191326,6,0,L|280:240,1,110,8|8,0:0|0:0,0:0:0:0:
276,288,191823,2,0,L|166:281,1,110,8|0,0:0|0:0,0:0:0:0:
112,276,192320,1,8,0:0:0:0:
112,276,192486,1,4,0:0:0:0:
256,192,192652,12,2,195304,0:0:0:0:
256,192,203259,12,0,205911,0:0:0:0:
100,120,207237,6,0,B|88:88|88:88|88:48|156:28,1,110,4|8,0:0|0:0,0:0:0:0:
204,120,207900,2,0,B|216:152|216:152|216:192|148:212,1,110,2|8,0:0|0:0,0:0:0:0:
64,244,208563,2,0,L|76:368,1,110,2|8,0:0|0:0,0:0:0:0:
184,348,209226,1,2,0:0:0:0:
296,344,209558,1,8,0:0:0:0:
404,336,209889,5,4,0:0:0:0:
468,248,210221,2,0,P|480:196|456:144,1,110,8|2,0:0|0:0,0:0:0:0:
364,92,210884,1,8,0:0:0:0:
284,168,211215,2,0,P|272:220|296:272,1,110,2|8,0:0|0:0,0:0:0:0:
324,316,211713,2,0,P|288:336|152:332,1,165,2|8,0:0|0:0,0:0:0:0:
76,276,212541,5,4,0:0:0:0:
40,172,212873,1,8,0:0:0:0:
148,176,213204,1,2,0:0:0:0:
176,68,213536,1,8,0:0:0:0:
272,120,213867,2,0,L|384:104,2,110,2|8|2,0:0|0:0|0:0,0:0:0:0:
220,216,214862,1,8,0:0:0:0:
124,160,215193,6,0,P|108:204|132:284,1,110,4|8,0:0|0:0,0:0:0:0:
148,312,215690,1,4,0:0:0:0:
252,352,216022,2,0,L|316:340,1,55,0|8,0:0|0:0,0:0:0:0:
360,360,216353,2,0,B|416:340|416:340|444:352|444:352|464:256,1,165,4|8,0:0|0:0,0:0:0:0:
464,224,217016,1,0,0:0:0:0:
464,224,217182,1,8,0:0:0:0:
460,112,217514,1,8,0:0:0:0:
364,60,217845,6,0,P|316:36|200:140,1,220,12|8,0:0|0:0,0:0:0:0:
88,120,218840,1,2,0:0:0:0:
88,120,219005,2,0,P|108:192|124:296,1,165,4|8,0:0|0:0,0:0:0:0:
212,348,219834,2,0,P|260:340|340:332,1,110,2|8,0:0|0:0,0:0:0:0:
432,344,220497,6,0,B|448:312|448:312|440:288,1,55,0|0,0:0|0:0,0:0:0:0:
412,248,220829,1,12,0:0:0:0:
340,168,221160,2,0,B|324:136|324:136|332:112,1,55,0|0,0:0|0:0,0:0:0:0:
360,72,221492,1,12,0:0:0:0:
468,100,221823,2,0,B|484:132|484:132|476:156,1,55,4|0,0:0|0:0,0:0:0:0:
468,204,222155,1,8,0:0:0:0:
468,204,222320,2,0,L|344:196,1,110,4|0,0:0|0:0,0:0:0:0:
304,192,222818,1,8,0:0:0:0:
220,120,223149,6,0,P|208:76|216:-4,2,110,4|8|2,0:0|0:0|0:0,0:0:0:0:
192,228,224143,1,8,0:0:0:0:
92,272,224475,2,0,P|72:313|66:393,2,110,0|8|2,0:0|0:0|0:0,0:0:0:0:
192,228,225469,1,8,0:0:0:0:
260,312,225801,6,0,P|304:328|376:320,1,110,12|8,0:0|0:0,0:0:0:0:
396,276,226298,2,0,P|408:224|456:168,1,110,8|0,0:0|0:0,0:0:0:0:
480,140,226795,1,8,0:0:0:0:
480,140,226961,2,0,P|436:152|312:112,1,165,4|8,0:0|0:0,0:0:0:0:
240,52,227790,2,0,L|128:32,1,110,8|8,0:0|0:0,0:0:0:0:
32,80,228453,5,12,0:0:0:0:
32,80,228619,1,8,0:0:0:0:
68,184,228950,1,8,0:0:0:0:
68,184,229116,1,8,0:0:0:0:
60,292,229447,1,8,0:0:0:0:
60,292,229613,1,8,0:0:0:0:
144,360,229945,5,12,0:0:0:0:
144,360,230110,1,0,0:0:0:0:
144,360,230276,1,0,0:0:0:0:
144,360,230442,2,0,P|204:352|272:348,1,110,12|12,0:0|0:0,0:0:0:0:
360,368,231105,6,0,P|380:328|376:252,1,110,12|8,0:0|0:0,0:0:0:0:
488,276,231768,2,0,P|485:231|443:167,1,110,8|8,0:0|0:0,0:0:0:0:
380,92,232431,1,8,0:0:0:0:
280,140,232762,1,8,0:0:0:0:
172,156,233094,1,8,0:0:0:0:
64,148,233425,1,8,0:0:0:0:
40,40,233757,6,0,B|84:24|84:24|152:48,1,110,8|8,0:0|0:0,0:0:0:0:
172,156,234420,2,0,B|216:172|216:172|284:148,1,110,8|8,0:0|0:0,0:0:0:0:
384,144,235083,2,0,L|396:32,2,110,8|8|8,0:0|0:0|0:0,0:0:0:0:
372,252,236077,1,8,0:0:0:0:
476,216,236409,6,0,L|464:328,1,110,8|8,0:0|0:0,0:0:0:0:
360,361,237072,2,0,L|371:251,1,110,8|8,0:0|0:0,0:0:0:0:
292,176,237735,1,8,0:0:0:0:
184,192,238066,1,8,0:0:0:0:
252,276,238398,1,8,0:0:0:0:
144,292,238729,1,8,0:0:0:0:
68,212,239061,6,0,P|48:160|56:96,1,110,8|8,0:0|0:0,0:0:0:0:
76,56,239558,2,0,P|116:72|200:56,1,110,0|8,0:0|0:0,0:0:0:0:
232,44,240055,1,8,0:0:0:0:
232,44,240221,2,0,L|412:64,1,165,4|8,0:0|0:0,0:0:0:0:
468,144,241050,2,0,L|448:196,1,55,0|0,0:0|0:0,0:0:0:0:
400,220,241381,2,0,L|416:292,1,55,8|0,0:0|0:0,0:0:0:0:
52,256,242873,6,0,P|40:204|108:112,1,165,4|8,0:0|0:0,0:0:0:0:
148,212,243701,2,0,L|160:336,1,110,8|8,0:0|0:0,0:0:0:0:
256,368,244364,6,0,L|245:258,1,110,8|8,0:0|0:0,0:0:0:0:
332,192,245027,2,0,L|344:316,1,110,8|8,0:0|0:0,0:0:0:0:
440,348,245690,2,0,L|429:238,1,110,8|8,0:0|0:0,0:0:0:0:
468,136,246353,1,8,0:0:0:0:
416,40,246685,1,8,0:0:0:0:
312,72,247016,6,0,B|252:96|252:96|188:80,1,110,8|8,0:0|0:0,0:0:0:0:
144,172,247679,2,0,B|99:160|99:160|39:184,1,110,8|8,0:0|0:0,0:0:0:0:
64,292,248342,1,8,0:0:0:0:
160,348,248674,1,8,0:0:0:0:
240,276,249005,1,8,0:0:0:0:
336,332,249337,1,8,0:0:0:0:
408,252,249668,6,0,L|464:228,1,55,0|0,0:0|0:0,0:0:0:0:
480,180,250000,1,8,0:0:0:0:
396,112,250331,2,0,L|340:136,1,55,0|0,0:0|0:0,0:0:0:0:
324,184,250663,1,8,0:0:0:0:
216,180,250994,2,0,P|200:144|200:104,1,55,0|0,0:0|0:0,0:0:0:0:
196,72,251326,1,8,0:0:0:0:
108,8,251657,2,0,P|85:40|79:80,1,55,0|0,0:0|0:0,0:0:0:0:
69,110,251989,1,8,0:0:0:0:
104,212,252320,5,4,0:0:0:0:
256,192,252486,12,8,253978,0:0:0:0:
456,84,254806,6,0,P|432:108|304:108,1,165,4|8,0:0|0:0,0:0:0:0:
204,80,255635,2,0,L|72:92,1,110,0|8,0:0|0:0,0:0:0:0:
52,124,256132,2,0,P|32:168|48:252,1,110,0|0,0:0|0:0,0:0:0:0:
72,272,256630,1,8,0:0:0:0:
72,272,256795,2,0,P|127:221|227:233,1,165,0|8,0:0|0:0,0:0:0:0:
284,308,257624,6,0,L|272:372,2,55,0|0|8,0:0|0:0|0:0,0:0:0:0:
332,280,258121,2,0,P|364:264|444:272,1,110,0|0,0:0|0:0,0:0:0:0:
480,300,258619,1,8,0:0:0:0:
480,300,258784,2,0,P|500:264|496:144,1,165,0|8,0:0|0:0,0:0:0:0:
416,68,259613,2,0,L|300:84,1,110,0|8,0:0|0:0,0:0:0:0:
252,92,260110,1,0,0:0:0:0:
252,92,260276,5,4,0:0:0:0:
148,52,260608,1,8,0:0:0:0:
80,136,260939,2,0,L|12:140,2,55,0|0|8,0:0|0:0|0:0,0:0:0:0:
128,164,261436,2,0,P|144:220|132:288,1,110,0|0,0:0|0:0,0:0:0:0:
116,324,261934,1,8,0:0:0:0:
220,360,262265,1,0,0:0:0:0:
252,256,262597,1,8,0:0:0:0:
260,148,262928,6,0,L|244:24,2,110,4|8|0,0:0|0:0|0:0,0:0:0:0:
348,212,263922,1,8,0:0:0:0:
456,192,264254,2,0,P|472:152|468:76,2,110,0|8|8,0:0|0:0|0:0,0:0:0:0:
408,224,265083,2,0,L|420:288,1,55,0|0,0:0|0:0,0:0:0:0:
348,360,265580,6,0,L|224:348,1,110,4|8,0:0|0:0,0:0:0:0:
128,336,266243,2,0,L|4:324,1,110,8|8,0:0|0:0,0:0:0:0:
36,216,266906,1,8,0:0:0:0:
56,108,267237,1,8,0:0:0:0:
136,32,267569,5,8,0:0:0:0:
164,80,267735,1,8,0:0:0:0:
220,88,267900,1,8,0:0:0:0:
264,52,268066,1,8,0:0:0:0:
