osu file format v14

[General]
AudioFilename: audio.mp3
AudioLeadIn: 0
PreviewTime: 64447
Countdown: 0
SampleSet: Soft
StackLeniency: 0.7
Mode: 0
LetterboxInBreaks: 0
WidescreenStoryboard: 1

[Editor]
DistanceSpacing: 1
BeatDivisor: 4
GridSize: 4
TimelineZoom: 1.4

[Metadata]
Title:Wagamama MIRROR HEART
TitleUnicode:ワガママMIRROR HEART
Artist:Ayaka Ohashi
ArtistUnicode:大橋彩香
Creator:Rizia
Version:Kibb's Hard
Source:政宗くんのリベンジ
Tags:kawaiwkyik Doormat Kibberu sahuang My Angel Azusa Flask kisses anime opening op Masamune kun no Ribenji Revenge
BeatmapID:1214658
BeatmapSetID:554618

[Difficulty]
HPDrainRate:6
CircleSize:4
OverallDifficulty:6
ApproachRate:8
SliderMultiplier:1.6
SliderTickRate:1

[Events]
//Background and Video events
0,0,"BG.jpg",0,0
//Break Periods
2,195504,205161
//Storyboard Layer 0 (Background)
//Storyboard Layer 1 (Fail)
//Storyboard Layer 2 (Pass)
//Storyboard Layer 3 (Foreground)
//Storyboard Sound Samples

[TimingPoints]
3039,331.491712707182,4,2,1,20,1,0
3039,-133.333333333333,4,2,1,20,0,0
3536,-133.333333333333,4,2,1,50,0,0
8840,-200,4,2,1,50,0,0
10663,-133.333333333333,4,2,1,50,0,0
20110,-111.111111111111,4,2,1,60,0,0
21602,-133.333333333333,4,2,1,60,0,0
26906,-111.111111111111,4,2,1,60,0,0
32210,-133.333333333333,4,2,1,60,0,0
42652,-111.111111111111,4,2,1,60,0,0
51934,-100,4,2,1,60,0,0
58729,-200,4,2,1,60,0,0
60718,-100,4,2,1,60,0,0
64033,-133.333333333333,4,2,1,60,0,0
65359,-100,4,2,1,70,0,1
78619,-133.333333333333,4,2,1,70,0,0
78950,-100,4,2,1,70,0,1
79282,-133.333333333333,4,2,1,70,0,0
79613,-100,4,2,1,70,0,1
86574,-111.111111111111,4,2,1,70,0,0
87900,-100,4,2,1,70,0,0
89226,-100,4,2,1,70,0,1
97182,-133.333333333333,4,2,1,70,0,0
97514,-100,4,2,1,70,0,1
97845,-133.333333333333,4,2,1,70,0,0
98177,-100,4,2,1,70,0,1
98508,-133.333333333333,4,2,1,70,0,0
98840,-100,4,2,1,70,0,1
99171,-133.333333333333,4,2,1,70,0,0
99503,-100,4,2,1,70,0,1
99834,-133.333333333333,4,2,1,60,0,0
105138,-100,4,2,1,60,0,0
110442,-200,4,2,1,60,0,0
120387,-100,4,2,1,60,0,0
120884,-111.111111111111,4,2,1,60,0,0
136961,-200,4,2,1,60,0,0
138950,-100,4,2,1,60,0,0
144917,-133.333333333333,4,2,1,60,0,0
145248,-100,4,2,1,60,0,0
145580,-133.333333333333,4,2,1,65,0,0
145911,-100,4,2,1,65,0,0
146243,-100,4,2,1,70,0,0
147900,-100,4,2,1,60,0,0
148895,-100,4,2,1,70,0,1
162155,-133.333333333333,4,2,1,70,0,0
162486,-100,4,2,1,70,0,1
162818,-133.333333333333,4,2,1,70,0,0
163149,-100,4,2,1,70,0,1
170110,-111.111111111111,4,2,1,70,0,0
172099,-76.9230769230769,4,2,1,60,0,0
172597,-100,4,2,1,60,0,0
207237,-100,4,2,1,70,0,1
220497,-133.333333333333,4,2,1,70,0,0
220829,-100,4,2,1,70,0,1
221160,-133.333333333333,4,2,1,70,0,0
221492,-100,4,2,1,70,0,1
221823,-100,4,2,1,70,0,1
228453,-100,4,2,1,70,0,0
231105,-100,4,2,1,70,0,1
241547,-100,4,2,1,70,0,0
242873,-100,4,2,1,70,0,1
249668,-133.333333333333,4,2,1,70,0,0
250000,-100,4,2,1,70,0,1
250331,-133.333333333333,4,2,1,70,0,0
250663,-100,4,2,1,70,0,1
250994,-133.333333333333,4,2,1,70,0,0
251326,-100,4,2,1,70,0,1
251657,-133.333333333333,4,2,1,70,0,0
251989,-100,4,2,1,70,0,1
252320,-133.333333333333,4,2,1,60,0,0
254806,-111.111111111111,4,2,1,60,0,0
265580,-133.333333333333,4,2,1,60,0,0

[Colours]
Combo1 : 0,64,128
Combo2 : 0,128,255
Combo3 : 237,184,97
Combo4 : 255,128,64

[HitObjects]
256,192,387,12,0,3039,0:0:0:0:
112,68,3536,6,0,P|85:120|88:179,1,120.000004577637,2|0,0:0|0:0,0:0:0:0:
151,234,4033,2,0,P|180:224|209:219,1,60.0000022888184,2|0,0:0|0:0,0:0:0:0:
290,242,4364,6,0,P|369:260|417:245,1,120.000004577637,2|0,0:0|0:0,0:0:0:0:
471,198,4862,2,0,P|475:150|429:73,1,120.000004577637,2|2,0:0|0:0,0:0:0:0:
252,57,5525,1,2,0:0:0:0:
338,39,5690,6,0,L|329:98,1,60.0000022888184,2|0,0:0|0:0,0:0:0:0:
262,150,6022,2,0,P|233:142|203:135,1,60.0000022888184,2|0,0:0|0:0,0:0:0:0:
167,210,6353,2,0,P|225:224|283:238,1,120.000004577637,2|2,0:0|0:0,0:0:0:0:
348,293,6851,1,0,0:0:0:0:
418,248,7016,6,0,P|414:218|411:188,1,60.0000022888184,2|0,0:0|0:0,0:0:0:0:
324,105,7348,2,0,P|327:134|330:164,1,60.0000022888184,2|0,0:0|0:0,0:0:0:0:
283,238,7679,2,0,P|246:266|160:258,1,120.000004577637,2|2,0:0|0:0,0:0:0:0:
37,161,8342,5,2,0:0:0:0:
107,207,8508,2,0,P|116:178|119:148,1,60.0000022888184,2|0,0:0|0:0,0:0:0:0:
83,65,8840,6,0,B|171:48|188:101|279:80,1,200,2|0,0:0|0:0,0:0:0:0:
279,79,10663,2,0,L|275:108,3,30.0000011444092
280,132,10994,6,0,L|292:206,1,60.0000022888184,4|0,0:1|0:0,0:0:0:0:
306,274,11326,2,0,L|242:264,1,60.0000022888184,2|0,0:0|0:0,0:0:0:0:
182,210,11657,1,2,0:0:0:0:
102,238,11823,2,0,P|73:243|45:253,1,60.0000022888184,2|0,0:0|0:0,0:0:0:0:
27,170,12155,6,0,L|45:37,1,120.000004577637,2|0,0:0|0:0,0:0:0:0:
122,22,12652,1,2,0:0:0:0:
177,85,12818,2,0,P|250:79|310:39,1,120.000004577637,2|0,0:0|0:0,0:0:0:0:
369,29,13315,2,0,P|403:24|451:30,1,60.0000022888184,2|0,0:0|0:0,0:0:0:0:
486,85,13646,6,0,P|498:142|466:222,1,120.000004577637,2|2,0:0|0:0,0:0:0:0:
410,245,14143,2,0,L|402:304,1,60.0000022888184,2|0,0:0|0:0,0:0:0:0:
287,195,14475,2,0,L|345:182,1,60.0000022888184,2|0,0:0|0:0,0:0:0:0:
355,98,14806,6,0,L|238:125,1,120.000004577637,2|0,0:0|0:0,0:0:0:0:
165,81,15304,1,2,0:0:0:0:
81,74,15469,1,0,0:0:0:0:
12,122,15635,2,0,P|0:154|-1:191,1,60.0000022888184,2|0,0:0|0:0,0:0:0:0:
3,262,15967,2,0,P|8:292|24:323,1,60.0000022888184,4|0,0:0|0:0,0:0:0:0:
203,295,16298,6,0,P|154:262|95:261,1,120.000004577637,4|0,0:1|0:0,0:0:0:0:
101,177,16795,2,0,L|116:107,1,60.0000022888184,2|0,0:0|0:0,0:0:0:0:
182,69,17127,1,2,0:0:0:0:
182,69,17458,6,0,L|316:89,1,120.000004577637,2|2,0:0|0:0,0:0:0:0:
376,48,17956,2,0,L|385:107,1,60.0000022888184,2|2,0:0|0:0,0:0:0:0:
369,189,18287,2,0,L|378:248,1,60.0000022888184,2|2,0:0|0:0,0:0:0:0:
336,321,18619,1,2,0:0:0:0:
336,321,18784,1,6,0:0:0:0:
264,375,18950,6,0,L|248:256,1,120.000004577637,4|0,0:1|0:0,0:0:0:0:
197,188,19447,2,0,P|133:188|79:166,1,120.000004577637,2|2,0:0|0:0,0:0:0:0:
46,91,19945,1,8,0:0:0:0:
102,27,20110,6,0,P|146:21|238:70,1,143.999995605469,4|0,0:0|0:0,0:0:0:0:
310,102,20608,2,0,L|380:89,1,71.9999978027344,8|0,0:0|0:0,0:0:0:0:
238,149,20939,2,0,L|227:256,2,107.999996704102,4|8|8,0:3|0:3|0:3,0:0:0:0:
154,162,21602,6,0,L|147:221,1,60.0000022888184,4|0,0:0|0:0,0:0:0:0:
111,298,21934,2,0,P|168:315|222:340,1,120.000004577637,2|0,0:0|0:0,0:0:0:0:
306,344,22431,2,0,P|345:342|376:332,1,60.0000022888184,2|0,0:0|0:0,0:0:0:0:
427,279,22762,6,0,P|447:224|432:167,1,120.000004577637,2|2,0:0|0:0,0:0:0:0:
371,109,23259,1,2,0:0:0:0:
371,109,23425,2,0,L|226:95,1,120.000004577637,0|0,0:0|0:0,0:0:0:0:
167,91,23922,2,0,L|169:120,3,30.0000011444092,2|2|2|2,0:0|0:0|0:0|0:0,0:0:0:0:
177,143,24254,6,0,P|180:183|137:279,1,120.000004577637,4|0,0:3|0:0,0:0:0:0:
216,314,24751,1,2,0:0:0:0:
216,314,24834,1,2,0:0:0:0:
216,314,24917,2,0,P|243:299|271:292,1,60.0000022888184,0|0,0:0|0:0,0:0:0:0:
351,318,25248,1,0,0:0:0:0:
426,281,25414,6,0,L|407:136,1,120.000004577637,2|0,0:0|0:0,0:0:0:0:
350,51,25911,2,0,L|342:111,1,60.0000022888184,2|0,0:0|0:0,0:0:0:0:
251,147,26243,2,0,L|260:88,1,60.0000022888184,2|0,0:0|0:0,0:0:0:0:
199,29,26574,2,0,L|91:40,1,90.0000034332277,8|0,0:0|0:0,0:0:0:0:
87,42,26906,5,4,0:0:0:0:
121,121,27072,1,0,0:0:0:0:
69,189,27237,1,8,0:0:0:0:
126,252,27403,2,0,P|189:221|261:223,1,143.999995605469,0|0,0:0|0:0,0:0:0:0:
328,277,27900,1,8,0:0:0:0:
399,228,28066,6,0,P|429:181|410:78,1,143.999995605469,0|0,0:0|0:0,0:0:0:0:
347,51,28563,1,8,0:0:0:0:
265,83,28729,2,0,P|230:80|195:71,1,71.9999978027344,0|0,0:0|0:0,0:0:0:0:
143,140,29061,1,0,0:0:0:0:
143,140,29226,2,0,P|158:172|169:211,1,71.9999978027344,8|0,0:0|0:0,0:0:0:0:
232,265,29558,5,4,0:0:0:0:
216,350,29724,1,0,0:0:0:0:
232,265,29889,1,8,0:0:0:0:
144,292,30055,2,0,L|73:284,1,71.9999978027344,0|0,0:0|0:0,0:0:0:0:
71,131,30387,2,0,L|142:139,1,71.9999978027344,0|8,0:0|0:0,0:0:0:0:
218,180,30718,6,0,P|289:178|349:140,1,143.999995605469,4|8,0:0|0:0,0:0:0:0:
287,11,31215,2,0,L|273:96,1,71.9999978027344,8|0,0:0|0:0,0:0:0:0:
275,82,32210,6,0,L|155:69,2,120.000004577637,4|0|0,0:0|0:0|0:0,0:0:0:0:
346,126,33038,1,0,0:0:0:0:
420,86,33204,2,0,L|428:13,1,60.0000022888184,0|0,0:0|0:0,0:0:0:0:
346,126,33536,6,0,P|331:172|353:258,1,120.000004577637,0|0,0:0|0:0,0:0:0:0:
410,291,34033,1,0,0:0:0:0:
360,360,34199,2,0,P|310:373|234:368,1,120.000004577637,0|8,0:0|0:0,0:0:0:0:
189,304,34696,1,0,0:0:0:0:
118,258,34862,6,0,P|83:240|-4:241,1,120.000004577637,0|0,0:0|0:0,0:0:0:0:
20,156,35359,2,0,L|40:34,1,120.000004577637,0|0,0:0|0:0,0:0:0:0:
122,49,35856,1,0,0:0:0:0:
189,99,36022,6,0,P|242:97|305:61,1,120.000004577637,0|0,0:0|0:0,0:0:0:0:
376,98,36519,2,0,P|368:126|362:156,1,60.0000022888184,0|0,0:0|0:0,0:0:0:0:
347,239,36851,2,0,L|358:297,1,60.0000022888184,0|0,0:0|0:0,0:0:0:0:
279,183,37182,2,0,L|202:172,1,60.0000022888184,8|0,0:0|0:0,0:0:0:0:
139,204,37514,6,0,B|94:220|74:202|21:219,2,120.000004577637,4|0|0,0:0|0:0|0:0,0:0:0:0:
205,151,38342,1,0,0:0:0:0:
165,76,38508,2,0,L|176:9,1,60.0000022888184,0|0,0:0|0:0,0:0:0:0:
289,9,38840,6,0,P|307:64|283:118,1,120.000004577637,0|0,0:0|0:0,0:0:0:0:
205,151,39337,1,0,0:0:0:0:
265,209,39503,2,0,L|393:198,1,120.000004577637,0|8,0:0|0:0,0:0:0:0:
457,241,40000,1,0,0:0:0:0:
416,314,40166,6,0,L|296:324,1,120.000004577637,0|0,0:0|0:0,0:0:0:0:
216,299,40663,2,0,P|152:280|88:280,1,120.000004577637,0|0,0:0|0:0,0:0:0:0:
23,316,41160,2,0,P|2:272|0:245,1,60.0000022888184,8|0,0:0|0:0,0:0:0:0:
41,187,41492,6,0,P|68:128|62:67,1,120.000004577637,0|0,0:0|0:0,0:0:0:0:
137,32,41989,1,0,0:0:0:0:
213,66,42155,1,8,0:0:0:0:
213,66,42237,1,8,0:0:0:0:
213,66,42320,2,0,L|294:74,1,60.0000022888184,0|8,0:0|0:0,0:0:0:0:
309,158,42652,6,0,L|165:143,1,143.999995605469,4|0,0:0|0:0,0:0:0:0:
95,194,43149,2,0,P|110:226|114:262,1,71.9999978027344,8|0,0:0|0:0,0:0:0:0:
77,340,43480,1,0,0:0:0:0:
160,363,43646,2,0,P|195:370|231:369,1,71.9999978027344,0|8,0:0|0:0,0:0:0:0:
299,316,43978,6,0,P|344:286|434:294,1,143.999995605469,0|0,0:0|0:0,0:0:0:0:
501,242,44475,2,0,P|507:206|510:170,1,71.9999978027344,8|0,0:0|0:0,0:0:0:0:
411,50,44806,2,0,P|414:101|419:193,1,143.999995605469,0|8,0:0|0:0,0:0:0:0:
362,259,45304,1,0,0:0:0:0:
362,259,45469,6,0,P|292:268|229:237,1,143.999995605469,0|8,0:0|0:0,0:0:0:0:
171,171,45967,2,0,L|91:165,1,71.9999978027344,0|0,0:0|0:0,0:0:0:0:
39,228,46298,2,0,P|29:271|35:322,1,71.9999978027344,0|8,0:0|0:0,0:0:0:0:
91,358,46630,6,0,P|155:328|225:337,1,143.999995605469,0|0,0:0|0:0,0:0:0:0:
311,326,47127,2,0,L|395:318,1,71.9999978027344,8|0,0:0|0:0,0:0:0:0:
385,232,47458,2,0,L|313:238,1,71.9999978027344,0|0,0:0|0:0,0:0:0:0:
233,202,47790,2,0,L|100:186,1,107.999996704102,8|0,0:0|0:0,0:0:0:0:
95,193,48121,6,0,P|63:129|75:60,1,143.999995605469,4|8,0:0|0:0,0:0:0:0:
159,35,48619,2,0,B|221:22|242:57|301:43,1,143.999995605469,0|0,0:0|0:0,0:0:0:0:
377,83,49116,2,0,L|466:62,1,71.9999978027344,8|0,0:0|0:0,0:0:0:0:
304,130,49447,6,0,L|292:211,1,71.9999978027344,0|0,0:0|0:0,0:0:0:0:
346,270,49779,2,0,P|279:230|189:238,1,143.999995605469,12|8,0:0|0:0,0:0:0:0:
152,289,50276,2,0,L|157:338,2,35.9999989013672,8|8|0,0:0|0:0|0:0,0:0:0:0:
60,354,50608,6,0,L|75:210,1,143.999995605469,4|0,0:0|0:0,0:0:0:0:
40,132,51105,2,0,L|27:52,1,71.9999978027344,8|0,0:0|0:0,0:0:0:0:
114,52,51436,2,0,L|120:11,2,35.9999989013672,8|8|8,0:0|0:0|0:0,0:0:0:0:
170,118,51768,1,0,0:0:0:0:
238,62,51934,6,0,B|300:40|336:73|396:47,1,160,4|0,0:0|0:0,0:0:0:0:
463,103,52431,1,8,0:0:0:0:
385,144,52597,2,0,B|350:243|350:243|407:254,1,160,4|0,0:0|0:0,0:0:0:0:
404,342,53094,2,0,L|325:327,1,80,8|0,0:0|0:0,0:0:0:0:
253,278,53425,5,8,0:0:0:0:
136,307,53591,1,8,0:0:0:0:
253,278,53757,1,8,0:0:0:0:
194,211,53922,2,0,P|186:173|193:134,1,80,0|2,0:0|0:0,0:0:0:0:
269,87,54254,2,0,L|360:99,1,80,0|8,0:0|0:0,0:0:0:0:
193,134,54585,6,0,B|130:113|105:161|34:136,1,160,4|0,0:0|0:0,0:0:0:0:
27,224,55083,2,0,L|47:305,1,80,8|0,0:0|0:0,0:0:0:0:
120,356,55414,1,8,0:0:0:0:
120,356,55580,1,0,0:0:0:0:
190,302,55746,2,0,P|225:285|265:284,1,80,8|0,0:0|0:0,0:0:0:0:
344,322,56077,5,12,0:0:0:0:
458,284,56243,1,8,0:0:0:0:
344,322,56409,1,8,0:0:0:0:
369,238,56574,2,0,L|376:150,1,80,0|2,0:0|0:0,0:0:0:0:
330,80,56906,2,0,P|295:97|252:104,1,80,0|8,0:0|0:0,0:0:0:0:
174,67,57237,6,0,P|105:30|27:38,1,160,4|0,0:0|0:0,0:0:0:0:
14,126,57735,2,0,P|27:163|26:211,1,80,8|0,0:0|0:0,0:0:0:0:
62,284,58066,1,0,0:0:0:0:
147,304,58232,1,0,0:0:0:0:
219,251,58398,2,0,L|302:236,1,80,8|0,0:0|0:0,0:0:0:0:
302,144,58729,6,0,L|184:166,1,120,2|2,0:0|0:0,0:0:0:0:
242,333,59724,2,0,L|359:310,1,120,2|2,0:0|0:0,0:0:0:0:
455,192,60718,6,0,L|372:210,1,80,8|0,0:0|0:0,0:0:0:0:
298,167,61050,2,0,L|213:153,1,80,8|0,0:0|0:0,0:0:0:0:
135,183,61381,6,0,P|75:135|77:57,1,160,4|8,0:0|0:0,0:0:0:0:
18,208,61878,2,0,P|18:247|4:289,1,80,0|0,0:0|0:0,0:0:0:0:
70,345,62210,1,0,0:0:0:0:
158,341,62376,1,8,0:0:0:0:
222,281,62541,6,0,B|331:264|331:264|371:309,1,160,4|0,0:0|0:0,0:0:0:0:
427,240,63038,2,0,L|440:160,1,80,8|8,0:0|0:0,0:0:0:0:
365,63,63370,2,0,L|347:181,2,120,8|8|8,0:0|0:0|0:0,0:0:0:0:
282,33,64033,6,0,B|230:24|216:46|162:37,1,120.000004577637,8|0,0:0|0:0,0:0:0:0:
163,37,65027,5,8,0:0:0:0:
163,37,65359,6,0,P|206:101|194:179,1,160,4|8,0:0|0:0,0:0:0:0:
123,234,65856,2,0,L|100:314,1,80,0|2,0:0|0:0,0:0:0:0:
164,372,66188,1,0,0:0:0:0:
241,330,66353,2,0,P|280:322|319:320,1,80,8|0,0:0|0:0,0:0:0:0:
406,341,66685,6,0,P|449:293|445:197,1,160,2|8,0:0|0:0,0:0:0:0:
404,124,67182,1,0,0:0:0:0:
316,134,67348,2,0,L|231:125,1,80,2|0,0:0|0:0,0:0:0:0:
147,116,67679,2,0,P|108:122|69:128,1,80,8|0,0:0|0:0,0:0:0:0:
48,217,68011,6,0,B|118:236|139:192|206:214,1,160,4|8,0:0|0:0,0:0:0:0:
258,284,68508,1,0,0:0:0:0:
338,250,68674,2,0,B|394:257|394:257|386:153,1,160,2|8,0:0|0:0,0:0:0:0:
326,89,69171,1,0,0:0:0:0:
254,37,69337,6,0,L|169:30,1,80,2|0,0:0|0:0,0:0:0:0:
116,97,69668,1,8,0:0:0:0:
36,58,69834,2,0,L|24:15,2,40,0|0|2,0:0|0:0|0:0,0:0:0:0:
116,97,70166,1,0,0:0:0:0:
62,167,70331,2,0,P|44:221|46:284,1,120,12|0,0:0|0:0,0:0:0:0:
59,307,70663,6,0,P|107:291|167:300,1,80,4|0,0:0|0:0,0:0:0:0:
218,323,70994,2,0,L|326:341,1,80,8|0,0:0|0:0,0:0:0:0:
371,287,71326,1,2,0:0:0:0:
329,209,71492,2,0,L|250:195,1,80,0|8,0:0|0:0,0:0:0:0:
217,114,71823,6,0,B|282:92|311:129|375:106,1,160,0|0,0:0|0:0,0:0:0:0:
460,85,72320,2,0,L|447:163,1,80,8|0,0:0|0:0,0:0:0:0:
354,280,72652,2,0,L|367:202,1,80,2|0,0:0|0:0,0:0:0:0:
277,221,72983,2,0,P|237:229|198:234,1,80,8|0,0:0|0:0,0:0:0:0:
146,162,73315,6,0,P|87:110|9:111,1,160,4|8,0:0|0:0,0:0:0:0:
7,199,73812,2,0,P|19:237|23:276,1,80,4|0,0:0|0:0,0:0:0:0:
79,344,74143,1,0,0:0:0:0:
159,309,74309,1,8,0:0:0:0:
233,356,74475,6,0,B|334:376|334:376|343:306,1,160,4|8,0:0|0:0,0:0:0:0:
391,246,74972,1,8,0:0:0:0:
319,194,75138,1,8,0:0:0:0:
398,155,75304,2,0,L|477:147,1,80,8|0,0:0|0:0,0:0:0:0:
447,64,75635,2,0,L|367:71,1,80,8|0,0:0|0:0,0:0:0:0:
286,108,75967,5,4,0:0:0:0:
203,79,76132,2,0,L|123:67,2,80,8|8|8,0:0|0:0|0:0,0:0:0:0:
220,165,76630,1,8,0:0:0:0:
156,225,76795,2,0,P|152:244|149:264,3,40,2|2|2|2,0:0|0:0|0:0|0:0,0:0:0:0:
165,281,77127,6,0,P|219:247|317:263,1,160,4|0,0:0|0:0,0:0:0:0:
390,221,77624,2,0,P|408:185|415:146,1,80,8|0,0:0|0:0,0:0:0:0:
315,59,77956,2,0,L|326:138,1,80,2|0,0:0|0:0,0:0:0:0:
257,192,78287,2,0,L|155:179,1,80,8|0,0:0|0:0,0:0:0:0:
95,147,78619,6,0,L|90:206,1,60.0000022888184,0|0,0:0|0:0,0:0:0:0:
77,294,78950,2,0,P|135:280|195:278,1,120,12|0,0:0|0:0,0:0:0:0:
222,282,79282,6,0,L|283:294,1,60.0000022888184,0|0,0:0|0:0,0:0:0:0:
359,330,79613,2,0,P|393:260|393:191,1,120,12|0,0:0|0:0,0:0:0:0:
393,193,79945,6,0,L|381:95,1,80,0|8,0:0|0:0,0:0:0:0:
424,35,80276,1,0,0:0:0:0:
424,35,80442,2,0,P|356:76|277:66,1,160,4|0,0:0|0:0,0:0:0:0:
193,48,80939,2,0,P|155:35|115:30,1,80,8|0,0:0|0:0,0:0:0:0:
40,78,81271,5,4,0:0:0:0:
17,162,81436,2,0,P|32:200|61:235,1,80,2|8,0:0|0:0,0:0:0:0:
36,316,81768,2,0,P|95:266|173:272,1,160,2|0,0:0|0:0,0:0:0:0:
250,313,82265,2,0,L|328:326,1,80,8|0,0:0|0:0,0:0:0:0:
410,292,82597,5,0,0:0:0:0:
419,204,82762,2,0,L|394:116,1,80,2|8,0:0|0:0,0:0:0:0:
429,44,83094,2,0,P|370:92|281:85,1,160,2|0,0:0|0:0,0:0:0:0:
202,100,83591,1,8,0:0:0:0:
124,58,83757,1,0,0:0:0:0:
53,110,83922,6,0,L|48:198,1,80,12|8,0:0|0:0,0:0:0:0:
114,249,84254,2,0,L|109:328,1,80,8|8,0:0|0:0,0:0:0:0:
195,215,84585,2,0,L|199:135,1,80,8|0,0:0|0:0,0:0:0:0:
260,274,84917,1,8,0:0:0:0:
260,274,85083,6,0,P|337:288|407:252,1,160,4|0,0:0|0:0,0:0:0:0:
456,178,85580,2,0,P|456:139|443:101,1,80,8|0,0:0|0:0,0:0:0:0:
364,63,85911,2,0,L|355:11,2,40,8|8|0,0:0|0:0|0:0,0:0:0:0:
305,129,86243,1,8,0:0:0:0:
228,85,86409,6,0,L|130:72,1,80,0|4,0:0|0:0,0:0:0:0:
76,122,86740,2,0,P|51:171|67:268,1,143.999995605469,0|8,0:0|0:0,0:0:0:0:
135,299,87237,2,0,B|225:273|225:273|272:309,1,143.999995605469,8|8,0:0|0:0,0:0:0:0:
347,276,87735,2,0,L|429:265,1,71.9999978027344,8|0,0:0|0:0,0:0:0:0:
476,200,88066,5,8,0:0:0:0:
449,115,88232,1,8,0:0:0:0:
365,88,88398,1,0,0:0:0:0:
293,138,88563,6,0,P|260:161|215:166,1,80,8|0,0:0|0:0,0:0:0:0:
143,121,88895,2,0,P|130:84|133:44,1,80,8|0,0:0|0:0,0:0:0:0:
52,120,89226,6,0,L|35:284,1,160,4|8,0:0|0:0,0:0:0:0:
105,334,89724,1,0,0:0:0:0:
174,280,89889,2,0,P|226:255|336:259,1,160,8|8,0:0|0:0,0:0:0:0:
395,311,90387,1,0,0:0:0:0:
456,248,90552,6,0,P|483:220|496:183,1,80,8|0,0:0|0:0,0:0:0:0:
462,99,90884,2,0,P|428:80|388:78,1,80,8|0,0:0|0:0,0:0:0:0:
315,127,91215,2,0,L|145:145,1,160,8|8,0:0|0:0,0:0:0:0:
82,93,91713,1,0,0:0:0:0:
35,167,91878,6,0,P|34:206|31:246,1,80,8|0,0:0|0:0,0:0:0:0:
79,321,92210,1,8,0:0:0:0:
161,352,92376,2,0,P|161:312|164:272,1,80,0|8,0:0|0:0,0:0:0:0:
236,220,92707,2,0,P|273:233|312:244,1,80,0|8,0:0|0:0,0:0:0:0:
391,206,93038,1,0,0:0:0:0:
415,120,93204,6,0,P|383:50|308:31,1,160,8|8,0:0|0:0,0:0:0:0:
235,80,93701,1,0,0:0:0:0:
235,80,93867,2,0,L|115:67,1,120,8|0,0:0|0:0,0:0:0:0:
95,52,94199,2,0,L|109:139,1,80,8|0,0:0|0:0,0:0:0:0:
83,215,94530,6,0,L|69:304,1,80,4|0,0:0|0:0,0:0:0:0:
142,345,94862,2,0,B|214:362|224:316|299:337,1,160,8|8,0:0|0:0,0:0:0:0:
373,289,95359,2,0,P|389:250|390:202,1,80,0|8,0:0|0:0,0:0:0:0:
355,133,95690,6,0,P|285:96|210:119,1,160,0|0,0:0|0:0,0:0:0:0:
129,153,96188,2,0,L|119:232,1,80,8|0,0:0|0:0,0:0:0:0:
207,225,96519,2,0,L|197:304,1,80,8|0,0:0|0:0,0:0:0:0:
281,276,96851,2,0,P|320:271|360:263,1,80,8|0,0:0|0:0,0:0:0:0:
432,219,97182,6,0,P|437:189|439:159,1,60.0000022888184,0|0,0:0|0:0,0:0:0:0:
372,101,97514,2,0,L|249:81,1,120,8|0,0:0|0:0,0:0:0:0:
234,75,97845,6,0,P|239:104|243:134,1,60.0000022888184,0|0,0:0|0:0,0:0:0:0:
168,181,98177,2,0,P|158:121|147:62,1,120,8|0,0:0|0:0,0:0:0:0:
134,47,98508,6,0,L|71:41,1,60.0000022888184,0|0,0:0|0:0,0:0:0:0:
19,110,98840,2,0,P|-6:162|2:221,1,120,8|0,0:0|0:0,0:0:0:0:
13,239,99171,6,0,L|6:307,1,60.0000022888184,0|0,0:0|0:0,0:0:0:0:
92,277,99503,2,0,B|163:291|178:252|250:267,1,160,8|4,0:0|0:0,0:0:0:0:
320,312,100000,6,0,L|393:325,1,60.0000022888184,0|0,0:0|0:0,0:0:0:0:
452,281,100331,1,0,0:0:0:0:
450,196,100497,1,0,0:0:0:0:
387,139,100663,2,0,L|327:128,1,60.0000022888184,0|0,0:0|0:0,0:0:0:0:
245,145,100994,6,0,P|200:163|110:161,1,120.000004577637,0|0,0:0|0:0,0:0:0:0:
65,109,101492,1,0,0:0:0:0:
19,179,101657,2,0,P|10:213|23:307,1,120.000004577637,0|0,0:0|0:0,0:0:0:0:
95,330,102155,2,0,L|150:340,2,30.0000011444092,0|0|0,0:0|0:0|0:0,0:0:0:0:
111,247,102486,6,0,L|235:237,1,120.000004577637,0|0,0:0|0:0,0:0:0:0:
299,284,102983,2,0,P|290:313|290:343,1,60.0000022888184,0|0,0:0|0:0,0:0:0:0:
365,229,103315,2,0,P|373:200|373:170,1,60.0000022888184,0|0,0:0|0:0,0:0:0:0:
324,102,103646,6,0,P|288:93|206:144,1,120.000004577637,0|0,0:0|0:0,0:0:0:0:
160,190,104143,2,0,L|154:249,1,60.0000022888184,0|0,0:0|0:0,0:0:0:0:
119,115,104475,2,0,L|124:55,1,60.0000022888184,0|0,0:0|0:0,0:0:0:0:
50,163,104806,2,0,L|41:257,1,90.0000034332277,8|0,0:0|0:0,0:0:0:0:
41,271,105138,5,4,0:0:0:0:
114,319,105304,1,0,0:0:0:0:
199,301,105469,1,8,0:0:0:0:
238,222,105635,2,0,B|337:201|337:201|382:257,1,160,0|0,0:0|0:0,0:0:0:0:
454,281,106132,1,8,0:0:0:0:
482,197,106298,6,0,P|501:121|467:51,1,160,0|0,0:0|0:0,0:0:0:0:
381,32,106795,1,8,0:0:0:0:
295,55,106961,2,0,L|198:42,1,80,0|0,0:0|0:0,0:0:0:0:
128,58,107293,1,0,0:0:0:0:
128,58,107458,2,0,L|31:45,1,80,12|0,0:0|0:0,0:0:0:0:
170,135,107790,5,4,0:0:0:0:
132,214,107956,1,0,0:0:0:0:
170,135,108121,1,8,0:0:0:0:
224,204,108287,2,0,L|314:191,1,80,0|0,0:0|0:0,0:0:0:0:
387,164,108619,2,0,P|379:203|373:242,1,80,0|8,0:0|0:0,0:0:0:0:
446,357,108950,6,0,P|455:277|467:198,1,160,12|0,0:0|0:0,0:0:0:0:
494,114,109447,1,8,0:0:0:0:
494,114,110442,6,0,P|453:86|381:100,1,120,4|0,0:0|0:0,0:0:0:0:
386,96,111768,6,0,L|262:102,1,120,0|0,0:0|0:0,0:0:0:0:
142,54,112762,1,8,0:0:0:0:
82,120,113094,6,0,P|55:172|67:229,1,120,0|0,0:0|0:0,0:0:0:0:
67,229,114420,6,0,L|195:215,1,120,0|0,0:0|0:0,0:0:0:0:
299,282,115414,1,8,0:0:0:0:
362,221,115746,6,0,L|349:96,1,120,4|0,0:0|0:0,0:0:0:0:
349,101,117072,6,0,P|307:120|228:90,1,120,0|0,0:0|0:0,0:0:0:0:
117,47,118066,1,8,0:0:0:0:
61,115,118398,6,0,P|34:166|44:224,1,120,0|0,0:0|0:0,0:0:0:0:
44,224,119558,2,0,L|88:218,1,40,12|0,0:0|0:0,0:0:0:0:
426,299,120387,5,4,0:3:0:0:
361,239,120552,2,0,L|371:197,2,40,8|8|8,0:0|0:0|0:0,0:0:0:0:
279,276,120884,6,0,B|215:262|214:310|139:292,1,143.999995605469,4|0,0:0|0:0,0:0:0:0:
63,252,121381,2,0,L|50:167,1,71.9999978027344,8|0,0:0|0:0,0:0:0:0:
85,100,121713,1,2,0:0:0:0:
162,137,121878,2,0,P|197:145|237:150,1,71.9999978027344,0|8,0:0|0:0,0:0:0:0:
355,51,122210,6,0,L|211:56,1,143.999995605469,2|0,0:0|0:0,0:0:0:0:
128,28,122707,2,0,P|132:63|135:99,1,71.9999978027344,8|0,0:0|0:0,0:0:0:0:
94,176,123038,2,0,P|61:238|79:312,1,143.999995605469,2|8,0:0|0:0,0:0:0:0:
151,350,123536,1,0,0:0:0:0:
225,307,123701,6,0,L|376:301,1,143.999995605469,6|8,0:0|0:0,0:0:0:0:
453,282,124199,2,0,P|465:248|467:212,1,71.9999978027344,0|2,0:0|0:0,0:0:0:0:
459,126,124530,2,0,P|456:90|444:56,1,71.9999978027344,0|8,0:0|0:0,0:0:0:0:
358,42,124862,6,0,L|207:36,1,143.999995605469,2|2,0:0|0:0,0:0:0:0:
141,82,125359,2,0,L|69:86,1,71.9999978027344,8|0,0:0|0:0,0:0:0:0:
216,123,125690,2,0,L|287:127,1,71.9999978027344,2|0,0:0|0:0,0:0:0:0:
144,174,126022,2,0,P|125:212|131:282,1,107.999996704102,8|0,0:0|0:0,0:0:0:0:
128,299,126353,6,0,B|219:280|219:280|253:317,1,143.999995605469,4|8,0:0|0:0,0:0:0:0:
331,279,126851,2,0,P|399:292|464:240,1,143.999995605469,2|0,0:0|0:0,0:0:0:0:
458,165,127348,2,0,L|472:72,1,71.9999978027344,8|0,0:0|0:0,0:0:0:0:
417,23,127679,6,0,P|381:30|346:36,1,71.9999978027344,0|0,0:0|0:0,0:0:0:0:
247,115,128011,2,0,P|309:147|375:122,1,143.999995605469,12|8,0:0|0:0,0:0:0:0:
458,165,128508,2,0,L|459:222,2,35.9999989013672,8|8|8,0:0|0:0|0:0,0:0:0:0:
374,122,128840,6,0,L|369:265,1,143.999995605469,4|0,0:0|0:0,0:0:0:0:
281,298,129337,2,0,P|278:262|282:226,1,71.9999978027344,8|0,0:0|0:0,0:0:0:0:
455,262,129668,2,0,L|449:317,2,35.9999989013672,8|0|8,0:0|0:0|0:0,0:0:0:0:
409,187,130000,1,8,0:0:0:0:
439,105,130166,6,0,B|375:83|367:124|297:101,1,143.999995605469,4|0,0:0|0:0,0:0:0:0:
213,81,130663,1,8,0:0:0:0:
213,81,130829,2,0,B|228:176|228:176|181:166,1,143.999995605469,4|0,0:0|0:0,0:0:0:0:
106,123,131326,2,0,P|101:158|98:194,1,71.9999978027344,8|0,0:0|0:0,0:0:0:0:
139,270,131657,5,8,0:0:0:0:
38,309,131823,1,8,0:0:0:0:
139,270,131989,1,8,0:0:0:0:
206,324,132155,2,0,P|257:331|296:315,1,71.9999978027344,0|0,0:0|0:0,0:0:0:0:
342,270,132486,2,0,L|338:198,1,71.9999978027344,2|8,0:0|0:0,0:0:0:0:
436,168,132818,6,0,P|428:239|421:311,1,143.999995605469,4|0,0:0|0:0,0:0:0:0:
340,342,133315,2,0,P|286:298|215:297,1,143.999995605469,8|8,0:0|0:0,0:0:0:0:
144,346,133812,1,0,0:0:0:0:
144,346,133978,2,0,P|132:311|128:271,1,71.9999978027344,8|0,0:0|0:0,0:0:0:0:
171,201,134309,5,8,0:0:0:0:
69,163,134475,1,8,0:0:0:0:
171,201,134641,1,8,0:0:0:0:
242,153,134806,2,0,L|324:141,1,71.9999978027344,2|0,0:0|0:0,0:0:0:0:
396,117,135138,2,0,P|391:152|387:188,1,71.9999978027344,0|8,0:0|0:0,0:0:0:0:
455,310,135469,6,0,L|470:166,1,143.999995605469,4|0,0:0|0:0,0:0:0:0:
505,86,135967,1,8,0:0:0:0:
438,31,136132,1,0,0:0:0:0:
438,31,136215,1,0,0:0:0:0:
438,31,136298,2,0,P|402:26|366:23,1,71.9999978027344,8|0,0:0|0:0,0:0:0:0:
289,64,136630,2,0,P|294:99|299:135,1,71.9999978027344,8|0,0:0|0:0,0:0:0:0:
339,204,136961,6,0,P|287:177|228:179,1,120,2|2,0:0|0:0,0:0:0:0:
184,320,137956,2,0,P|236:347|295:345,1,120,2|2,0:0|0:0,0:0:0:0:
417,298,138950,6,0,P|398:264|397:224,1,80,8|0,0:0|0:0,0:0:0:0:
343,154,139282,2,0,P|350:114|375:81,1,80,8|0,0:0|0:0,0:0:0:0:
307,23,139613,5,4,0:0:0:0:
219,28,139779,1,0,0:0:0:0:
162,95,139945,2,0,P|101:143|25:127,1,160,8|0,0:0|0:0,0:0:0:0:
2,213,140442,1,0,0:0:0:0:
69,269,140608,2,0,P|79:307|83:347,1,80,8|0,0:0|0:0,0:0:0:0:
171,347,140939,6,0,P|235:361|311:286,1,160,0|8,0:0|0:0,0:0:0:0:
266,226,141436,2,0,L|251:171,2,40,8|8|0,0:0|0:0|0:0,0:0:0:0:
354,232,141768,2,0,L|447:219,1,80,0|8,0:0|0:0,0:0:0:0:
504,169,142099,1,8,0:0:0:0:
504,169,142182,1,8,0:0:0:0:
504,169,142265,6,0,P|506:129|513:88,1,80,4|0,0:0|0:0,0:0:0:0:
414,20,142597,2,0,L|421:111,1,80,8|0,0:0|0:0,0:0:0:0:
337,140,142928,2,0,L|330:60,1,80,8|0,0:0|0:0,0:0:0:0:
249,25,143259,2,0,P|209:18|167:15,1,80,8|0,0:0|0:0,0:0:0:0:
39,124,143591,6,0,L|208:103,1,160,0|12,0:0|0:0,0:0:0:0:
267,158,144088,1,0,0:0:0:0:
215,229,144254,1,8,0:0:0:0:
274,293,144420,2,0,L|329:284,2,40,8|8|8,0:0|0:0|0:0,0:0:0:0:
200,341,144751,1,8,0:0:0:0:
200,341,144834,1,8,0:0:0:0:
200,341,144917,6,0,L|140:334,1,60.0000022888184,0|0,0:0|0:0,0:0:0:0:
57,303,145248,2,0,P|42:255|72:184,1,120,12|0,0:0|0:0,0:0:0:0:
80,173,145580,6,0,P|77:143|75:113,1,60.0000022888184,0|0,0:0|0:0,0:0:0:0:
160,73,145911,2,0,L|160:192,1,120,12|0,0:0|0:0,0:0:0:0:
162,216,146243,5,8,0:0:0:0:
235,265,146409,1,8,0:0:0:0:
302,209,146574,1,8,0:0:0:0:
381,246,146740,2,0,P|457:246|496:180,1,160,4|8,0:0|0:0,0:0:0:0:
449,105,147237,1,8,0:0:0:0:
449,105,147320,1,8,0:0:0:0:
449,105,147403,1,8,0:0:0:0:
449,105,147900,5,0,0:0:0:0:
365,133,148066,2,0,L|190:107,1,160,8|0,0:0|0:0,0:0:0:0:
122,82,148563,2,0,P|128:121|133:161,1,80,0|0,0:0|0:0,0:0:0:0:
11,274,148895,6,0,P|-5:198|41:137,1,160,4|8,0:0|0:0,0:0:0:0:
122,172,149392,2,0,B|195:198|207:144|278:174,1,160,0|0,0:0|0:0,0:0:0:0:
350,223,149889,2,0,P|362:186|371:146,1,80,8|0,0:0|0:0,0:0:0:0:
341,63,150221,6,0,P|279:15|202:25,1,160,2|8,0:0|0:0,0:0:0:0:
136,84,150718,1,0,0:0:0:0:
168,165,150884,2,0,L|177:256,1,80,2|0,0:0|0:0,0:0:0:0:
134,322,151215,2,0,P|172:332|211:339,1,80,8|0,0:0|0:0,0:0:0:0:
291,300,151547,6,0,B|364:281|377:329|448:305,1,160,4|8,0:0|0:0,0:0:0:0:
493,229,152044,1,0,0:0:0:0:
493,229,152210,2,0,B|512:122|512:122|463:139,1,160,2|8,0:0|0:0,0:0:0:0:
379,166,152707,1,0,0:0:0:0:
320,100,152873,6,0,L|231:92,1,80,2|0,0:0|0:0,0:0:0:0:
159,127,153204,1,8,0:0:0:0:
80,87,153370,2,0,L|69:38,2,40,0|0|2,0:0|0:0|0:0,0:0:0:0:
159,127,153701,1,0,0:0:0:0:
99,191,153867,2,0,L|85:320,1,120,8|0,0:0|0:0,0:0:0:0:
87,329,154199,6,0,P|124:316|171:315,1,80,4|0,0:0|0:0,0:0:0:0:
252,313,154530,2,0,P|291:315|329:328,1,80,8|0,0:0|0:0,0:0:0:0:
395,270,154862,1,2,0:0:0:0:
395,269,155027,2,0,P|408:232|412:191,1,80,0|8,0:0|0:0,0:0:0:0:
333,47,155359,6,0,P|329:108|324:207,1,160,0|0,0:0|0:0,0:0:0:0:
302,292,155856,2,0,P|263:282|223:277,1,80,8|0,0:0|0:0,0:0:0:0:
161,173,156188,2,0,P|199:182|239:187,1,80,2|0,0:0|0:0,0:0:0:0:
299,120,156519,2,0,P|291:81|286:42,1,80,8|0,0:0|0:0,0:0:0:0:
422,14,156851,6,0,P|436:90|384:147,1,160,4|8,0:0|0:0,0:0:0:0:
299,121,157348,2,0,L|218:106,1,80,4|0,0:0|0:0,0:0:0:0:
148,157,157679,1,0,0:0:0:0:
86,94,157845,1,8,0:0:0:0:
18,151,158011,6,0,P|2:227|39:296,1,160,4|0,0:0|0:0,0:0:0:0:
115,253,158508,1,8,0:0:0:0:
191,296,158674,1,10,0:0:0:0:
255,236,158840,2,0,L|334:228,1,80,8|0,0:0|0:0,0:0:0:0:
295,149,159171,2,0,L|215:156,1,80,8|0,0:0|0:0,0:0:0:0:
128,175,159503,5,4,0:0:0:0:
80,99,159668,2,0,P|73:60|70:20,2,80,8|8|8,0:0|0:0|0:0,0:0:0:0:
128,175,160166,1,8,0:0:0:0:
82,250,160331,2,0,L|75:289,3,40,0|0|0|0,0:0|0:0|0:0|0:0,0:0:0:0:
68,313,160663,6,0,P|136:275|211:296,1,160,4|0,0:0|0:0,0:0:0:0:
296,322,161160,2,0,P|335:319|374:298,1,80,8|0,0:0|0:0,0:0:0:0:
385,213,161492,2,0,L|375:133,1,80,2|0,0:0|0:0,0:0:0:0:
310,73,161823,2,0,P|270:69|230:64,1,80,8|0,0:0|0:0,0:0:0:0:
145,43,162155,6,0,P|148:71|150:108,1,60.0000022888184,0|0,0:0|0:0,0:0:0:0:
60,214,162486,2,0,L|56:94,1,120,8|0,0:0|0:0,0:0:0:0:
61,74,162818,6,0,L|-1:66,1,60.0000022888184,0|0,0:0|0:0,0:0:0:0:
148,119,163149,2,0,P|205:130|259:105,1,120,8|0,0:0|0:0,0:0:0:0:
273,86,163480,6,0,L|355:75,1,80,0|0,0:0|0:0,0:0:0:0:
422,21,163812,1,8,0:0:0:0:
422,21,163978,2,0,P|383:89|398:169,1,160,4|0,0:0|0:0,0:0:0:0:
467,218,164475,2,0,P|480:255|481:295,1,80,8|0,0:0|0:0,0:0:0:0:
408,343,164806,5,4,0:0:0:0:
327,307,164972,2,0,P|287:300|247:297,1,80,2|8,0:0|0:0,0:0:0:0:
210,216,165304,2,0,P|289:219|369:226,1,160,2|2,0:0|0:0,0:0:0:0:
446,182,165801,2,0,P|451:143|458:104,1,80,8|0,0:0|0:0,0:0:0:0:
467,16,166132,5,0,0:0:0:0:
384,42,166298,2,0,P|346:55|304:63,1,80,2|8,0:0|0:0,0:0:0:0:
217,54,166630,2,0,P|152:12|74:21,1,160,2|2,0:0|0:0,0:0:0:0:
45,105,167127,1,8,0:0:0:0:
95,177,167293,1,0,0:0:0:0:
27,232,167458,6,0,L|13:322,1,80,8|8,0:0|0:0,0:0:0:0:
95,177,167790,2,0,L|107:97,1,80,8|8,0:0|0:0,0:0:0:0:
163,233,168121,2,0,L|150:312,1,80,8|0,0:0|0:0,0:0:0:0:
223,168,168453,1,8,0:0:0:0:
223,167,168619,6,0,P|299:165|363:222,1,160,4|8,0:0|0:0,0:0:0:0:
432,166,169116,2,0,P|455:119|452:71,1,80,8|0,0:0|0:0,0:0:0:0:
399,24,169447,2,0,L|348:17,2,40,8|8|8,0:0|0:0|0:0,0:0:0:0:
364,105,169779,1,0,0:0:0:0:
283,69,169945,6,0,L|196:81,1,80,8|8,0:0|0:0,0:0:0:0:
135,133,170276,2,0,P|102:195|114:264,1,143.999995605469,8|8,0:0|0:0,0:0:0:0:
177,323,170773,2,0,B|246:302|254:348|318:327,1,143.999995605469,8|8,0:0|0:0,0:0:0:0:
400,299,171271,2,0,L|410:156,1,143.999995605469,8|8,0:0|0:0,0:0:0:0:
326,174,171768,2,0,P|323:209|321:245,2,71.9999978027344,0|0|0,0:0|0:0|0:0,0:0:0:0:
325,174,172597,6,0,P|261:217|185:200,1,160,4|0,0:0|0:0,0:0:0:0:
137,274,173094,2,0,L|153:114,1,160,8|0,0:0|0:0,0:0:0:0:
101,43,173591,2,0,L|180:30,1,80,2|8,0:0|0:0,0:0:0:0:
260,67,173922,6,0,B|339:86|344:36|417:55,1,160,2|2,0:0|2:0,0:0:0:0:
480,116,174420,1,8,0:0:0:0:
460,201,174585,2,0,L|449:292,1,80,2|0,0:0|0:0,0:0:0:0:
362,295,174917,2,0,L|371:215,1,80,2|8,0:0|0:0,0:0:0:0:
383,128,175248,6,0,P|328:182|251:176,1,160,0|2,0:0|0:0,0:0:0:0:
193,107,175746,2,0,P|130:62|52:68,1,160,8|2,0:0|0:0,0:0:0:0:
9,145,176243,2,0,P|18:183|23:223,1,80,2|8,0:0|0:0,0:0:0:0:
83,339,176574,6,0,L|115:182,1,160,2|2,0:0|0:0,0:0:0:0:
190,135,177072,2,0,P|229:128|268:120,1,80,8|0,0:0|0:0,0:0:0:0:
352,94,177403,2,0,L|337:193,2,80,0|0|8,0:0|0:0|0:0,0:0:0:0:
437,72,177900,6,0,P|488:112|482:213,1,160,4|2,0:0|0:0,0:0:0:0:
443,276,178398,2,0,P|405:266|365:263,1,80,8|0,0:0|0:0,0:0:0:0:
282,233,178729,2,0,L|198:249,1,80,0|0,0:0|0:0,0:0:0:0:
124,207,179061,1,8,0:0:0:0:
136,120,179226,6,0,P|178:69|285:97,1,160,0|0,0:0|0:0,0:0:0:0:
346,41,179724,2,0,P|353:80|356:120,1,80,12|0,0:0|0:0,0:0:0:0:
299,188,180055,2,0,L|259:194,2,40,8|8|8,0:0|0:0|0:0,0:0:0:0:
386,204,180387,1,8,0:0:0:0:
376,291,180552,6,0,P|297:297|218:310,1,160,4|2,0:0|0:0,0:0:0:0:
132,330,181050,2,0,L|146:240,1,80,8|2,0:0|0:0,0:0:0:0:
98,175,181381,2,0,L|112:85,1,80,0|2,0:0|0:0,0:0:0:0:
181,42,181713,1,8,0:0:0:0:
181,42,181878,6,0,P|242:90|319:82,1,160,2|2,0:0|0:0,0:0:0:0:
389,26,182376,2,0,L|477:17,1,80,8|8,0:0|0:0,0:0:0:0:
493,102,182707,1,8,0:0:0:0:
481,189,182873,2,0,L|469:268,1,80,8|8,0:0|0:0,0:0:0:0:
429,346,183204,6,0,P|357:376|284:348,1,160,4|0,0:0|0:0,0:0:0:0:
204,313,183701,2,0,L|124:307,1,80,8|0,0:0|0:0,0:0:0:0:
277,262,184033,2,0,L|356:267,1,80,0|0,0:0|0:0,0:0:0:0:
215,198,184364,1,8,0:0:0:0:
215,198,184530,6,0,L|203:38,1,160,4|0,0:0|0:0,0:0:0:0:
290,49,185027,2,0,P|328:58|368:62,1,80,8|0,0:0|0:0,0:0:0:0:
453,35,185359,2,0,L|437:140,1,80,0|0,0:0|0:0,0:0:0:0:
478,193,185690,1,8,0:0:0:0:
418,257,185856,6,0,P|358:221|256:239,1,160,4|0,0:0|0:0,0:0:0:0:
200,284,186353,2,0,P|162:295|122:296,1,80,8|0,0:0|0:0,0:0:0:0:
65,228,186685,2,0,P|72:188|92:154,1,80,0|0,0:0|0:0,0:0:0:0:
166,106,187016,1,8,0:0:0:0:
165,106,187182,6,0,P|89:116|31:64,1,160,4|0,0:0|0:0,0:0:0:0:
111,27,187679,1,8,0:0:0:0:
111,27,187845,2,0,L|278:15,1,160,4|0,0:0|0:0,0:0:0:0:
337,71,188342,2,0,P|321:107|314:146,1,80,8|0,0:0|0:0,0:0:0:0:
371,214,188674,6,0,L|422:223,2,40,4|0|0,0:0|0:0|0:0,0:0:0:0:
296,260,189005,1,8,0:0:0:0:
296,260,189171,2,0,L|245:269,2,40,0|0|8,0:0|0:0|0:0,0:0:0:0:
370,307,189503,1,0,0:0:0:0:
370,307,189669,2,0,L|421:316,2,40,8|0|0,0:0|0:0|0:0,0:0:0:0:
375,218,190000,6,0,P|411:150|386:76,1,160,4|8,0:0|0:0,0:0:0:0:
304,44,190497,2,0,L|310:4,2,40,0|0|8,0:0|0:0|0:0,0:0:0:0:
253,116,190829,1,0,0:0:0:0:
253,116,190994,2,0,L|259:155,2,40,8|0|0,0:0|0:0|0:0,0:0:0:0:
193,48,191326,6,0,P|154:46|114:40,1,80,8|8,0:0|0:0,0:0:0:0:
49,99,191657,1,8,0:0:0:0:
49,99,191823,2,0,L|60:178,1,80,8|8,0:0|0:0,0:0:0:0:
155,284,192155,2,0,L|143:204,1,80,0|8,0:0|0:0,0:0:0:0:
206,142,192486,5,4,0:0:0:0:
256,192,192569,12,2,195304,0:0:0:0:
253,75,205911,6,0,B|276:124|231:184|253:233,1,160,4|0,0:0|0:0,0:0:0:0:
253,232,206906,5,8,0:0:0:0:
253,232,207237,6,0,P|222:272|113:261,1,160,4|8,0:0|0:0,0:0:0:0:
62,200,207735,2,0,P|75:163|77:123,1,80,0|2,0:0|0:0,0:0:0:0:
52,37,208066,1,0,0:0:0:0:
140,40,208232,2,0,L|219:51,1,80,8|0,0:0|0:0,0:0:0:0:
294,97,208563,6,0,B|352:90|352:90|384:61|384:61|441:53,1,160,2|8,0:0|0:0,0:0:0:0:
511,109,209061,1,0,0:0:0:0:
431,145,209226,2,0,L|420:230,1,80,2|0,0:0|0:0,0:0:0:0:
467,299,209558,2,0,P|428:308|388:315,1,80,8|0,0:0|0:0,0:0:0:0:
304,288,209889,6,0,B|233:259|218:304|146:283,1,160,4|8,0:0|0:0,0:0:0:0:
67,245,210387,1,0,0:0:0:0:
67,245,210552,2,0,B|11:262|11:262|30:162,1,160,2|8,0:0|0:0,0:0:0:0:
101,109,211050,1,0,0:0:0:0:
101,108,211215,6,0,P|140:106|180:98,1,80,2|0,0:0|0:0,0:0:0:0:
264,124,211547,1,8,0:0:0:0:
329,65,211713,2,0,L|324:15,2,40,2|0|0,0:0|0:0|0:0,0:0:0:0:
264,124,212044,1,0,0:0:0:0:
329,182,212210,2,0,P|351:236|347:296,1,120,8|0,0:0|0:0,0:0:0:0:
335,314,212541,6,0,L|244:300,1,80,4|0,0:0|0:0,0:0:0:0:
187,245,212873,2,0,P|169:280|164:323,1,80,8|0,0:0|0:0,0:0:0:0:
79,345,213204,1,2,0:0:0:0:
40,265,213370,2,0,L|31:168,1,80,0|8,0:0|0:0,0:0:0:0:
11,99,213701,6,0,P|60:158|138:156,1,160,0|0,0:0|0:0,0:0:0:0:
210,104,214199,2,0,P|221:67|219:27,1,80,8|0,0:0|0:0,0:0:0:0:
253,187,214530,2,0,P|250:226|262:264,1,80,2|0,0:0|0:0,0:0:0:0:
348,283,214862,2,0,L|447:270,1,80,8|0,0:0|0:0,0:0:0:0:
472,348,215193,6,0,L|306:369,1,160,4|8,0:0|0:0,0:0:0:0:
227,344,215690,2,0,P|190:330|146:323,1,80,4|0,0:0|0:0,0:0:0:0:
66,349,216022,1,0,0:0:0:0:
18,274,216188,1,8,0:0:0:0:
76,208,216353,6,0,B|176:217|176:217|165:145,1,160,4|0,0:0|0:0,0:0:0:0:
234,100,216851,1,8,0:0:0:0:
159,49,217016,1,0,0:0:0:0:
238,11,217182,2,0,L|330:19,1,80,8|0,0:0|0:0,0:0:0:0:
446,97,217514,2,0,L|367:91,1,80,8|0,0:0|0:0,0:0:0:0:
305,154,217845,5,12,0:0:0:0:
361,221,218011,2,0,P|371:259|369:299,2,80,8|8|8,0:0|0:0|0:0,0:0:0:0:
305,154,218508,1,8,0:0:0:0:
220,180,218674,2,0,L|164:174,3,40,2|2|2|2,0:0|0:0|0:0|0:0,0:0:0:0:
160,187,219005,6,0,P|170:110|121:50,1,160,4|0,0:0|0:0,0:0:0:0:
34,64,219503,2,0,P|24:102|19:142,1,80,8|0,0:0|0:0,0:0:0:0:
70,214,219834,2,0,L|75:293,1,80,2|0,0:0|0:0,0:0:0:0:
161,313,220166,2,0,L|155:233,1,80,8|0,0:0|0:0,0:0:0:0:
207,161,220497,6,0,P|235:173|265:178,1,60.0000022888184,0|0,0:0|0:0,0:0:0:0:
339,128,220829,2,0,P|390:99|454:106,1,120,12|0,0:0|0:0,0:0:0:0:
462,126,221160,6,0,L|454:206,1,60.0000022888184,0|0,0:0|0:0,0:0:0:0:
388,340,221492,2,0,L|375:221,1,120,12|0,0:0|0:0,0:0:0:0:
359,204,221823,6,0,L|270:193,1,80,4|0,0:0|0:0,0:0:0:0:
253,109,222155,1,8,0:0:0:0:
181,159,222320,2,0,B|109:133|98:189|24:165,1,160,4|0,0:0|0:0,0:0:0:0:
56,82,222818,2,0,P|94:71|136:66,1,80,8|0,0:0|0:0,0:0:0:0:
180,159,223149,6,0,P|170:197|166:237,1,80,4|2,0:0|0:0,0:0:0:0:
228,299,223480,1,8,0:0:0:0:
315,306,223646,2,0,P|373:256|368:179,1,160,2|2,0:0|0:0,0:0:0:0:
322,104,224143,2,0,P|361:98|401:92,1,80,8|0,0:0|0:0,0:0:0:0:
369,9,224475,6,0,P|329:14|289:20,1,80,0|2,0:0|0:0,0:0:0:0:
236,90,224806,1,8,0:0:0:0:
236,90,224972,2,0,P|157:75|78:60,1,160,2|2,0:0|0:0,0:0:0:0:
18,126,225469,2,0,P|5:163|9:208,1,80,8|0,0:0|0:0,0:0:0:0:
73,262,225801,6,0,L|62:341,1,80,12|8,0:0|0:0,0:0:0:0:
150,220,226132,2,0,L|160:140,1,80,8|8,0:0|0:0,0:0:0:0:
225,265,226464,2,0,L|214:344,1,80,8|0,0:0|0:0,0:0:0:0:
295,211,226795,1,8,0:0:0:0:
295,210,226961,6,0,P|372:199|436:244,1,160,4|0,0:0|0:0,0:0:0:0:
484,170,227458,2,0,P|496:121|489:76,1,80,8|0,0:0|0:0,0:0:0:0:
415,47,227790,2,0,P|379:62|339:65,1,80,8|8,0:0|0:0,0:0:0:0:
256,34,228121,1,8,0:0:0:0:
179,77,228287,1,0,0:0:0:0:
100,36,228453,6,0,L|18:26,1,80,8|8,0:0|0:0,0:0:0:0:
162,202,228950,2,0,L|241:211,1,80,8|8,0:0|0:0,0:0:0:0:
107,53,229447,6,0,L|25:43,1,80,8|8,0:0|0:0,0:0:0:0:
169,219,229944,2,0,L|248:228,1,80,12|0,0:0|0:0,0:0:0:0:
319,281,230276,1,0,0:0:0:0:
401,312,230442,6,0,P|396:272|393:232,1,80,12|0,0:0|0:0,0:0:0:0:
442,85,230773,2,0,P|446:125|450:165,1,80,12|0,0:0|0:0,0:0:0:0:
361,153,231105,6,0,P|284:143|223:191,1,160,12|8,0:0|0:0,0:0:0:0:
211,278,231602,1,0,0:0:0:0:
128,247,231768,2,0,L|113:87,1,160,8|8,0:0|0:0,0:0:0:0:
178,27,232265,1,0,0:0:0:0:
257,65,232431,6,0,L|360:76,1,80,8|0,0:0|0:0,0:0:0:0:
418,41,232762,2,0,L|521:52,1,80,8|0,0:0|0:0,0:0:0:0:
496,138,233094,2,0,P|463:209|469:288,1,160,8|8,0:0|0:0,0:0:0:0:
387,322,233591,1,0,0:0:0:0:
336,249,233757,6,0,P|296:243|256:239,1,80,8|0,0:0|0:0,0:0:0:0:
176,202,234088,1,8,0:0:0:0:
152,116,234254,2,0,P|191:121|231:125,1,80,0|8,0:0|0:0,0:0:0:0:
314,93,234585,2,0,P|321:54|325:14,1,80,0|8,0:0|0:0,0:0:0:0:
410,39,234917,1,0,0:0:0:0:
410,39,235083,6,0,P|396:117|383:196,1,160,8|8,0:0|0:0,0:0:0:0:
444,260,235580,1,0,0:0:0:0:
377,318,235746,2,0,P|340:302|300:300,1,80,8|0,0:0|0:0,0:0:0:0:
212,301,236077,2,0,P|172:303|135:318,1,80,8|0,0:0|0:0,0:0:0:0:
64,263,236409,6,0,P|27:195|46:119,1,160,8|8,0:0|0:0,0:0:0:0:
117,67,236906,1,0,0:0:0:0:
189,117,237072,2,0,B|266:145|272:90|345:117,1,160,8|8,0:0|0:0,0:0:0:0:
421,74,237569,1,0,0:0:0:0:
475,143,237735,6,0,L|480:232,1,80,8|0,0:0|0:0,0:0:0:0:
487,310,238066,2,0,P|450:322|410:329,1,80,8|0,0:0|0:0,0:0:0:0:
330,288,238398,2,0,P|263:248|185:257,1,160,8|8,0:0|0:0,0:0:0:0:
115,311,238895,1,0,0:0:0:0:
40,264,239061,6,0,L|36:174,1,80,8|0,0:0|0:0,0:0:0:0:
27,96,239392,1,8,0:0:0:0:
112,117,239558,2,0,P|151:122|191:127,1,80,0|8,0:0|0:0,0:0:0:0:
262,75,239889,1,8,0:0:0:0:
349,64,240055,1,8,0:0:0:0:
420,115,240221,6,0,P|443:189|400:256,1,160,4|0,0:0|0:0,0:0:0:0:
333,310,240718,2,0,P|326:270|320:231,1,80,8|0,0:0|0:0,0:0:0:0:
246,181,241050,2,0,L|157:174,1,80,0|0,0:0|0:0,0:0:0:0:
216,264,241381,2,0,L|137:258,1,80,8|0,0:0|0:0,0:0:0:0:
137,258,242044,6,0,P|128:198|118:139,2,120,8|8|8,0:0|0:0|0:0,0:0:0:0:
137,258,242707,1,8,0:0:0:0:
213,302,242873,6,0,P|290:304|344:248,1,160,4|0,0:0|0:0,0:0:0:0:
395,176,243370,2,0,P|356:167|316:161,1,80,8|0,0:0|0:0,0:0:0:0:
268,87,243701,2,0,L|161:105,1,80,8|0,0:0|0:0,0:0:0:0:
108,137,244033,2,0,P|106:97|109:57,1,80,8|0,0:0|0:0,0:0:0:0:
19,69,244364,6,0,L|11:252,1,160,8|8,0:0|0:0,0:0:0:0:
74,292,244862,2,0,L|156:279,1,80,0|8,0:0|0:0,0:0:0:0:
239,265,245193,2,0,L|318:277,1,80,0|8,0:0|0:0,0:0:0:0:
394,322,245525,1,0,0:0:0:0:
459,263,245690,6,0,P|493:195|448:106,1,160,8|8,0:0|0:0,0:0:0:0:
396,64,246188,1,0,0:0:0:0:
334,126,246353,2,0,L|243:112,1,80,8|0,0:0|0:0,0:0:0:0:
171,142,246685,2,0,P|171:103|165:62,1,80,8|0,0:0|0:0,0:0:0:0:
67,15,247016,6,0,B|47:88|95:93|75:172,1,160,8|8,0:0|0:0,0:0:0:0:
32,249,247514,1,0,0:0:0:0:
102,300,247679,2,0,B|202:312|202:312|188:234,1,160,8|8,0:0|0:0,0:0:0:0:
247,184,248177,1,0,0:0:0:0:
247,184,248342,6,0,L|260:90,1,80,8|0,0:0|0:0,0:0:0:0:
328,50,248674,2,0,L|413:40,1,80,8|0,0:0|0:0,0:0:0:0:
249,95,249005,2,0,L|164:85,1,80,8|0,0:0|0:0,0:0:0:0:
95,36,249337,2,0,P|83:74|80:114,1,80,8|0,0:0|0:0,0:0:0:0:
114,195,249668,6,0,L|118:254,1,60.0000022888184,0|0,0:0|0:0,0:0:0:0:
111,342,250000,2,0,P|167:324|230:329,1,120,8|0,0:0|0:0,0:0:0:0:
247,340,250331,6,0,P|276:345|306:347,1,60.0000022888184,0|0,0:0|0:0,0:0:0:0:
383,303,250663,2,0,P|400:247|386:190,1,120,8|0,0:0|0:0,0:0:0:0:
366,177,250994,6,0,L|280:188,1,60.0000022888184,0|0,0:0|0:0,0:0:0:0:
266,105,251326,2,0,L|393:91,1,120,8|0,0:0|0:0,0:0:0:0:
404,98,251657,6,0,P|406:69|412:39,1,60.0000022888184,0|0,0:0|0:0,0:0:0:0:
496,68,251989,2,0,B|516:131|471:156|493:226,1,160,8|4,0:0|0:0,0:0:0:0:
437,288,252486,6,0,L|372:279,1,60.0000022888184,0|0,0:0|0:0,0:0:0:0:
346,200,252818,5,0,0:0:0:0:
346,200,252983,2,0,L|286:208,1,60.0000022888184
223,264,253315,5,0,0:0:0:0:
223,264,253480,2,0,L|163:255,1,60.0000022888184
93,208,253812,5,0,0:0:0:0:
93,208,253977,2,0,L|33:216,2,60.0000022888184,0|0|0,0:0|0:0|0:0,0:0:0:0:
159,155,254475,5,8,0:0:0:0:
136,74,254641,1,8,0:0:0:0:
200,16,254806,6,0,P|269:7|323:52,1,143.999995605469,4|0,0:0|0:0,0:0:0:0:
301,137,255304,2,0,P|293:171|288:207,1,71.9999978027344,8|0,0:0|0:0,0:0:0:0:
370,234,255635,2,0,P|378:199|383:163,2,71.9999978027344,0|0|8,0:0|0:0|0:0,0:0:0:0:
303,289,256132,6,0,L|144:302,1,143.999995605469,0|0,0:0|0:0,0:0:0:0:
87,250,256630,2,0,P|51:244|18:232,1,71.9999978027344,8|0,0:0|0:0,0:0:0:0:
38,148,256961,2,0,L|34:76,1,71.9999978027344,0|0,0:0|0:0,0:0:0:0:
118,53,257293,2,0,L|121:124,1,71.9999978027344,8|0,0:0|0:0,0:0:0:0:
179,189,257624,5,0,0:0:0:0:
265,192,257790,1,0,0:0:0:0:
324,129,257956,1,8,0:0:0:0:
305,45,258121,2,0,L|162:25,1,143.999995605469,0|0,0:0|0:0,0:0:0:0:
86,67,258619,2,0,P|78:102|75:137,1,71.9999978027344,8|0,0:0|0:0,0:0:0:0:
129,205,258950,5,0,0:0:0:0:
102,287,259116,1,0,0:0:0:0:
176,331,259282,2,0,L|270:315,1,71.9999978027344,8|0,0:0|0:0,0:0:0:0:
327,287,259613,2,0,L|409:301,2,71.9999978027344,0|0|8,0:0|0:0|0:0,0:0:0:0:
261,230,260110,6,0,B|248:134|248:134|304:90,1,143.999995605469,0|0,0:0|0:0,0:0:0:0:
222,41,260608,2,0,P|190:28|154:27,1,71.9999978027344,8|0,0:0|0:0,0:0:0:0:
96,91,260939,2,0,P|97:126|113:158,1,71.9999978027344,0|0,0:0|0:0,0:0:0:0:
179,215,261271,1,8,0:0:0:0:
258,181,261436,6,0,P|321:150|390:166,1,143.999995605469,0|0,0:0|0:0,0:0:0:0:
473,141,261934,2,0,P|475:176|477:212,1,71.9999978027344,8|0,0:0|0:0,0:0:0:0:
424,348,262265,2,0,P|421:312|420:277,1,71.9999978027344,0|0,0:0|0:0,0:0:0:0:
340,242,262597,2,0,L|244:225,1,71.9999978027344,8|0,0:0|0:0,0:0:0:0:
197,180,262928,5,4,0:0:0:0:
129,233,263094,1,0,0:0:0:0:
46,209,263259,1,8,0:0:0:0:
32,122,263425,2,0,P|38:87|44:52,1,71.9999978027344,4|0,0:0|0:0,0:0:0:0:
126,79,263757,2,0,L|208:68,1,71.9999978027344,0|8,0:0|0:0,0:0:0:0:
280,46,264088,6,0,P|321:83|315:179,1,143.999995605469,4|0,0:0|0:0,0:0:0:0:
255,222,264585,2,0,L|246:308,1,71.9999978027344,8|0,0:0|0:0,0:0:0:0:
183,170,264917,2,0,L|147:178,2,35.9999989013672,8|8|0,0:0|0:0|0:0,0:0:0:0:
185,83,265248,2,0,P|149:91|114:99,1,71.9999978027344,0|8,0:0|0:0,0:0:0:0:
43,150,265580,6,0,P|40:179|38:209,1,60.0000022888184,4|0,0:0|0:0,0:0:0:0:
117,284,265911,2,0,P|120:254|122:224,1,60.0000022888184,8|0,0:0|0:0,0:0:0:0:
193,177,266243,2,0,P|229:163|323:194,1,120.000004577637,8|8,0:0|0:0,0:0:0:0:
361,243,266740,6,0,L|431:254,1,60.0000022888184,0|8,0:0|0:0,0:0:0:0:
449,173,267072,2,0,L|389:163,1,60.0000022888184,0|8,0:0|0:0,0:0:0:0:
331,102,267403,2,0,P|325:72|322:42,1,60.0000022888184,0|8,0:0|0:0,0:0:0:0:
232,87,267735,5,8,0:0:0:0:
131,98,267900,1,8,0:0:0:0:
30,109,268066,1,8,0:0:0:0:
