osu file format v14

[General]
AudioFilename: audio.mp3
AudioLeadIn: 0
PreviewTime: 51249
Countdown: 0
SampleSet: Soft
StackLeniency: 0.7
Mode: 3
LetterboxInBreaks: 0
SpecialStyle: 0
WidescreenStoryboard: 0

[Editor]
Bookmarks: 19094,28707
DistanceSpacing: 1
BeatDivisor: 4
GridSize: 4
TimelineZoom: 2

[Metadata]
Title:Wagamama MIRROR HEART
TitleUnicode:ワガママMIRROR HEART
Artist:Ayaka Ohashi
ArtistUnicode:大橋彩香
Creator:R e m u r i n g
Version:Hard
Source:政宗くんのリベンジ
Tags:Masamune-kun no revenge anime tv size Opening fontes My Angel RangE
BeatmapID:1193359
BeatmapSetID:564482

[Difficulty]
HPDrainRate:7.5
CircleSize:4
OverallDifficulty:7.5
ApproachRate:5
SliderMultiplier:1.4
SliderTickRate:1

[Events]
//Background and Video events
0,0,"anime_manga_group_girl_guy_adagaki_aki_fixed_koiwai_yoshino_makabe_masamune_masamune_kun_no_revenge_pantyhose_seifuku_shuri_kojuurou_thighhighs_tiv_1366x768.jpg",0,0
Video,0,"wagamama.avi"
//Break Periods
//Storyboard Layer 0 (Background)
//Storyboard Layer 1 (Fail)
//Storyboard Layer 2 (Pass)
//Storyboard Layer 3 (Foreground)
//Storyboard Sound Samples
Sample,38403,0,"soft-hitwhistle2.wav",50
Sample,38569,0,"soft-hitwhistle2.wav",50
Sample,56801,0,"soft-hitwhistle2.wav",50
Sample,74950,0,"soft-hitfinish.wav",30

[TimingPoints]
531,331.491712707182,4,2,1,50,1,0
52243,-100,4,2,1,50,0,1
74785,-100,4,2,1,50,0,0
76111,-100,4,2,1,50,0,1
89370,-100,4,2,1,50,0,0

[HitObjects]
64,192,1028,128,0,1359:0:0:0:0:
192,192,1359,128,0,1525:0:0:0:0:
320,192,1525,128,0,1691:0:0:0:0:
448,192,1691,128,0,1856:0:0:0:0:
192,192,1856,128,0,2188:0:0:0:0:
320,192,2188,128,0,2354:0:0:0:0:
448,192,2354,128,0,2851:0:0:0:0:
192,192,3017,128,0,3182:0:0:0:0:
320,192,3182,128,0,3514:0:0:0:0:
64,192,3514,128,0,3845:0:0:0:0:
192,192,3845,128,0,4177:0:0:0:0:
448,192,4177,128,0,4508:0:0:0:0:
192,192,4508,128,0,4840:0:0:0:0:
320,192,4840,128,0,5171:0:0:0:0:
448,192,5171,128,0,5503:0:0:0:0:
64,192,5503,128,0,5834:0:0:0:0:
192,192,5834,128,0,6000:0:0:0:0:
448,192,6000,128,0,6166:0:0:0:0:
320,192,6332,128,0,7160:0:0:0:0:
64,192,7492,1,0,0:0:0:0:
448,192,7658,1,0,0:0:0:0:
64,192,7989,128,0,8155:0:0:0:0:
192,192,8155,128,4,8486:0:0:0:0:
448,192,8155,1,0,0:0:0:0:
64,192,8486,1,0,0:0:0:50:soft-hitwhistle2.wav
448,192,8486,128,8,8818:0:0:0:0:
192,192,8818,128,0,9066:0:0:0:0:
448,192,9066,1,0,0:0:0:0:
64,192,9149,128,2,9315:0:0:0:0:
448,192,9315,128,0,9481:0:0:0:0:
320,192,9481,1,2,0:0:0:0:
64,192,9647,128,0,9978:0:0:0:0:
448,192,9812,1,2,0:0:0:0:
192,192,9978,1,0,0:0:0:0:
320,192,10061,1,0,0:0:0:0:
448,192,10144,128,2,10310:0:0:0:0:
64,192,10310,128,0,10807:0:0:0:0:
320,192,10475,1,2,0:0:0:0:
448,192,10641,128,0,10807:0:0:0:0:
192,192,10807,1,2,0:0:0:0:
320,192,10890,1,2,0:0:0:0:
64,192,10972,1,2,0:0:0:50:soft-hitwhistle2.wav
448,192,10972,1,0,0:0:0:0:
192,192,11055,1,2,0:0:0:0:
448,192,11138,128,0,11635:0:0:0:50:soft-hitwhistle2.wav
320,192,11138,1,0,0:0:0:0:
192,192,11470,1,2,0:0:0:0:
320,192,11635,1,0,0:0:0:0:
64,192,11718,1,0,0:0:0:0:
448,192,11801,1,2,0:0:0:0:
320,192,11884,1,0,0:0:0:0:
448,192,11967,1,0,0:0:0:0:
64,192,11967,1,0,0:0:0:0:
320,192,12008,1,0,0:0:0:0:
192,192,12050,1,0,0:0:0:0:
64,192,12133,1,2,0:0:0:0:
192,192,12174,1,0,0:0:0:0:
320,192,12216,1,0,0:0:0:0:
448,192,12298,128,0,12630:0:0:0:0:
64,192,12298,1,0,0:0:0:0:
192,192,12464,1,2,0:0:0:0:
64,192,12630,1,0,0:0:0:0:
192,192,12685,1,0,0:0:0:0:
320,192,12740,1,0,0:0:0:0:
448,192,12796,1,2,0:0:0:0:
64,192,12796,1,0,0:0:0:0:
320,192,12879,1,0,0:0:0:0:
192,192,12961,1,0,0:0:0:0:
448,192,12961,1,0,0:0:0:0:
64,192,13044,1,0,0:0:0:0:
448,192,13127,1,2,0:0:0:0:
192,192,13210,1,0,0:0:0:0:
320,192,13293,1,0,0:0:0:0:
448,192,13376,1,0,0:0:0:0:
192,192,13459,1,0,0:0:0:50:soft-hitwhistle2.wav
64,192,13459,128,8,13790:0:0:0:0:
320,192,13624,1,0,0:0:0:0:
192,192,13707,1,0,0:0:0:0:
320,192,13790,128,8,14122:0:0:0:0:
448,192,13790,1,2,0:0:0:0:
64,192,13956,128,2,14122:0:0:0:0:
192,192,14122,128,0,14619:0:0:0:50:soft-hitwhistle2.wav
448,192,14287,128,2,14619:0:0:0:0:
64,192,14453,1,0,0:0:0:50:soft-hitwhistle2.wav
320,192,14619,128,2,14785:0:0:0:0:
192,192,14785,128,0,14950:0:0:0:50:soft-hitwhistle2.wav
448,192,14950,128,2,15282:0:0:0:0:
64,192,15116,1,0,0:0:0:50:soft-hitwhistle2.wav
192,192,15282,128,2,15448:0:0:0:0:
320,192,15448,128,0,15613:0:0:0:50:soft-hitwhistle2.wav
448,192,15613,128,2,16111:0:0:0:0:
192,192,15779,1,0,0:0:0:50:soft-hitwhistle2.wav
64,192,15945,1,2,0:0:0:0:
320,192,16111,1,0,0:0:0:50:soft-hitwhistle2.wav
192,192,16111,1,4,0:0:0:0:
64,192,16276,1,0,0:0:0:0:
192,192,16359,1,0,0:0:0:0:
320,192,16442,1,0,0:0:0:50:soft-hitwhistle2.wav
448,192,16442,1,0,0:0:0:0:
448,192,16608,1,0,0:0:0:50:soft-hitwhistle2.wav
64,192,16608,1,0,0:0:0:0:
320,192,16691,1,0,0:0:0:0:
64,192,16774,1,0,0:0:0:50:soft-hitwhistle2.wav
192,192,16774,1,0,0:0:0:0:
192,192,16939,1,0,0:0:0:50:soft-hitwhistle2.wav
448,192,16939,1,0,0:0:0:0:
64,192,17105,1,0,0:0:0:50:soft-hitwhistle2.wav
320,192,17105,1,0,0:0:0:0:
192,192,17271,1,0,0:0:0:50:soft-hitwhistle2.wav
448,192,17271,1,0,0:0:0:0:
320,192,17437,1,0,0:0:0:50:soft-hitwhistle2.wav
64,192,17437,1,0,0:0:0:0:
64,192,17602,1,8,0:0:0:0:
448,192,17602,128,0,17934:0:0:0:50:soft-hitwhistle2.wav
192,192,17934,1,0,0:0:0:50:soft-hitwhistle2.wav
64,192,18100,1,8,0:0:0:0:
320,192,18100,128,0,18431:0:0:0:50:soft-hitwhistle2.wav
64,192,18763,1,0,0:0:0:0:
320,192,18928,1,0,0:0:0:0:
192,192,19011,1,0,0:0:0:0:
64,192,19094,1,0,0:0:0:50:soft-hitwhistle2.wav
448,192,19094,1,0,0:0:0:0:
320,192,19094,1,0,0:0:0:0:
320,192,19260,1,0,0:0:0:0:
64,192,19426,1,0,0:0:0:50:soft-hitwhistle2.wav
192,192,19426,1,0,0:0:0:0:
448,192,19591,1,0,0:0:0:0:
320,192,19757,1,0,0:0:0:50:soft-hitwhistle2.wav
192,192,19757,1,0,0:0:0:0:
64,192,19923,1,0,0:0:0:0:
320,192,20089,1,0,0:0:0:50:soft-hitwhistle2.wav
448,192,20089,1,0,0:0:0:0:
64,192,20254,1,0,0:0:0:0:
192,192,20337,1,0,0:0:0:0:
320,192,20420,1,0,0:0:0:50:soft-hitwhistle2.wav
448,192,20420,1,0,0:0:0:0:
64,192,20586,1,0,0:0:0:0:
192,192,20751,1,0,0:0:0:50:soft-hitwhistle2.wav
320,192,20751,1,0,0:0:0:0:
448,192,20917,1,0,0:0:0:0:
64,192,21083,1,0,0:0:0:50:soft-hitwhistle2.wav
192,192,21083,1,0,0:0:0:0:
320,192,21249,1,0,0:0:0:0:
64,192,21414,1,0,0:0:0:50:soft-hitwhistle2.wav
448,192,21414,1,8,0:0:0:0:
192,192,21580,1,0,0:0:0:0:
320,192,21746,1,0,0:0:0:50:soft-hitwhistle2.wav
448,192,21746,1,0,0:0:0:0:
64,192,21912,1,0,0:0:0:0:
192,192,22077,1,0,0:0:0:50:soft-hitwhistle2.wav
320,192,22077,1,0,0:0:0:0:
448,192,22243,1,0,0:0:0:0:
64,192,22409,1,0,0:0:0:50:soft-hitwhistle2.wav
192,192,22409,1,0,0:0:0:0:
320,192,22575,1,0,0:0:0:0:
64,192,22740,1,0,0:0:0:50:soft-hitwhistle2.wav
192,192,22740,1,0,0:0:0:0:
320,192,22906,1,0,0:0:0:0:
448,192,22989,1,0,0:0:0:0:
64,192,23072,1,0,0:0:0:50:soft-hitwhistle2.wav
192,192,23072,1,0,0:0:0:0:
192,192,23238,1,0,0:0:0:0:
320,192,23403,1,0,0:0:0:50:soft-hitwhistle2.wav
448,192,23403,1,0,0:0:0:0:
192,192,23569,1,0,0:0:0:0:
64,192,23652,1,0,0:0:0:0:
320,192,23735,1,0,0:0:0:50:soft-hitwhistle2.wav
448,192,23735,1,0,0:0:0:0:
192,192,23901,1,0,0:0:0:0:
64,192,24066,1,0,0:0:0:50:soft-hitwhistle2.wav
448,192,24066,1,8,0:0:0:0:
320,192,24232,1,0,0:0:0:0:
64,192,24398,1,0,0:0:0:50:soft-hitwhistle2.wav
192,192,24398,1,0,0:0:0:30:soft-hitfinish.wav
448,192,24398,1,0,0:0:0:0:
192,192,24564,1,0,0:0:0:0:
448,192,24729,1,0,0:0:0:50:soft-hitwhistle2.wav
320,192,24729,1,0,0:0:0:0:
64,192,24895,1,0,0:0:0:0:
448,192,25061,1,0,0:0:0:50:soft-hitwhistle2.wav
320,192,25061,1,0,0:0:0:0:
192,192,25227,1,0,0:0:0:0:
320,192,25392,1,0,0:0:0:50:soft-hitwhistle2.wav
448,192,25392,1,0,0:0:0:0:
64,192,25558,1,0,0:0:0:0:
192,192,25724,1,0,0:0:0:50:soft-hitwhistle2.wav
320,192,25724,1,0,0:0:0:0:
448,192,25890,1,0,0:0:0:0:
64,192,26055,1,0,0:0:0:50:soft-hitwhistle2.wav
192,192,26055,1,0,0:0:0:0:
320,192,26221,1,0,0:0:0:0:
192,192,26387,1,0,0:0:0:50:soft-hitwhistle2.wav
64,192,26387,1,0,0:0:0:0:
320,192,26553,1,0,0:0:0:0:
448,192,26718,1,0,0:0:0:50:soft-hitwhistle2.wav
64,192,26718,1,8,0:0:0:0:
192,192,26884,1,0,0:0:0:0:
320,192,27050,1,0,0:0:0:50:soft-hitwhistle2.wav
448,192,27050,1,0,0:0:0:0:
192,192,27216,1,0,0:0:0:0:
320,192,27381,1,0,0:0:0:50:soft-hitwhistle2.wav
448,192,27381,1,0,0:0:0:0:
64,192,27547,1,0,0:0:0:0:
320,192,27713,1,0,0:0:0:50:soft-hitwhistle2.wav
192,192,27713,1,0,0:0:0:0:
448,192,27879,1,0,0:0:0:0:
64,192,28044,1,0,0:0:0:50:soft-hitwhistle2.wav
192,192,28044,1,0,0:0:0:0:
320,192,28210,1,0,0:0:0:0:
64,192,28376,1,0,0:0:0:50:soft-hitwhistle2.wav
192,192,28376,1,0,0:0:0:0:
320,192,28542,1,0,0:0:0:0:
192,192,28624,1,0,0:0:0:0:
64,192,28707,1,0,0:0:0:30:soft-hitfinish.wav
448,192,28707,1,0,0:0:0:50:soft-hitwhistle2.wav
192,192,28873,1,0,0:0:0:0:
448,192,29039,1,0,0:0:0:50:soft-hitwhistle2.wav
64,192,29039,1,8,0:0:0:0:
192,192,29122,1,0,0:0:0:50:soft-hitwhistle2.wav
320,192,29122,1,8,0:0:0:0:
64,192,29205,1,0,0:0:0:50:soft-hitwhistle2.wav
448,192,29205,1,8,0:0:0:0:
192,192,29370,1,0,0:0:0:50:soft-hitwhistle2.wav
320,192,29370,1,8,0:0:0:0:
448,192,29536,1,0,0:0:0:50:soft-hitwhistle2.wav
64,192,29536,128,4,29868:0:0:0:0:
320,192,29868,1,0,0:0:0:0:
64,192,30033,1,0,0:0:0:50:soft-hitwhistle2.wav
448,192,30033,1,8,0:0:0:0:
192,192,30199,1,0,0:0:0:0:
320,192,30365,1,0,0:0:0:50:soft-hitwhistle2.wav
448,192,30365,1,0,0:0:0:0:
192,192,30530,1,0,0:0:0:0:
64,192,30696,1,0,0:0:0:50:soft-hitwhistle2.wav
448,192,30696,1,8,0:0:0:0:
320,192,30862,128,0,31193:0:0:0:0:
64,192,31028,1,0,0:0:0:50:soft-hitwhistle2.wav
192,192,31028,1,0,0:0:0:0:
448,192,31193,1,0,0:0:0:0:
64,192,31359,1,0,0:0:0:50:soft-hitwhistle2.wav
320,192,31359,1,8,0:0:0:0:
192,192,31525,1,0,0:0:0:0:
320,192,31691,1,0,0:0:0:50:soft-hitwhistle2.wav
448,192,31691,1,0,0:0:0:0:
192,192,31856,1,0,0:0:0:0:
64,192,32022,1,8,0:0:0:0:
320,192,32022,1,0,0:0:0:50:soft-hitwhistle2.wav
192,192,32188,1,0,0:0:0:0:
448,192,32354,1,0,0:0:0:0:
320,192,32354,128,0,32685:0:0:0:50:soft-hitwhistle2.wav
192,192,32519,1,0,0:0:0:0:
64,192,32685,1,0,0:0:0:50:soft-hitwhistle2.wav
448,192,32685,1,8,0:0:0:0:
320,192,32851,1,0,0:0:0:0:
64,192,33017,1,0,0:0:0:50:soft-hitwhistle2.wav
192,192,33017,1,0,0:0:0:0:
320,192,33182,1,0,0:0:0:0:
64,192,33348,1,0,0:0:0:50:soft-hitwhistle2.wav
448,192,33348,1,8,0:0:0:0:
192,192,33514,128,0,34011:0:0:0:0:
320,192,33680,1,0,0:0:0:50:soft-hitwhistle2.wav
448,192,33680,1,0,0:0:0:0:
320,192,33845,1,0,0:0:0:0:
64,192,34011,1,0,0:0:0:50:soft-hitwhistle2.wav
448,192,34011,1,8,0:0:0:0:
320,192,34177,1,0,0:0:0:0:
192,192,34343,1,0,0:0:0:50:soft-hitwhistle2.wav
64,192,34343,128,0,34674:0:0:0:0:
448,192,34674,1,0,0:0:0:50:soft-hitwhistle2.wav
192,192,34674,128,8,35006:0:0:0:0:
320,192,35006,1,0,0:0:0:50:soft-hitwhistle2.wav
448,192,35006,1,0,0:0:0:0:
64,192,35171,1,0,0:0:0:0:
192,192,35337,1,0,0:0:0:50:soft-hitwhistle2.wav
320,192,35337,1,8,0:0:0:0:
448,192,35503,1,0,0:0:0:0:
64,192,35669,1,0,0:0:0:50:soft-hitwhistle2.wav
192,192,35669,1,0,0:0:0:0:
320,192,35834,1,0,0:0:0:0:
64,192,36000,1,0,0:0:0:50:soft-hitwhistle2.wav
448,192,36000,1,8,0:0:0:0:
192,192,36166,1,0,0:0:0:0:
320,192,36332,1,0,0:0:0:50:soft-hitwhistle2.wav
448,192,36332,1,0,0:0:0:0:
192,192,36497,1,0,0:0:0:0:
64,192,36663,1,0,0:0:0:50:soft-hitwhistle2.wav
448,192,36663,1,8,0:0:0:0:
320,192,36829,1,0,0:0:0:0:
64,192,36995,1,0,0:0:0:50:soft-hitwhistle2.wav
192,192,36995,1,0,0:0:0:0:
320,192,37160,1,8,0:0:0:0:
448,192,37160,1,0,0:0:0:50:soft-hitwhistle2.wav
64,192,37243,1,8,0:0:0:0:
192,192,37243,1,0,0:0:0:50:soft-hitwhistle2.wav
320,192,37326,1,8,0:0:0:0:
448,192,37326,1,0,0:0:0:50:soft-hitwhistle2.wav
64,192,37492,1,0,0:0:0:50:soft-hitwhistle2.wav
192,192,37492,128,0,37823:0:0:0:0:
320,192,37823,128,0,37989:0:0:0:0:
64,192,37989,1,8,0:0:0:0:
448,192,37989,1,0,0:0:0:0:
192,192,38155,1,0,0:0:0:0:
320,192,38238,1,0,0:0:0:0:
448,192,38321,1,8,0:0:0:0:
64,192,38321,1,0,0:0:0:50:soft-hitwhistle2.wav
192,192,38403,1,8,0:0:0:0:
320,192,38486,1,8,0:0:0:0:
448,192,38486,1,0,0:0:0:50:soft-hitwhistle2.wav
192,192,38569,1,8,0:0:0:0:
448,192,38652,1,8,0:0:0:0:
64,192,38652,1,0,0:0:0:50:soft-hitwhistle2.wav
320,192,38652,1,0,0:0:0:0:
64,192,38818,128,0,38984:0:0:0:50:soft-hitwhistle2.wav
448,192,38818,128,0,38984:0:0:0:0:
192,192,39149,128,0,39315:0:0:0:50:soft-hitwhistle2.wav
448,192,39149,128,0,39315:0:0:0:0:
320,192,39315,1,8,0:0:0:0:
192,192,39481,128,0,39812:0:0:0:50:soft-hitwhistle2.wav
320,192,39481,128,0,39812:0:0:0:0:
64,192,39812,1,0,0:0:0:50:soft-hitwhistle2.wav
448,192,39978,128,0,40310:0:0:0:50:soft-hitwhistle2.wav
320,192,39978,128,0,40310:0:0:0:30:soft-hitfinish.wav
64,192,40310,1,0,0:0:0:50:soft-hitwhistle2.wav
192,192,40310,1,8,0:0:0:0:
320,192,40475,1,0,0:0:0:50:soft-hitwhistle2.wav
448,192,40475,1,8,0:0:0:0:
64,192,40641,1,0,0:0:0:50:soft-hitwhistle2.wav
192,192,40641,1,8,0:0:0:0:
448,192,40807,1,0,0:0:0:0:
320,192,40972,1,0,0:0:0:0:
64,192,41138,1,0,0:0:0:50:soft-hitwhistle2.wav
192,192,41138,1,0,0:0:0:0:
64,192,41304,1,0,0:0:0:50:soft-hitwhistle2.wav
448,192,41304,1,8,0:0:0:0:
192,192,41470,1,0,0:0:0:50:soft-hitwhistle2.wav
448,192,41470,128,0,41967:0:0:0:0:
64,192,41801,1,0,0:0:0:50:soft-hitwhistle2.wav
192,192,41801,1,0,0:0:0:0:
64,192,41967,1,0,0:0:0:50:soft-hitwhistle2.wav
320,192,41967,1,8,0:0:0:0:
64,192,42298,1,0,0:0:0:50:soft-hitwhistle2.wav
448,192,42298,128,0,42630:0:0:0:0:
320,192,42464,1,0,0:0:0:50:soft-hitwhistle2.wav
192,192,42464,1,0,0:0:0:0:
320,192,42630,128,0,42961:0:0:0:50:soft-hitwhistle2.wav
64,192,42630,1,8,0:0:0:0:
64,192,42961,1,0,0:0:0:50:soft-hitwhistle2.wav
448,192,42961,1,8,0:0:0:0:
192,192,43127,1,0,0:0:0:50:soft-hitwhistle2.wav
320,192,43127,1,8,0:0:0:0:
64,192,43293,1,0,0:0:0:50:soft-hitwhistle2.wav
448,192,43293,1,8,0:0:0:0:
320,192,43459,1,0,0:0:0:0:
64,192,43624,1,0,0:0:0:0:
192,192,43790,1,0,0:0:0:50:soft-hitwhistle2.wav
448,192,43790,1,0,0:0:0:0:
64,192,43956,1,0,0:0:0:50:soft-hitwhistle2.wav
448,192,43956,1,8,0:0:0:0:
192,192,44122,1,0,0:0:0:50:soft-hitwhistle2.wav
320,192,44122,128,0,44453:0:0:0:0:
192,192,44453,1,0,0:0:0:50:soft-hitwhistle2.wav
448,192,44453,128,0,44619:0:0:0:0:
64,192,44619,1,0,0:0:0:50:soft-hitwhistle2.wav
320,192,44619,1,0,0:0:0:0:
64,192,44950,128,0,45282:0:0:0:50:soft-hitwhistle2.wav
448,192,44950,1,0,0:0:0:0:
192,192,45116,1,0,0:0:0:50:soft-hitwhistle2.wav
320,192,45116,1,0,0:0:0:0:
192,192,45282,1,0,0:0:0:50:soft-hitwhistle2.wav
448,192,45282,128,8,45613:0:0:0:0:
64,192,45613,128,0,45945:0:0:0:0:
448,192,46111,128,0,46442:0:0:0:0:
64,192,46608,128,0,46939:0:0:0:0:
320,192,47105,128,0,47437:0:0:0:0:
448,192,47602,1,0,0:0:0:50:soft-hitwhistle2.wav
64,192,47602,1,8,0:0:0:0:
192,192,47602,128,0,47934:0:0:0:0:
448,192,47934,1,0,0:0:0:50:soft-hitwhistle2.wav
64,192,47934,1,8,0:0:0:0:
320,192,47934,128,0,48265:0:0:0:0:
64,192,48265,1,0,0:0:0:50:soft-hitwhistle2.wav
448,192,48265,1,0,0:0:0:30:soft-hitfinish.wav
320,192,48431,1,0,0:0:0:50:soft-hitwhistle2.wav
192,192,48431,1,0,0:0:0:0:
64,192,48597,1,0,0:0:0:50:soft-hitwhistle2.wav
448,192,48597,1,8,0:0:0:0:
192,192,48763,1,2,0:0:0:0:
320,192,48845,1,0,0:0:0:0:
448,192,48928,1,2,0:0:0:0:
192,192,49094,1,0,0:0:0:50:soft-hitwhistle2.wav
320,192,49094,1,0,0:0:0:0:
448,192,49260,1,0,0:0:0:50:soft-hitwhistle2.wav
64,192,49260,1,8,0:0:0:0:
192,192,49426,1,0,0:0:0:50:soft-hitwhistle2.wav
320,192,49426,1,0,0:0:0:0:
64,192,49757,1,0,0:0:0:50:soft-hitwhistle2.wav
192,192,49757,1,0,0:0:0:0:
320,192,49923,1,0,0:0:0:50:soft-hitwhistle2.wav
448,192,49923,1,0,0:0:0:0:
192,192,50089,1,0,0:0:0:50:soft-hitwhistle2.wav
320,192,50089,1,0,0:0:0:0:
64,192,50254,1,0,0:0:0:50:soft-hitwhistle2.wav
192,192,50254,1,0,0:0:0:0:
64,192,50503,1,0,0:0:0:50:soft-hitwhistle2.wav
320,192,50503,1,0,0:0:0:0:
192,192,50751,1,0,0:0:0:50:soft-hitwhistle2.wav
448,192,50751,1,0,0:0:0:0:
64,192,50917,1,0,0:0:0:50:soft-hitwhistle2.wav
320,192,50917,1,8,0:0:0:0:
192,192,51249,128,0,51746:0:0:0:0:
320,192,51414,128,0,51746:0:0:0:0:
448,192,51746,128,0,51912:0:0:0:0:
64,192,51912,128,8,52077:0:0:0:0:
320,192,52077,128,0,52243:0:0:0:0:
64,192,52243,1,4,0:0:0:0:
448,192,52243,128,8,52575:0:0:0:0:
192,192,52575,128,0,52740:0:0:0:50:soft-hitwhistle2.wav
64,192,52575,1,0,0:0:0:0:
320,192,52740,128,2,53072:0:0:0:0:
448,192,52906,1,0,0:0:0:50:soft-hitwhistle2.wav
64,192,52906,1,0,0:0:0:0:
192,192,53072,1,2,0:0:0:0:
64,192,53238,1,0,0:0:0:50:soft-hitwhistle2.wav
448,192,53238,1,8,0:0:0:0:
320,192,53403,1,2,0:0:0:0:
64,192,53569,1,0,0:0:0:50:soft-hitwhistle2.wav
192,192,53569,128,0,53901:0:0:0:0:
320,192,53901,1,0,0:0:0:50:soft-hitwhistle2.wav
448,192,53901,128,8,54232:0:0:0:0:
64,192,54232,128,0,54564:0:0:0:50:soft-hitwhistle2.wav
320,192,54232,1,0,0:0:0:0:
192,192,54564,128,0,54895:0:0:0:50:soft-hitwhistle2.wav
320,192,54564,1,8,0:0:0:0:
448,192,54895,128,0,55061:0:0:0:50:soft-hitwhistle2.wav
320,192,54895,1,0,0:0:0:0:
192,192,55061,1,2,0:0:0:0:
64,192,55227,1,0,0:0:0:50:soft-hitwhistle2.wav
320,192,55227,1,8,0:0:0:0:
448,192,55392,1,2,0:0:0:0:
64,192,55558,128,0,55724:0:0:0:50:soft-hitwhistle2.wav
320,192,55724,1,2,0:0:0:0:
448,192,55890,1,0,0:0:0:50:soft-hitwhistle2.wav
192,192,55890,1,8,0:0:0:0:
320,192,56055,1,2,0:0:0:0:
64,192,56221,128,0,56387:0:0:0:50:soft-hitwhistle2.wav
192,192,56221,1,0,0:0:0:0:
448,192,56387,128,2,56553:0:0:0:0:
64,192,56553,1,0,0:0:0:50:soft-hitwhistle2.wav
320,192,56553,1,8,0:0:0:0:
192,192,56718,128,0,57216:0:0:0:50:soft-hitwhistle2.wav
448,192,56884,1,0,0:0:0:50:soft-hitwhistle2.wav
320,192,57050,1,2,0:0:0:0:
64,192,57216,1,0,0:0:0:50:soft-hitwhistle2.wav
448,192,57216,1,8,0:0:0:0:
320,192,57381,1,2,0:0:0:0:
192,192,57464,1,0,0:0:0:0:
64,192,57547,1,8,0:0:0:0:
448,192,57547,1,4,0:0:0:0:
320,192,57713,1,2,0:0:0:0:
64,192,57879,1,0,0:0:0:50:soft-hitwhistle2.wav
192,192,57879,1,8,0:0:0:0:
320,192,58044,1,2,0:0:0:0:
448,192,58210,1,0,0:0:0:50:soft-hitwhistle2.wav
192,192,58210,1,0,0:0:0:0:
64,192,58376,1,2,0:0:0:0:
320,192,58542,1,0,0:0:0:50:soft-hitwhistle2.wav
448,192,58542,1,8,0:0:0:0:
64,192,58707,128,2,59205:0:0:0:0:
448,192,58873,1,0,0:0:0:50:soft-hitwhistle2.wav
320,192,58873,1,0,0:0:0:0:
320,192,59039,1,2,0:0:0:0:
192,192,59205,1,0,0:0:0:50:soft-hitwhistle2.wav
448,192,59205,128,8,59536:0:0:0:0:
64,192,59370,1,2,0:0:0:0:
320,192,59536,128,0,59868:0:0:0:50:soft-hitwhistle2.wav
192,192,59536,1,0,0:0:0:0:
448,192,59702,1,2,0:0:0:0:
192,192,59868,128,0,60199:0:0:0:50:soft-hitwhistle2.wav
64,192,59868,1,8,0:0:0:0:
448,192,60033,1,2,0:0:0:0:
320,192,60199,1,0,0:0:0:50:soft-hitwhistle2.wav
64,192,60199,128,0,60530:0:0:0:0:
448,192,60365,1,2,0:0:0:0:
448,192,60530,1,0,0:0:0:50:soft-hitwhistle2.wav
192,192,60530,1,8,0:0:0:0:
320,192,60696,128,2,60862:0:0:0:0:
64,192,60862,1,0,0:0:0:50:soft-hitwhistle2.wav
192,192,60862,1,0,0:0:0:0:
448,192,61028,1,2,0:0:0:0:
64,192,61193,1,0,0:0:0:50:soft-hitwhistle2.wav
320,192,61193,1,8,0:0:0:0:
192,192,61359,128,2,61856:0:0:0:0:
448,192,61359,1,0,0:0:0:0:
448,192,61691,1,0,0:0:0:50:soft-hitwhistle2.wav
320,192,61691,1,0,0:0:0:0:
64,192,61856,1,0,0:0:0:50:soft-hitwhistle2.wav
448,192,61856,1,8,0:0:0:0:
320,192,62022,1,0,0:0:0:50:soft-hitwhistle2.wav
192,192,62022,1,0,0:0:0:0:
64,192,62188,128,0,62354:0:0:0:50:soft-hitwhistle2.wav
448,192,62188,1,0,0:0:0:0:
320,192,62354,128,0,62519:0:0:0:0:
64,192,62519,128,8,62851:0:0:0:0:
192,192,62519,128,0,62685:0:0:0:0:
448,192,62685,128,0,62851:0:0:0:0:
320,192,62851,1,0,0:0:0:50:soft-hitwhistle2.wav
192,192,62851,1,0,0:0:0:0:
64,192,63017,1,0,0:0:0:50:soft-hitwhistle2.wav
192,192,63017,1,0,0:0:0:0:
320,192,63182,1,0,0:0:0:50:soft-hitwhistle2.wav
448,192,63182,1,0,0:0:0:0:
320,192,63348,1,0,0:0:0:50:soft-hitwhistle2.wav
192,192,63348,1,0,0:0:0:0:
192,192,63514,1,0,0:0:0:50:soft-hitwhistle2.wav
64,192,63514,1,8,0:0:0:0:
320,192,63680,1,0,0:0:0:50:soft-hitwhistle2.wav
448,192,63680,1,8,0:0:0:0:
192,192,63845,1,2,0:0:0:0:
320,192,63928,1,2,0:0:0:0:
448,192,64011,1,0,0:0:0:50:soft-hitwhistle2.wav
64,192,64011,1,8,0:0:0:0:
192,192,64177,128,0,64508:0:0:0:0:
448,192,64343,1,2,0:0:0:0:
320,192,64508,128,0,64840:0:0:0:50:soft-hitwhistle2.wav
64,192,64508,1,8,0:0:0:0:
448,192,64674,1,2,0:0:0:0:
192,192,64840,128,0,65171:0:0:0:50:soft-hitwhistle2.wav
64,192,64840,1,0,0:0:0:0:
448,192,65006,1,2,0:0:0:0:
448,192,65171,128,0,65503:0:0:0:50:soft-hitwhistle2.wav
64,192,65171,1,8,0:0:0:0:
320,192,65337,1,2,0:0:0:0:
64,192,65503,1,0,0:0:0:50:soft-hitwhistle2.wav
192,192,65503,1,0,0:0:0:0:
320,192,65669,1,0,0:0:0:50:soft-hitwhistle2.wav
448,192,65669,1,0,0:0:0:0:
64,192,65834,1,0,0:0:0:50:soft-hitwhistle2.wav
192,192,65834,1,4,0:0:0:0:
320,192,66166,1,0,0:0:0:50:soft-hitwhistle2.wav
448,192,66166,1,0,0:0:0:0:
64,192,66332,1,0,0:0:0:50:soft-hitwhistle2.wav
192,192,66332,1,0,0:0:0:0:
320,192,66497,1,0,0:0:0:50:soft-hitwhistle2.wav
448,192,66497,1,4,0:0:0:0:
64,192,66829,1,0,0:0:0:50:soft-hitwhistle2.wav
192,192,66829,1,0,0:0:0:0:
192,192,66995,1,0,0:0:0:50:soft-hitwhistle2.wav
320,192,66995,1,0,0:0:0:0:
64,192,67160,1,0,0:0:0:50:soft-hitwhistle2.wav
448,192,67160,1,4,0:0:0:0:
192,192,67326,1,0,0:0:0:50:soft-hitwhistle2.wav
320,192,67326,1,0,0:0:0:0:
64,192,67658,1,0,0:0:0:50:soft-hitwhistle2.wav
448,192,67658,1,0,0:0:0:0:
192,192,67740,1,0,0:0:0:0:
320,192,67823,1,0,0:0:0:50:soft-hitwhistle2.wav
448,192,67823,128,8,68155:0:0:0:0:
64,192,68155,1,0,0:0:0:50:soft-hitwhistle2.wav
192,192,68155,1,8,0:0:0:0:
320,192,68321,1,2,0:0:0:0:
64,192,68486,1,0,0:0:0:50:soft-hitwhistle2.wav
448,192,68486,1,8,0:0:0:0:
192,192,68652,1,2,0:0:0:0:
320,192,68818,1,0,0:0:0:50:soft-hitwhistle2.wav
448,192,68818,1,0,0:0:0:0:
192,192,68984,1,2,0:0:0:0:
64,192,69149,1,0,0:0:0:50:soft-hitwhistle2.wav
448,192,69149,1,8,0:0:0:0:
320,192,69315,1,2,0:0:0:0:
192,192,69481,1,0,0:0:0:50:soft-hitwhistle2.wav
64,192,69481,128,0,69647:0:0:0:0:
320,192,69647,128,2,69812:0:0:0:0:
64,192,69812,1,0,0:0:0:50:soft-hitwhistle2.wav
192,192,69812,128,8,69978:0:0:0:0:
448,192,69978,128,2,70310:0:0:0:0:
320,192,70144,1,0,0:0:0:0:
64,192,70310,1,2,0:0:0:0:
192,192,70475,1,0,0:0:0:50:soft-hitwhistle2.wav
448,192,70475,1,8,0:0:0:0:
320,192,70641,1,2,0:0:0:0:
64,192,70807,1,0,0:0:0:50:soft-hitwhistle2.wav
192,192,70807,1,0,0:0:0:0:
320,192,70972,1,0,0:0:0:50:soft-hitwhistle2.wav
448,192,70972,1,0,0:0:0:0:
64,192,71138,1,0,0:0:0:50:soft-hitwhistle2.wav
448,192,71138,1,8,0:0:0:0:
192,192,71304,1,0,0:0:0:50:soft-hitwhistle2.wav
320,192,71304,1,0,0:0:0:0:
64,192,71470,1,0,0:0:0:50:soft-hitwhistle2.wav
192,192,71470,1,0,0:0:0:0:
320,192,71635,1,0,0:0:0:50:soft-hitwhistle2.wav
448,192,71635,1,0,0:0:0:0:
64,192,71801,1,0,0:0:0:50:soft-hitwhistle2.wav
320,192,71801,1,8,0:0:0:0:
192,192,71967,1,2,0:0:0:0:
448,192,71967,128,0,72298:0:0:0:0:
64,192,71967,1,0,0:0:0:0:
64,192,72298,1,0,0:0:0:50:soft-hitwhistle2.wav
320,192,72298,1,8,0:0:0:0:
192,192,72381,1,0,0:0:0:50:soft-hitwhistle2.wav
448,192,72381,1,8,0:0:0:0:
64,192,72464,1,0,0:0:0:50:soft-hitwhistle2.wav
320,192,72464,1,8,0:0:0:0:
320,192,72630,1,0,0:0:0:50:soft-hitwhistle2.wav
448,192,72630,1,0,0:0:0:0:
64,192,72796,1,0,0:0:0:50:soft-hitwhistle2.wav
192,192,72796,1,8,0:0:0:0:
320,192,72879,1,0,0:0:0:50:soft-hitwhistle2.wav
448,192,72879,1,8,0:0:0:0:
192,192,72961,1,0,0:0:0:50:soft-hitwhistle2.wav
64,192,72961,1,8,0:0:0:0:
320,192,73127,1,0,0:0:0:50:soft-hitwhistle2.wav
192,192,73127,1,0,0:0:0:0:
448,192,73293,1,8,0:0:0:0:
320,192,73293,1,0,0:0:0:0:
192,192,73376,1,8,0:0:0:0:
64,192,73376,1,0,0:0:0:0:
448,192,73459,1,0,0:0:0:50:soft-hitwhistle2.wav
320,192,73459,1,0,0:0:0:0:
320,192,73624,1,2,0:0:0:0:
448,192,73624,1,0,0:0:0:0:
192,192,73790,1,0,0:0:0:50:soft-hitwhistle2.wav
64,192,73790,1,0,0:0:0:0:
192,192,73956,1,2,0:0:0:0:
320,192,73956,1,0,0:0:0:0:
192,192,74122,1,0,0:0:0:50:soft-hitwhistle2.wav
320,192,74122,1,0,0:0:0:0:
448,192,74287,1,2,0:0:0:0:
64,192,74453,1,0,0:0:0:50:soft-hitwhistle2.wav
192,192,74453,1,0,0:0:0:0:
64,192,74619,1,2,0:0:0:0:
192,192,74619,1,0,0:0:0:0:
448,192,74785,1,0,0:0:0:50:soft-hitwhistle2.wav
320,192,74785,1,0,0:0:0:0:
64,192,74950,1,0,0:0:0:50:soft-hitwhistle2.wav
192,192,74950,1,8,0:0:0:0:
320,192,75116,1,0,0:0:0:50:soft-hitwhistle2.wav
64,192,75116,1,0,0:0:0:0:
192,192,75282,1,0,0:0:0:50:soft-hitwhistle2.wav
448,192,75282,1,0,0:0:0:0:
64,192,75448,1,0,0:0:0:50:soft-hitwhistle2.wav
320,192,75448,128,0,75779:0:0:0:0:
192,192,75779,1,0,0:0:0:50:soft-hitwhistle2.wav
448,192,75779,128,8,76111:0:0:0:0:
320,192,76111,1,0,0:0:0:50:soft-hitwhistle2.wav
64,192,76111,128,8,76442:0:0:0:0:
192,192,76442,1,0,0:0:0:50:soft-hitwhistle2.wav
448,192,76442,128,8,76774:0:0:0:0:
320,192,76774,1,0,0:0:0:50:soft-hitwhistle2.wav
192,192,76774,128,0,77105:0:0:0:0:
64,192,77105,1,0,0:0:0:50:soft-hitwhistle2.wav
320,192,77105,128,8,77437:0:0:0:0:
192,192,77437,1,0,0:0:0:50:soft-hitwhistle2.wav
448,192,77437,128,0,77768:0:0:0:0:
64,192,77768,1,0,0:0:0:50:soft-hitwhistle2.wav
320,192,77768,128,8,78100:0:0:0:0:
64,192,78100,1,0,0:0:0:50:soft-hitwhistle2.wav
192,192,78100,128,0,78431:0:0:0:0:
320,192,78431,1,0,0:0:0:50:soft-hitwhistle2.wav
448,192,78431,128,8,78763:0:0:0:0:
64,192,78763,1,0,0:0:0:50:soft-hitwhistle2.wav
192,192,78763,128,0,79094:0:0:0:0:
448,192,79094,1,0,0:0:0:50:soft-hitwhistle2.wav
320,192,79094,128,8,79260:0:0:0:0:
64,192,79260,128,2,79426:0:0:0:0:
192,192,79426,1,0,0:0:0:50:soft-hitwhistle2.wav
448,192,79426,1,0,0:0:0:0:
320,192,79591,128,2,79757:0:0:0:0:
64,192,79757,1,0,0:0:0:50:soft-hitwhistle2.wav
192,192,79757,1,8,0:0:0:0:
448,192,79923,128,2,80089:0:0:0:0:
320,192,80089,128,0,80420:0:0:0:50:soft-hitwhistle2.wav
64,192,80089,1,0,0:0:0:0:
64,192,80420,1,0,0:0:0:50:soft-hitwhistle2.wav
192,192,80420,1,8,0:0:0:0:
320,192,80586,128,2,80751:0:0:0:0:
448,192,80751,128,0,81414:0:0:0:50:soft-hitwhistle2.wav
64,192,80751,1,0,0:0:0:0:
64,192,81083,1,0,0:0:0:50:soft-hitwhistle2.wav
192,192,81083,1,8,0:0:0:0:
320,192,81249,1,2,0:0:0:0:
64,192,81414,1,0,0:0:0:50:soft-hitwhistle2.wav
192,192,81414,1,8,0:0:0:0:
320,192,81580,1,2,0:0:0:0:
448,192,81746,1,0,0:0:0:50:soft-hitwhistle2.wav
192,192,81912,1,2,0:0:0:0:
448,192,82077,1,0,0:0:0:50:soft-hitwhistle2.wav
320,192,82077,1,0,0:0:0:0:
192,192,82243,1,2,0:0:0:0:
64,192,82243,1,0,0:0:0:0:
320,192,82409,1,8,0:0:0:0:
448,192,82409,1,0,0:0:0:50:soft-hitwhistle2.wav
64,192,82575,1,2,0:0:0:0:
192,192,82740,1,0,0:0:0:50:soft-hitwhistle2.wav
448,192,82740,1,0,0:0:0:0:
320,192,82906,1,2,0:0:0:0:
64,192,83072,1,0,0:0:0:50:soft-hitwhistle2.wav
192,192,83072,1,8,0:0:0:0:
320,192,83238,1,2,0:0:0:0:
64,192,83403,1,0,0:0:0:50:soft-hitwhistle2.wav
448,192,83403,1,0,0:0:0:0:
192,192,83569,1,2,0:0:0:0:
320,192,83735,1,0,0:0:0:50:soft-hitwhistle2.wav
448,192,83735,1,8,0:0:0:0:
64,192,84066,128,0,84398:0:0:0:50:soft-hitwhistle2.wav
448,192,84066,1,0,0:0:0:0:
192,192,84232,1,0,0:0:0:50:soft-hitwhistle2.wav
448,192,84398,1,0,0:0:0:50:soft-hitwhistle2.wav
320,192,84398,1,4,0:0:0:0:
448,192,84729,1,0,0:0:0:50:soft-hitwhistle2.wav
192,192,84729,128,0,85061:0:0:0:0:
320,192,84895,1,0,0:0:0:50:soft-hitwhistle2.wav
448,192,85061,1,0,0:0:0:50:soft-hitwhistle2.wav
64,192,85061,1,4,0:0:0:0:
320,192,85392,128,0,85724:0:0:0:50:soft-hitwhistle2.wav
64,192,85392,1,0,0:0:0:0:
192,192,85558,1,0,0:0:0:50:soft-hitwhistle2.wav
64,192,85724,1,0,0:0:0:50:soft-hitwhistle2.wav
448,192,85724,1,4,0:0:0:0:
448,192,86055,128,0,86387:0:0:0:50:soft-hitwhistle2.wav
64,192,86055,1,0,0:0:0:0:
320,192,86221,1,0,0:0:0:50:soft-hitwhistle2.wav
64,192,86387,1,0,0:0:0:50:soft-hitwhistle2.wav
192,192,86387,1,4,0:0:0:0:
192,192,86718,1,0,0:0:0:50:soft-hitwhistle2.wav
320,192,86718,1,0,0:0:0:0:
64,192,86884,1,2,0:0:0:0:
192,192,87050,1,0,0:0:0:50:soft-hitwhistle2.wav
448,192,87050,1,0,0:0:0:0:
64,192,87216,128,2,89205:0:0:0:0:
448,192,87216,1,0,0:0:0:0:
320,192,87381,1,0,0:0:0:50:soft-hitwhistle2.wav
448,192,87547,1,2,0:0:0:0:
192,192,87713,1,0,0:0:0:50:soft-hitwhistle2.wav
320,192,87879,1,2,0:0:0:0:
448,192,88044,1,0,0:0:0:50:soft-hitwhistle2.wav
192,192,88210,1,2,0:0:0:0:
320,192,88376,1,0,0:0:0:50:soft-hitwhistle2.wav
448,192,88542,1,2,0:0:0:0:
192,192,88707,1,0,0:0:0:50:soft-hitwhistle2.wav
320,192,88707,1,8,0:0:0:0:
192,192,88873,1,0,0:0:0:50:soft-hitwhistle2.wav
320,192,88873,1,8,0:0:0:0:
192,192,89039,1,0,0:0:0:50:soft-hitwhistle2.wav
448,192,89039,1,8,0:0:0:0:
448,192,89205,128,8,89702:0:0:0:0:
320,192,89205,128,0,89702:0:0:0:50:soft-hitwhistle2.wav
