osu file format v14

[General]
AudioFilename: audio.mp3
AudioLeadIn: 0
PreviewTime: 50362
Countdown: 1
SampleSet: Normal
StackLeniency: 0.7
Mode: 0
LetterboxInBreaks: 0
WidescreenStoryboard: 1

[Editor]
Bookmarks: 84066,87050
DistanceSpacing: 0.7
BeatDivisor: 4
GridSize: 4
TimelineZoom: 1.6

[Metadata]
Title:Wagamama MIRROR HEART
TitleUnicode:���K�}�}MIRROR HEART
Artist:Ayaka Ohashi
ArtistUnicode:Ayaka Ohashi
Creator:LeeSinOrAfk
Version:Kyle ar10
Source:Masamune-kun no Revenge
Tags:Kyle73 meme
BeatmapID:1184028
BeatmapSetID:559894

[Difficulty]
HPDrainRate:6.3
CircleSize:4.3
OverallDifficulty:9.3
ApproachRate:10
SliderMultiplier:1.8
SliderTickRate:1

[Events]
//Background and Video events
0,0,"776242.png",0,0
//Break Periods
//Storyboard Layer 0 (Background)
//Storyboard Layer 1 (Fail)
//Storyboard Layer 2 (Pass)
//Storyboard Layer 3 (Foreground)
//Storyboard Sound Samples

[TimingPoints]
531,331.491712707182,4,1,0,30,1,0
531,-125,4,2,0,30,0,0
5834,-166.666666666667,4,2,0,30,0,0
8155,-80,4,2,0,50,0,0
8486,-100,4,2,0,50,0,0
11801,-80,4,2,0,50,0,0
12298,-100,4,2,0,50,0,0
18597,-125,4,2,0,40,0,0
29039,-100,4,2,0,60,0,0
34674,-125,4,2,0,60,0,0
35006,-86.9565217391304,4,2,0,60,0,0
35503,-125,4,2,0,60,0,0
36000,-100,4,2,0,60,0,0
36829,-80,4,2,0,60,0,0
37160,-100,4,2,0,60,0,0
45613,-142.857142857143,4,2,0,40,0,0
47602,-80,4,2,0,60,0,0
48265,-100,4,2,0,60,0,0
51249,-125,4,2,0,50,0,0
51912,-86.9565217391304,4,2,0,50,0,0
52243,-100,4,2,0,70,0,1
62188,-100,4,2,0,70,0,0
64011,-100,4,2,0,70,0,1
72796,-100,4,2,0,70,0,0
73459,-80,4,2,0,70,0,0
73624,-100,4,2,0,70,0,0
73956,-80,4,2,0,70,0,0
74122,-100,4,2,0,70,0,0
74453,-80,4,2,0,70,0,0
74619,-100,4,2,0,70,0,0
76111,-100,4,2,0,70,0,1
86387,-100,4,2,0,50,0,0

[HitObjects]
442,121,1028,6,0,P|374:141|304:131,1,144
208,78,1525,1,0,0:0:0:0:
208,78,1690,1,0,0:0:0:0:
201,190,1856,2,0,L|197:261,2,72
137,339,2353,2,0,P|202:311|273:315,1,144
454,352,3016,1,0,0:0:0:0:
454,352,3182,6,0,P|457:316|461:280,1,72
364,234,3514,2,0,P|360:198|356:162,1,72
412,76,3845,2,0,P|343:61|280:91,1,144
169,228,4508,2,0,P|157:157|144:86,2,144
139,344,5503,2,0,B|209:373|209:323|279:347,1,144
279,347,6000,1,0,0:0:0:0:
410,263,6331,5,0,0:0:0:0:
256,192,6414,12,0,7492,0:0:0:0:
386,78,8155,6,0,L|368:131,3,56.25
412,234,8486,2,0,B|322:262|322:206|235:235,2,180
283,335,9315,1,0,0:0:0:0:
271,337,9398,1,0,0:0:0:0:
260,339,9481,1,0,0:0:0:0:
249,341,9564,1,0,0:0:0:0:
238,343,9647,2,0,P|155:316|131:233,1,180
144,144,10061,5,0,0:0:0:0:
149,113,10144,1,0,0:0:0:0:
318,28,10310,2,0,P|273:22|228:16,1,90
260,126,10641,1,0,0:0:0:0:
374,146,10807,1,0,0:0:0:0:
372,177,10889,1,0,0:0:0:0:
370,208,10972,1,0,0:0:0:0:
369,240,11055,1,0,0:0:0:0:
367,270,11138,6,0,P|280:292|193:275,1,180
82,178,11635,1,0,0:0:0:0:
82,178,11718,1,0,0:0:0:0:
82,178,11801,2,0,L|92:233,1,56.25
192,144,11967,2,0,L|186:171,4,28.125
192,274,12298,6,0,P|104:266|38:323,1,180
295,315,12796,1,0,0:0:0:0:
295,315,12879,1,0,0:0:0:0:
295,314,12961,2,0,P|304:271|297:227,1,90
143,366,13293,1,0,0:0:0:0:
422,241,13459,1,0,0:0:0:0:
390,237,13541,1,0,0:0:0:0:
359,233,13624,1,0,0:0:0:0:
328,230,13707,1,0,0:0:0:0:
296,226,13790,5,0,0:0:0:0:
419,110,13956,1,0,0:0:0:0:
337,340,14122,1,0,0:0:0:0:
157,176,14287,2,0,L|151:265,1,90
66,381,14619,1,0,0:0:0:0:
296,226,14785,1,0,0:0:0:0:
44,105,14950,6,0,P|121:62|209:68,1,180
402,97,15448,1,0,0:0:0:0:
165,355,15613,2,0,P|166:265|157:176,1,180
25,227,16111,1,0,0:0:0:0:
301,275,16276,1,0,0:0:0:0:
301,275,16359,1,0,0:0:0:0:
301,275,16442,5,0,0:0:0:0:
315,116,16608,1,0,0:0:0:0:
156,175,16774,5,0,0:0:0:0:
441,299,16939,1,0,0:0:0:0:
459,33,17105,5,0,0:0:0:0:
260,193,17271,1,0,0:0:0:0:
483,194,17437,5,0,0:0:0:0:
86,61,17602,1,0,0:0:0:0:
68,53,17934,5,0,0:0:0:0:
315,309,18099,1,0,0:0:0:0:
327,317,18928,5,0,0:0:0:0:
327,317,19011,1,0,0:0:0:0:
327,317,19094,2,0,L|255:319,1,72
415,275,19426,2,0,P|424:309|420:345,1,72
250,213,19757,2,0,L|321:215,1,72
415,158,20089,2,0,P|418:122|409:87,1,72
361,28,20337,1,0,0:0:0:0:
361,28,20420,6,0,L|289:18,1,72
124,87,20751,2,0,L|195:77,1,72
286,196,21083,2,0,P|288:160|295:124,1,72
197,255,21414,2,0,P|194:219|187:183,1,72
155,324,21746,6,0,P|219:294|290:296,1,144
416,348,22243,1,0,0:0:0:0:
408,215,22409,2,0,P|404:179|401:143,1,72
272,76,22740,2,0,P|268:111|265:147,1,72
296,222,22989,1,0,0:0:0:0:
296,222,23072,6,0,P|260:227|225:218,1,72
100,101,23403,2,0,P|98:136|95:172,1,72
70,19,23735,2,0,P|105:13|140:22,1,72
272,76,24066,2,0,P|273:40|276:4,1,72
406,100,24398,6,0,P|409:172|410:244,1,144
312,344,24895,1,0,0:0:0:0:
193,216,25061,2,0,P|228:214|264:216,1,72
157,72,25392,2,0,P|121:73|85:71,1,72
25,125,25641,1,0,0:0:0:0:
25,125,25724,6,0,P|18:160|11:195,1,72
105,336,26055,2,0,P|98:300|91:265,1,72
238,181,26387,2,0,P|202:182|166:181,1,72
326,241,26718,2,0,P|361:239|397:240,1,72
364,337,27050,6,0,P|310:290|239:286,1,144
121,334,27547,1,0,0:0:0:0:
132,210,27713,2,0,P|96:209|60:206,1,72
253,153,28044,2,0,P|288:152|324:149,1,72
377,89,28293,1,0,0:0:0:0:
377,88,28376,6,0,P|400:115|406:151,1,72
199,216,28707,2,0,P|175:189|169:153,1,72
228,31,29039,1,0,0:0:0:0:
248,70,29121,1,0,0:0:0:0:
269,110,29204,1,0,0:0:0:0:
290,150,29287,1,0,0:0:0:0:
311,190,29370,1,0,0:0:0:0:
331,230,29453,1,0,0:0:0:0:
352,270,29536,6,0,B|301:299|301:299|239:287|180:298,1,180
59,106,30033,2,0,P|53:150|48:195,1,90
17,350,30365,1,0,0:0:0:0:
180,298,30530,1,0,0:0:0:0:
17,350,30696,1,0,0:0:0:0:
183,186,30862,6,0,B|258:230|258:230|288:317,1,180
443,191,31359,2,0,P|398:188|353:186,1,90
180,298,31691,1,0,0:0:0:0:
393,345,31856,1,0,0:0:0:0:
180,298,32022,2,0,P|224:296|269:293,1,90
106,372,32354,6,0,B|64:300|64:300|80:243|111:217,1,180
312,128,32851,2,0,P|267:118|223:119,1,90
82,94,33182,1,0,0:0:0:0:
255,247,33348,1,0,0:0:0:0:
82,94,33514,6,0,B|168:126|176:71|258:101,1,180
216,293,34011,2,0,P|213:248|211:203,1,90
132,0,34343,1,0,0:0:0:0:
374,111,34508,1,0,0:0:0:0:
83,211,34674,2,0,L|155:211,1,72
419,277,35006,6,0,B|350:296|350:296|285:282|215:292,1,207.000003948212
503,308,35503,2,0,B|511:272|511:272|499:238,1,72
342,119,35834,1,0,0:0:0:0:
342,119,36000,2,0,B|333:163|333:163|344:206,1,90
438,56,36332,6,0,P|359:17|273:36,1,180
176,112,36829,2,0,L|173:168,1,56.25
164,281,36995,1,0,0:0:0:0:
101,27,37160,1,0,0:0:0:0:
127,9,37243,1,0,0:0:0:0:
158,3,37326,1,0,0:0:0:0:
355,123,37492,6,0,P|265:115|176:112,1,180
54,140,37989,2,0,P|53:184|54:229,1,90
4,318,38238,5,0,0:0:0:0:
48,329,38320,1,0,0:0:0:0:
92,322,38403,1,0,0:0:0:0:
130,300,38486,1,0,0:0:0:0:
184,276,38568,1,0,0:0:0:0:
241,283,38651,1,0,0:0:0:0:
295,301,38735,1,0,0:0:0:0:
335,346,38817,1,0,0:0:0:0:
355,123,39149,5,0,0:0:0:0:
215,376,39314,1,0,0:0:0:0:
469,264,39481,2,0,B|381:222|381:282|293:244,1,180
131,152,39978,2,0,P|132:196|131:241,1,90
411,369,40310,5,0,0:0:0:0:
130,241,40475,1,0,0:0:0:0:
355,123,40641,1,0,0:0:0:0:
253,285,40807,1,0,0:0:0:0:
253,285,40890,1,0,0:0:0:0:
253,284,40972,2,0,P|251:240|251:195,1,90
144,361,41304,1,0,0:0:0:0:
191,85,41470,6,0,P|279:76|354:122,1,180
501,113,41967,1,0,0:0:0:0:
251,194,42133,1,0,0:0:0:0:
251,194,42216,1,0,0:0:0:0:
250,194,42298,2,0,P|206:199|161:195,1,90
375,245,42630,2,0,P|419:239|464:243,1,90
130,328,42961,5,0,0:0:0:0:
464,243,43127,1,0,0:0:0:0:
83,114,43293,1,0,0:0:0:0:
302,241,43459,1,0,0:0:0:0:
302,241,43542,1,0,0:0:0:0:
302,241,43624,2,0,P|305:196|302:151,1,90
391,372,43956,1,0,0:0:0:0:
11,219,44122,6,0,B|101:231|101:231|183:197,1,180
83,114,44619,2,0,P|68:71|56:28,1,90
56,28,44868,1,0,0:0:0:0:
56,28,44950,1,0,0:0:0:0:
218,76,45116,1,0,0:0:0:0:
11,219,45282,1,0,0:0:0:0:
11,218,45613,6,0,P|73:214|136:217,1,125.999996154785
136,217,46111,1,0,0:0:0:0:
497,282,46608,6,0,P|434:277|371:280,1,125.999996154785
371,280,47106,1,0,0:0:0:0:
99,254,47602,6,0,B|187:274|187:274|258:240,1,168.75
173,167,47934,2,0,B|160:113|160:113|179:58|179:58|162:5,1,168.75
70,54,48265,5,0,0:0:0:0:
273,121,48431,1,0,0:0:0:0:
27,180,48597,5,0,0:0:0:0:
318,0,48763,1,0,0:0:0:0:
318,0,48845,1,0,0:0:0:0:
318,0,48928,1,0,0:0:0:0:
248,263,49094,5,0,0:0:0:0:
41,42,49260,1,0,0:0:0:0:
295,138,49426,6,0,P|208:130|134:179,1,180
60,312,49923,1,0,0:0:0:0:
411,266,50089,1,0,0:0:0:0:
411,266,50171,1,0,0:0:0:0:
411,266,50254,1,0,0:0:0:0:
14,139,50503,5,0,0:0:0:0:
248,263,50751,5,0,0:0:0:0:
287,24,50917,1,0,0:0:0:0:
346,133,51249,6,0,B|274:146|274:146|207:116|134:131,1,216
50,177,51829,1,0,0:0:0:0:
50,177,51912,2,0,B|107:227|107:227|187:223,1,155.250002961159
270,262,52243,6,0,B|349:295|362:248|446:276,1,180
317,157,52740,1,0,0:0:0:0:
399,384,52906,1,0,0:0:0:0:
317,157,53072,1,0,0:0:0:0:
510,189,53238,1,0,0:0:0:0:
169,271,53403,1,0,0:0:0:0:
169,271,53486,1,0,0:0:0:0:
169,271,53569,6,0,P|213:272|258:269,1,90
142,102,53901,2,0,P|97:103|52:100,1,90
269,134,54232,1,0,0:0:0:0:
43,222,54398,1,0,0:0:0:0:
269,134,54564,1,0,0:0:0:0:
43,222,54730,1,0,0:0:0:0:
321,41,54895,6,0,P|379:105|363:191,1,180
494,91,55392,1,0,0:0:0:0:
269,134,55558,2,0,B|175:143|175:143|110:86,1,180
213,44,56055,1,0,0:0:0:0:
0,139,56221,5,0,0:0:0:0:
62,298,56387,2,0,P|74:255|84:211,1,90
308,123,56718,1,0,0:0:0:0:
308,123,56801,1,0,0:0:0:0:
308,123,56884,2,0,P|263:123|218:121,1,90
78,66,57216,1,0,0:0:0:0:
456,182,57381,1,0,0:0:0:0:
456,182,57464,1,0,0:0:0:0:
456,182,57547,6,0,P|460:226|466:271,1,90
228,210,57879,2,0,P|223:165|217:120,1,90
115,36,58210,1,0,0:0:0:0:
348,80,58376,2,0,P|393:77|438:80,1,90
404,201,58707,6,0,B|327:233|312:177|227:209,1,180
110,346,59205,2,0,P|105:301|98:256,1,90
128,131,59536,1,0,0:0:0:0:
283,322,59702,1,0,0:0:0:0:
492,202,59868,2,0,P|448:199|403:200,1,90
97,255,60199,6,0,P|185:250|242:183,1,180
354,30,60696,2,0,B|384:73|358:121|358:121|383:161|368:201,1,180
241,65,61193,1,0,0:0:0:0:
469,274,61359,6,0,B|412:337|412:337|317:324,1,180
123,348,61856,1,0,0:0:0:0:
368,200,62022,1,0,0:0:0:0:
84,103,62188,1,0,0:0:0:0:
209,169,62519,6,0,L|209:258,1,90
28,325,62851,5,0,0:0:0:0:
399,192,63017,1,0,0:0:0:0:
35,147,63182,5,0,0:0:0:0:
394,343,63348,1,0,0:0:0:0:
224,21,63514,5,0,0:0:0:0:
137,383,63680,1,0,0:0:0:0:
130,306,63762,1,0,0:0:0:0:
124,230,63845,1,0,0:0:0:0:
118,154,63928,1,0,0:0:0:0:
111,78,64011,6,0,B|166:64|166:64|220:88|287:66,1,180
434,243,64508,2,0,P|426:198|420:153,1,90
269,295,64840,2,0,P|276:250|282:205,1,90
501,54,65171,2,0,P|460:38|415:33,1,90
204,73,65503,5,0,0:0:0:0:
421,154,65669,1,0,0:0:0:0:
238,306,65834,1,0,0:0:0:0:
231,31,66166,5,0,0:0:0:0:
467,199,66332,1,0,0:0:0:0:
197,323,66497,1,0,0:0:0:0:
277,0,66829,5,0,0:0:0:0:
496,265,66995,1,0,0:0:0:0:
148,325,67160,1,0,0:0:0:0:
292,188,67326,2,0,B|211:148|211:148|121:151,1,180
420,86,67823,2,0,P|425:130|430:175,1,90
366,302,68155,6,0,B|293:344|268:296|190:321,1,180
52,259,68652,1,0,0:0:0:0:
291,188,68818,2,0,P|247:184|202:176,1,90
48,25,69149,2,0,P|54:69|59:114,1,90
190,320,69481,5,0,0:0:0:0:
451,137,69647,1,0,0:0:0:0:
190,29,69812,1,0,0:0:0:0:
431,277,69978,1,0,0:0:0:0:
331,43,70144,2,0,P|324:88|317:132,1,90
145,306,70475,2,0,P|189:298|234:294,1,90
431,277,70807,5,0,0:0:0:0:
142,149,70972,1,0,0:0:0:0:
483,83,71138,1,0,0:0:0:0:
280,57,71304,5,0,0:0:0:0:
279,88,71387,1,0,0:0:0:0:
279,119,71470,1,0,0:0:0:0:
243,266,71635,5,0,0:0:0:0:
483,83,71801,1,0,0:0:0:0:
109,52,71967,2,0,B|151:28|151:28|214:50|281:29,1,180
369,16,72381,1,0,0:0:0:0:
400,11,72464,1,0,0:0:0:0:
367,273,72630,1,0,0:0:0:0:
289,176,72796,5,0,0:0:0:0:
329,155,72878,1,0,0:0:0:0:
373,148,72961,1,0,0:0:0:0:
505,157,73127,1,0,0:0:0:0:
180,91,73293,1,0,0:0:0:0:
180,91,73376,1,0,0:0:0:0:
180,91,73459,6,0,L|125:76,1,56.25
77,11,73625,2,0,B|71:59|71:59|46:93,1,90
0,245,73956,6,0,L|54:230,1,56.25
102,165,74122,2,0,B|108:213|108:213|133:246,1,90
324,312,74453,6,0,L|269:297,1,56.25
222,232,74619,2,0,B|216:280|216:280|190:313,1,90
86,373,74950,5,0,0:0:0:0:
324,312,75116,1,0,0:0:0:0:
89,188,75282,1,0,0:0:0:0:
337,104,75448,2,0,L|247:98,1,90
70,30,75779,2,0,L|159:24,1,90
287,223,76111,5,0,0:0:0:0:
385,19,76276,1,0,0:0:0:0:
144,203,76442,5,0,0:0:0:0:
408,22,76608,1,0,0:0:0:0:
64,107,76774,5,0,0:0:0:0:
431,25,76939,1,0,0:0:0:0:
4,0,77105,5,0,0:0:0:0:
454,28,77271,1,0,0:0:0:0:
190,186,77437,5,0,0:0:0:0:
361,117,77602,1,0,0:0:0:0:
89,119,77768,5,0,0:0:0:0:
396,239,77934,1,0,0:0:0:0:
71,238,78100,5,0,0:0:0:0:
491,146,78265,1,0,0:0:0:0:
0,82,78431,5,0,0:0:0:0:
512,285,78597,1,0,0:0:0:0:
0,281,78763,5,0,0:0:0:0:
180,100,78928,1,0,0:0:0:0:
243,357,79094,5,0,0:0:0:0:
167,65,79260,1,0,0:0:0:0:
445,209,79426,5,0,0:0:0:0:
130,57,79591,1,0,0:0:0:0:
512,28,79757,5,0,0:0:0:0:
98,74,79923,1,0,0:0:0:0:
445,209,80089,5,0,0:0:0:0:
228,288,80254,1,0,0:0:0:0:
365,28,80420,5,0,0:0:0:0:
209,320,80586,1,0,0:0:0:0:
165,0,80751,5,0,0:0:0:0:
190,352,80917,1,0,0:0:0:0:
0,0,81082,5,0,0:0:0:0:
171,384,81249,1,0,0:0:0:0:
171,384,81332,1,0,0:0:0:0:
171,384,81414,5,0,0:0:0:0:
103,109,81580,1,0,0:0:0:0:
396,384,81746,5,0,0:0:0:0:
75,75,81912,1,0,0:0:0:0:
512,187,82077,5,0,0:0:0:0:
47,41,82243,1,0,0:0:0:0:
507,0,82409,5,0,0:0:0:0:
19,7,82575,1,0,0:0:0:0:
19,7,82658,1,0,0:0:0:0:
19,7,82740,5,0,0:0:0:0:
464,189,82906,1,0,0:0:0:0:
25,289,83072,5,0,0:0:0:0:
336,4,83238,1,0,0:0:0:0:
263,384,83403,5,0,0:0:0:0:
142,0,83569,1,0,0:0:0:0:
505,300,83735,5,0,0:0:0:0:
0,115,83901,1,0,0:0:0:0:
480,2,84066,5,0,0:0:0:0:
25,289,84232,1,0,0:0:0:0:
512,384,84398,1,0,0:0:0:0:
142,0,84729,5,0,0:0:0:0:
129,384,84895,1,0,0:0:0:0:
512,248,85061,1,0,0:0:0:0:
0,184,85392,5,0,0:0:0:0:
438,384,85557,1,0,0:0:0:0:
473,0,85723,1,0,0:0:0:0:
1,376,86055,5,0,0:0:0:0:
512,173,86221,1,0,0:0:0:0:
82,5,86387,1,0,0:0:0:0:
82,5,86718,6,0,L|73:94,1,90
199,246,87050,2,0,L|190:156,1,90
316,5,87381,2,0,L|307:94,1,90
433,246,87713,2,0,L|424:156,1,90
313,215,88044,6,0,L|315:304,1,90
165,115,88376,2,0,L|162:204,1,90
152,375,88707,5,0,0:0:0:0:
480,262,88873,1,0,0:0:0:0:
14,161,89039,1,0,0:0:0:0:
242,269,89205,1,0,0:0:0:0:
