osu file format v14

[General]
AudioFilename: audio.mp3
AudioLeadIn: 0
PreviewTime: 51373
Countdown: 0
SampleSet: Soft
StackLeniency: 0.7
Mode: 3
LetterboxInBreaks: 0
SpecialStyle: 0
WidescreenStoryboard: 0

[Editor]
DistanceSpacing: 1
BeatDivisor: 4
GridSize: 4
TimelineZoom: 1

[Metadata]
Title:Wagamama MIRROR HEART
TitleUnicode:ワガママMIRROR HEART
Artist:Ayaka Ohashi
ArtistUnicode:大橋彩香
Creator:Kenny-sama
Version:Easy
Source:政宗くんのリベンジ
Tags:Masamune-kun no Revenge Opening OP
BeatmapID:1199074
BeatmapSetID:566021

[Difficulty]
HPDrainRate:7
CircleSize:4
OverallDifficulty:7
ApproachRate:5
SliderMultiplier:1.4
SliderTickRate:1

[Events]
//Background and Video events
Video,0,"Masamune-kun no Revenge OP.avi"
0,0,"Background04.jpg",0,0
//Break Periods
//Storyboard Layer 0 (Background)
//Storyboard Layer 1 (Fail)
//Storyboard Layer 2 (Pass)
//Storyboard Layer 3 (Foreground)
//Storyboard Sound Samples

[TimingPoints]
531,331.491712707182,4,2,1,5,1,0
13790,-100,4,2,1,35,0,0
52243,-100,4,2,1,35,0,1
73459,-100,4,2,1,35,0,0
76111,-100,4,2,1,35,0,1
86718,-100,4,2,1,35,0,0

[HitObjects]
64,192,1028,5,0,0:0:0:0:
320,192,1359,1,0,0:0:0:0:
448,192,1525,1,0,0:0:0:0:
192,192,1691,1,0,0:0:0:0:
64,192,1856,1,0,0:0:0:0:
192,192,2188,1,0,0:0:0:0:
320,192,2354,1,0,0:0:0:0:
64,192,3182,1,0,0:0:0:0:
448,192,3514,1,0,0:0:0:0:
192,192,3845,1,0,0:0:0:0:
320,192,4177,1,0,0:0:0:0:
64,192,4508,1,0,0:0:0:0:
320,192,4840,1,0,0:0:0:0:
192,192,5171,1,0,0:0:0:0:
448,192,5503,1,0,0:0:0:0:
64,192,5834,128,0,6332:0:0:0:0:
448,192,6332,128,0,7160:0:0:0:0:
320,192,7989,1,0,0:0:0:0:
64,192,8155,128,0,8486:0:0:0:0:
448,192,8486,128,0,8818:0:0:0:0:
320,192,8486,1,0,0:0:0:0:
64,192,8818,1,0,0:0:0:0:
192,192,9149,1,0,0:0:0:0:
448,192,9481,1,0,0:0:0:0:
64,192,9812,1,0,0:0:0:0:
192,192,10144,1,0,0:0:0:0:
320,192,10475,1,0,0:0:0:0:
448,192,10807,128,0,11138:0:0:0:0:
64,192,11138,1,0,0:0:0:0:
448,192,11470,1,0,0:0:0:0:
192,192,11801,1,0,0:0:0:0:
320,192,12133,1,0,0:0:0:0:
64,192,12464,1,0,0:0:0:0:
320,192,12796,1,0,0:0:0:0:
448,192,12961,1,0,0:0:0:0:
192,192,13293,1,0,0:0:0:0:
64,192,13459,128,0,13790:0:0:0:0:
320,192,13790,1,0,0:0:0:0:
448,192,13790,1,0,0:0:0:0:
192,192,14122,1,0,0:0:0:0:
64,192,14453,1,0,0:0:0:0:
320,192,14785,1,0,0:0:0:0:
192,192,15116,1,0,0:0:0:0:
448,192,15448,1,0,0:0:0:0:
320,192,15779,1,0,0:0:0:0:
64,192,16111,1,0,0:0:0:0:
192,192,16111,1,0,0:0:0:0:
448,192,16442,1,0,0:0:0:0:
320,192,16442,1,0,0:0:0:0:
64,192,16774,1,0,0:0:0:0:
320,192,17105,1,0,0:0:0:0:
192,192,17437,1,0,0:0:0:0:
448,192,17602,1,0,0:0:0:0:
64,192,17934,1,0,0:0:0:0:
320,192,18100,1,0,0:0:0:0:
192,192,18763,1,0,0:0:0:0:
64,192,19094,1,0,0:0:0:0:
448,192,19094,1,0,0:0:0:0:
320,192,19426,1,0,0:0:0:0:
448,192,19757,1,0,0:0:0:0:
192,192,20089,1,0,0:0:0:0:
64,192,20420,1,0,0:0:0:0:
320,192,20751,1,0,0:0:0:0:
192,192,21083,1,0,0:0:0:0:
448,192,21414,1,0,0:0:0:0:
192,192,21746,1,0,0:0:0:0:
64,192,22077,1,0,0:0:0:0:
448,192,22409,1,0,0:0:0:0:
320,192,22740,1,0,0:0:0:0:
64,192,23072,1,0,0:0:0:0:
192,192,23403,1,0,0:0:0:0:
320,192,23735,1,0,0:0:0:0:
448,192,24066,1,0,0:0:0:0:
64,192,24398,1,0,0:0:0:0:
192,192,24398,1,0,0:0:0:0:
448,192,24729,1,0,0:0:0:0:
320,192,25061,1,0,0:0:0:0:
192,192,25392,1,0,0:0:0:0:
64,192,25724,1,0,0:0:0:0:
320,192,26055,1,0,0:0:0:0:
192,192,26387,1,0,0:0:0:0:
448,192,26718,1,0,0:0:0:0:
192,192,27050,1,0,0:0:0:0:
64,192,27381,1,0,0:0:0:0:
320,192,27713,1,0,0:0:0:0:
192,192,28044,1,0,0:0:0:0:
448,192,28376,1,0,0:0:0:0:
320,192,28707,1,0,0:0:0:0:
64,192,29039,1,0,0:0:0:0:
192,192,29370,1,0,0:0:0:0:
320,192,29536,1,0,0:0:0:0:
448,192,29536,1,0,0:0:0:0:
192,192,30033,1,0,0:0:0:0:
448,192,30365,1,0,0:0:0:0:
64,192,30696,1,0,0:0:0:0:
320,192,31028,1,0,0:0:0:0:
192,192,31359,1,0,0:0:0:0:
448,192,31691,1,0,0:0:0:0:
320,192,32022,1,0,0:0:0:0:
64,192,32354,1,0,0:0:0:0:
192,192,32685,1,0,0:0:0:0:
320,192,33017,1,0,0:0:0:0:
448,192,33348,1,0,0:0:0:0:
64,192,33680,1,0,0:0:0:0:
448,192,34011,1,0,0:0:0:0:
320,192,34343,1,0,0:0:0:0:
192,192,34674,1,0,0:0:0:0:
64,192,35006,1,0,0:0:0:0:
448,192,35006,1,0,0:0:0:0:
320,192,35337,1,0,0:0:0:0:
192,192,35669,1,0,0:0:0:0:
64,192,36000,1,0,0:0:0:0:
448,192,36332,1,0,0:0:0:0:
192,192,36663,1,0,0:0:0:0:
320,192,36995,1,0,0:0:0:0:
64,192,37326,1,0,0:0:0:0:
448,192,37492,1,0,0:0:0:0:
192,192,37989,1,0,0:0:0:0:
448,192,38486,1,0,0:0:0:0:
64,192,38652,1,0,0:0:0:0:
192,192,38818,1,0,0:0:0:0:
448,192,39149,1,0,0:0:0:0:
320,192,39481,128,0,39812:0:0:0:0:
64,192,39978,128,0,40310:0:0:0:0:
192,192,40310,1,0,0:0:0:0:
320,192,40475,1,0,0:0:0:0:
448,192,40641,1,0,0:0:0:0:
192,192,41138,1,0,0:0:0:0:
320,192,41304,1,0,0:0:0:0:
64,192,41470,1,0,0:0:0:0:
320,192,41801,1,0,0:0:0:0:
448,192,41967,1,0,0:0:0:0:
64,192,42298,1,0,0:0:0:0:
192,192,42464,1,0,0:0:0:0:
320,192,42630,1,0,0:0:0:0:
448,192,42961,1,0,0:0:0:0:
64,192,43127,1,0,0:0:0:0:
192,192,43293,1,0,0:0:0:0:
448,192,43790,1,0,0:0:0:0:
192,192,43956,1,0,0:0:0:0:
320,192,44122,1,0,0:0:0:0:
64,192,44453,1,0,0:0:0:0:
448,192,44619,1,0,0:0:0:0:
192,192,44950,1,0,0:0:0:0:
448,192,45116,1,0,0:0:0:0:
320,192,45282,1,0,0:0:0:0:
64,192,45613,1,0,0:0:0:0:
448,192,46111,1,0,0:0:0:0:
320,192,46608,1,0,0:0:0:0:
192,192,47602,1,0,0:0:0:0:
320,192,47934,1,0,0:0:0:0:
64,192,48265,1,0,0:0:0:0:
448,192,48265,1,0,0:0:0:0:
320,192,48597,1,0,0:0:0:0:
64,192,48928,1,0,0:0:0:0:
448,192,49260,1,0,0:0:0:0:
192,192,49426,1,0,0:0:0:0:
320,192,49923,1,0,0:0:0:0:
64,192,50254,1,0,0:0:0:0:
448,192,50503,1,0,0:0:0:0:
192,192,50751,1,0,0:0:0:0:
320,192,50917,1,0,0:0:0:0:
448,192,51249,1,0,0:0:0:0:
192,192,51912,128,0,52243:0:0:0:0:
64,192,52243,1,0,0:0:0:0:
448,192,52243,1,0,0:0:0:0:
320,192,52575,1,0,0:0:0:0:
64,192,52906,1,0,0:0:0:0:
192,192,53238,1,0,0:0:0:0:
448,192,53569,1,0,0:0:0:0:
320,192,53901,1,0,0:0:0:0:
64,192,54232,1,0,0:0:0:0:
448,192,54564,1,0,0:0:0:0:
192,192,54895,1,0,0:0:0:0:
320,192,55227,1,0,0:0:0:0:
448,192,55558,1,0,0:0:0:0:
64,192,55890,1,0,0:0:0:0:
320,192,56221,1,0,0:0:0:0:
192,192,56553,1,0,0:0:0:0:
448,192,56884,1,0,0:0:0:0:
64,192,57216,1,0,0:0:0:0:
320,192,57547,1,0,0:0:0:0:
192,192,57547,1,0,0:0:0:0:
64,192,57879,1,0,0:0:0:0:
448,192,58210,1,0,0:0:0:0:
192,192,58542,1,0,0:0:0:0:
320,192,58873,1,0,0:0:0:0:
448,192,59205,1,0,0:0:0:0:
64,192,59536,1,0,0:0:0:0:
320,192,59868,1,0,0:0:0:0:
192,192,60199,1,0,0:0:0:0:
448,192,60530,1,0,0:0:0:0:
64,192,60862,1,0,0:0:0:0:
192,192,61193,1,0,0:0:0:0:
320,192,61359,1,0,0:0:0:0:
64,192,61691,1,0,0:0:0:0:
448,192,61856,1,0,0:0:0:0:
192,192,62188,1,0,0:0:0:0:
320,192,62519,128,0,62851:0:0:0:0:
64,192,62851,1,0,0:0:0:0:
448,192,63182,1,0,0:0:0:0:
64,192,63514,1,0,0:0:0:0:
192,192,63680,1,0,0:0:0:0:
320,192,63845,1,0,0:0:0:0:
448,192,64011,1,0,0:0:0:0:
64,192,64011,128,0,64508:0:0:0:0:
320,192,64508,1,0,0:0:0:0:
192,192,64840,1,0,0:0:0:0:
64,192,65171,1,0,0:0:0:0:
448,192,65503,1,0,0:0:0:0:
192,192,65669,1,0,0:0:0:0:
320,192,65834,1,0,0:0:0:0:
64,192,66166,1,0,0:0:0:0:
448,192,66332,1,0,0:0:0:0:
320,192,66497,1,0,0:0:0:0:
64,192,66829,1,0,0:0:0:0:
192,192,66995,1,0,0:0:0:0:
320,192,67160,1,0,0:0:0:0:
448,192,67326,1,0,0:0:0:0:
64,192,67326,1,0,0:0:0:0:
192,192,67658,1,0,0:0:0:0:
448,192,67823,1,0,0:0:0:0:
192,192,68155,1,0,0:0:0:0:
64,192,68155,1,0,0:0:0:0:
320,192,68486,1,0,0:0:0:0:
64,192,68818,1,0,0:0:0:0:
448,192,69149,1,0,0:0:0:0:
192,192,69481,1,0,0:0:0:0:
320,192,69812,1,0,0:0:0:0:
64,192,70144,1,0,0:0:0:0:
448,192,70475,1,0,0:0:0:0:
64,192,70807,1,0,0:0:0:0:
320,192,71138,1,0,0:0:0:0:
192,192,71470,1,0,0:0:0:0:
448,192,71801,1,0,0:0:0:0:
64,192,71967,1,0,0:0:0:0:
448,192,72298,1,0,0:0:0:0:
192,192,72464,1,0,0:0:0:0:
448,192,72796,1,0,0:0:0:0:
320,192,73127,1,0,0:0:0:0:
192,192,73459,1,0,0:0:0:0:
64,192,73459,1,0,0:0:0:0:
448,192,73624,1,0,0:0:0:0:
64,192,73956,1,0,0:0:0:0:
320,192,74122,1,0,0:0:0:0:
192,192,74453,1,0,0:0:0:0:
448,192,74619,1,0,0:0:0:0:
64,192,74950,1,0,0:0:0:0:
320,192,75116,1,0,0:0:0:0:
192,192,75448,1,0,0:0:0:0:
448,192,75779,128,0,76111:0:0:0:0:
192,192,76111,1,0,0:0:0:0:
64,192,76111,1,0,0:0:0:0:
320,192,76442,1,0,0:0:0:0:
448,192,76774,1,0,0:0:0:0:
320,192,77105,1,0,0:0:0:0:
192,192,77437,1,0,0:0:0:0:
64,192,77768,1,0,0:0:0:0:
320,192,78100,1,0,0:0:0:0:
192,192,78431,1,0,0:0:0:0:
448,192,78763,1,0,0:0:0:0:
64,192,79094,1,0,0:0:0:0:
320,192,79426,1,0,0:0:0:0:
192,192,79757,1,0,0:0:0:0:
448,192,80089,128,0,80420:0:0:0:0:
64,192,80420,1,0,0:0:0:0:
320,192,80751,128,0,81083:0:0:0:0:
64,192,81083,1,0,0:0:0:0:
192,192,81414,1,0,0:0:0:0:
448,192,81746,1,0,0:0:0:0:
320,192,82077,1,0,0:0:0:0:
64,192,82409,1,0,0:0:0:0:
192,192,82740,1,0,0:0:0:0:
448,192,83072,1,0,0:0:0:0:
64,192,83403,1,0,0:0:0:0:
320,192,83735,1,0,0:0:0:0:
64,192,84066,1,0,0:0:0:0:
192,192,84232,1,0,0:0:0:0:
448,192,84398,1,0,0:0:0:0:
192,192,84729,1,0,0:0:0:0:
320,192,84895,1,0,0:0:0:0:
64,192,85061,1,0,0:0:0:0:
192,192,85392,1,0,0:0:0:0:
448,192,85558,1,0,0:0:0:0:
320,192,85724,1,0,0:0:0:0:
320,192,86055,1,0,0:0:0:0:
64,192,86221,1,0,0:0:0:0:
192,192,86387,1,0,0:0:0:0:
448,192,86718,1,0,0:0:0:0:
64,192,87050,1,0,0:0:0:0:
320,192,87381,1,0,0:0:0:0:
192,192,87713,1,0,0:0:0:0:
448,192,88044,1,0,0:0:0:0:
64,192,88376,1,0,0:0:0:0:
320,192,88707,1,0,0:0:0:0:
64,192,88873,1,0,0:0:0:0:
192,192,89039,1,0,0:0:0:0:
320,192,89205,1,0,0:0:0:0:
448,192,89205,128,0,89702:0:0:0:0:
