osu file format v14

[General]
AudioFilename: audio.mp3
AudioLeadIn: 0
PreviewTime: 51249
Countdown: 0
SampleSet: None
StackLeniency: 0.7
Mode: 2
LetterboxInBreaks: 0
WidescreenStoryboard: 1

[Editor]
Bookmarks: 1028,7989,13790,19094,29039,37160,38321,53569,65503,70807,72298,72796
DistanceSpacing: 1
BeatDivisor: 4
GridSize: 8
TimelineZoom: 1.9

[Metadata]
Title:Wagamama MIRROR HEART
TitleUnicode:ワガママMIRROR HEART
Artist:Ayaka Ohashi
ArtistUnicode:大橋彩香
Creator:Kazuyo
Version:Salad
Source:政宗くんのリベンジ
Tags:Masamune-kun no Revenge
BeatmapID:1390205
BeatmapSetID:655618

[Difficulty]
HPDrainRate:4.9
CircleSize:3.5
OverallDifficulty:7.1
ApproachRate:7.1
SliderMultiplier:1.4
SliderTickRate:2

[Events]
//Background and Video events
0,0,"bg.png",0,0
//Break Periods
//Storyboard Layer 0 (Background)
//Storyboard Layer 1 (Fail)
//Storyboard Layer 2 (Pass)
//Storyboard Layer 3 (Foreground)
//Storyboard Sound Samples

[TimingPoints]
531,331.491712707182,4,2,0,65,1,0
52243,-100,4,2,0,75,0,1
62437,-100,4,2,0,75,0,1
68155,-100,4,2,0,65,0,0
76111,-100,4,2,0,75,0,1
86718,-100,4,2,0,65,0,0

[HitObjects]
224,288,1028,6,0,P|160:288|96:240,1,140
208,176,1525,2,0,L|280:176,1,70
392,176,1856,6,0,P|448:152|408:88,1,140
312,88,2354,2,0,L|160:88,1,140
264,88,2851,1,0,0:0:0:0:
360,88,3017,1,0,0:0:0:0:
464,104,3182,6,0,P|488:168|432:224,1,140
232,224,3845,2,0,L|88:224,1,140
184,144,4508,6,0,L|336:144,1,140
480,152,5171,2,0,P|480:224|424:288,1,140
208,272,5834,5,0,0:0:0:0:
88,272,6000,2,0,P|56:200|56:184,1,70
160,184,6332,2,0,P|200:200|160:56,1,350
176,208,7989,6,0,L|104:208,2,70
264,224,8486,2,0,P|328:216|344:128,1,140
168,144,9149,5,0,0:0:0:0:
272,144,9315,2,0,P|336:176|312:240,1,140
168,264,9978,2,0,L|80:256,2,70
360,224,10641,1,0,0:0:0:0:
456,200,10807,1,0,0:0:0:0:
288,192,11138,6,0,P|208:184|152:128,1,140
280,88,11635,2,0,L|368:48,2,70
40,112,12298,6,0,P|48:200|104:240,1,140
208,232,12796,1,0,0:0:0:0:
336,232,12961,2,0,L|424:192,2,70
208,232,13459,1,0,0:0:0:0:
456,248,13790,6,0,L|432:160,1,70
344,176,14122,2,0,L|320:88,1,70
424,80,14453,1,0,0:0:0:0:
310,80,14619,2,0,L|240:80,1,70
112,96,14950,6,0,P|80:144|128:224,1,140
232,216,15448,1,0,0:0:0:0:
352,224,15613,2,0,P|408:264|312:320,1,210
192,328,16442,6,0,L|120:272,2,70
328,304,16939,2,0,P|368:288|344:208,1,140
240,208,17437,5,0,0:0:0:0:
133,158,17602,2,0,P|157:97|224:96,1,140
136,96,18100,1,0,0:0:0:0:
216,288,19094,6,0,P|168:272|136:192,1,140
256,176,19591,2,0,P|296:160|328:136,1,70
200,96,19923,2,0,P|160:80|136:56,2,70
312,104,20420,6,0,P|376:112|392:200,1,140
272,208,21083,2,0,L|112:208,1,140
264,136,21746,6,0,L|416:136,1,140
304,80,22243,2,0,P|264:96|296:192,1,140
384,192,22740,2,0,L|456:184,2,70
240,200,23403,5,0,0:0:0:0:
128,152,23735,1,0,0:0:0:0:
240,112,24066,1,0,0:0:0:0:
360,72,24398,5,0,0:0:0:0:
264,40,24729,2,0,P|200:40|128:104,1,140
32,200,25227,2,0,L|112:200,1,70
208,200,25558,2,0,L|288:200,1,70
424,216,26055,6,0,P|448:152|416:88,1,140
264,88,26718,2,0,L|120:88,2,140
376,88,27547,1,0,0:0:0:0:
248,168,27879,6,0,L|160:168,2,70
368,168,28376,2,0,P|400:200|344:272,1,140
152,288,29039,6,0,L|136:208,1,70
232,184,29370,1,0,0:0:0:0:
344,192,29536,2,0,P|408:168|376:96,1,140
296,104,30033,1,0,0:0:0:0:
104,128,30365,5,0,0:0:0:0:
216,128,30530,2,0,P|320:128|360:144,2,140
312,120,31359,1,0,0:0:0:0:
184,144,31691,6,0,P|136:144|56:96,1,140
184,80,32354,2,0,P|256:72|384:136,1,210
200,184,33182,5,0,0:0:0:0:
320,184,33514,1,0,0:0:0:0:
184,168,33845,2,0,L|144:104,1,70
336,104,34343,6,0,P|400:88|448:24,2,140
200,112,35337,1,0,0:0:0:0:
104,112,35503,2,0,P|72:152|112:232,1,140
200,232,36000,1,0,0:0:0:0:
368,232,36332,6,0,P|424:208|400:136,1,140
264,128,36995,2,0,L|168:128,1,70
272,48,37326,2,0,L|360:48,1,70
176,56,37823,5,0,0:0:0:0:
72,80,37989,2,0,P|48:128|104:192,1,140
216,192,38486,2,0,L|304:192,2,70
112,208,39149,6,0,L|264:176,2,140
216,288,39978,2,0,P|272:296|352:336,1,140
264,96,40475,2,0,L|192:96,1,70
408,96,40972,5,0,0:0:0:0:
280,96,41138,2,0,P|192:128|136:168,2,140
168,72,41967,1,0,0:0:0:0:
304,136,42298,2,0,P|352:128|376:48,1,140
224,48,42961,6,0,L|144:48,1,70
40,56,43293,2,0,P|24:96|96:176,1,140
200,176,43790,2,0,P|256:176|328:248,2,140
304,128,44619,1,0,0:0:0:0:
176,128,44950,6,0,P|136:112|184:48,1,140
368,104,45613,2,0,P|416:168|336:280,1,210
144,104,46608,6,0,P|96:168|176:280,1,210
392,224,47602,1,0,0:0:0:0:
248,224,47934,6,0,P|208:192|112:200,2,140
136,264,48763,1,0,0:0:0:0:
280,272,49094,2,0,P|352:264|400:208,1,140
248,168,49757,5,0,0:0:0:0:
136,168,49923,2,0,L|80:104,1,70
200,88,50254,2,0,P|248:88|312:40,2,105
280,120,50917,1,8,0:0:0:0:
112,136,51414,6,0,P|80:192|136:264,1,140
240,256,51912,2,0,L|320:256,1,70
440,224,52243,6,0,P|464:176|392:120,1,140
296,120,52740,2,0,L|224:88,2,70
400,104,53238,1,0,0:0:0:0:
288,104,53403,1,0,0:0:0:0:
184,104,53569,6,0,P|152:136|200:224,1,140
320,224,54232,2,0,P|352:256|304:344,1,140
160,312,54895,6,0,P|90:279|64:216,2,140
288,296,55890,1,0,0:0:0:0:
408,232,56221,5,0,0:0:0:0:
304,168,56387,2,0,L|208:144,2,70
408,208,56884,2,0,L|400:288,1,70
296,256,57216,2,0,P|256:288|304:352,1,140
416,304,57713,6,0,L|424:224,1,70
320,184,58044,1,0,0:0:0:0:
224,136,58210,2,0,L|240:56,1,70
352,72,58542,6,0,P|392:104|360:176,2,140
224,72,59536,2,0,P|160:104|104:160,1,140
240,192,60199,6,0,P|280:216|192:312,1,210
88,288,61028,2,0,L|72:208,1,70
184,192,61359,2,0,P|240:184|320:104,1,140
320,232,61856,6,0,L|328:136,1,70
208,144,62188,2,0,P|184:112|256:64,1,140
384,72,62851,6,0,L|464:48,2,70
280,88,63348,1,0,0:0:0:0:
192,144,63514,1,0,0:0:0:0:
280,208,63680,1,0,0:0:0:0:
176,240,63845,6,0,P|144:296|200:320,2,140
304,224,64840,2,0,P|360:208|392:128,1,140
256,112,65503,5,0,0:0:0:0:
184,88,65669,1,0,0:0:0:0:
120,56,65834,1,0,0:0:0:0:
280,64,66166,2,0,L|352:40,2,70
120,224,66829,6,0,L|56:168,1,70
160,128,67160,2,0,L|192:64,1,70
40,56,67658,1,0,0:0:0:0:
40,56,67823,1,0,0:0:0:0:
176,64,68155,6,0,L|256:64,1,70
352,64,68486,1,0,0:0:0:0:
256,112,68652,2,0,P|256:168|312:240,1,140
424,216,69149,6,0,L|504:192,2,70
304,192,69647,2,0,L|224:160,1,70
120,152,69978,2,0,P|80:216|128:272,1,140
224,264,70475,6,0,L|312:240,1,70
392,200,70807,1,0,0:0:0:0:
208,144,71138,1,0,0:0:0:0:
208,144,71304,1,0,0:0:0:0:
376,144,71635,2,0,P|408:200|344:264,1,140
224,272,72298,5,0,0:0:0:0:
112,272,72464,2,0,L|72:200,1,70
192,184,72796,2,0,L|208:112,1,70
104,88,73127,5,0,0:0:0:0:
104,88,73293,1,0,0:0:0:0:
216,48,73459,1,0,0:0:0:0:
216,48,73624,1,0,0:0:0:0:
392,120,73956,5,0,0:0:0:0:
392,120,74122,1,0,0:0:0:0:
232,208,74453,5,0,0:0:0:0:
232,208,74619,1,0,0:0:0:0:
88,176,74950,6,0,L|24:136,2,70
200,168,75448,2,0,P|256:152|344:192,1,140
456,216,76111,6,0,L|368:216,1,70
288,224,76442,2,0,L|208:224,1,70
120,216,76774,2,0,P|72:192|112:112,1,140
176,112,77271,1,0,0:0:0:0:
264,128,77437,6,0,P|352:120|384:72,1,140
288,72,77934,1,0,0:0:0:0:
192,72,78100,2,0,L|112:72,1,70
216,112,78431,2,0,P|240:168|192:248,1,140
120,232,78928,1,0,0:0:0:0:
216,240,79094,6,0,P|256:232|336:296,1,140
224,312,79591,2,0,L|144:312,1,70
240,216,79923,2,0,L|328:216,2,70
144,208,80420,6,0,P|104:176|96:144,1,70
192,112,80751,2,0,P|249:83|248:8,2,140
392,128,81746,6,0,P|440:152|400:240,1,140
312,232,82243,2,0,L|232:232,1,70
144,240,82575,2,0,P|104:216|128:184,1,70
216,168,82906,2,0,L|272:112,1,70
384,112,83238,1,0,0:0:0:0:
264,112,83403,2,0,P|224:88|272:24,1,140
424,88,84066,1,0,0:0:0:0:
424,88,84232,1,0,0:0:0:0:
424,88,84398,1,0,0:0:0:0:
208,216,84729,1,0,0:0:0:0:
144,216,84895,1,0,0:0:0:0:
208,216,85061,1,0,0:0:0:0:
392,272,85392,1,0,0:0:0:0:
456,272,85558,1,0,0:0:0:0:
392,272,85724,1,0,0:0:0:0:
184,296,86055,1,0,0:0:0:0:
184,296,86221,1,0,0:0:0:0:
184,296,86387,1,0,0:0:0:0:
256,192,86718,12,0,89205,0:0:0:0:
