osu file format v14

[General]
AudioFilename: audio.mp3
AudioLeadIn: 0
PreviewTime: 51249
Countdown: 0
SampleSet: Soft
StackLeniency: 0.7
Mode: 2
LetterboxInBreaks: 0
WidescreenStoryboard: 1

[Editor]
Bookmarks: 1028,7989,13790,19094,29039,37160,38321,53569,65503,70807,72298,72796,81083,88707
DistanceSpacing: 1
BeatDivisor: 4
GridSize: 8
TimelineZoom: 1.9

[Metadata]
Title:Wagamama MIRROR HEART
TitleUnicode:ワガママMIRROR HEART
Artist:Ayaka Ohashi
ArtistUnicode:大橋彩香
Creator:Kazuyo
Version:Rain
Source:政宗くんのリベンジ
Tags:Masamune-kun no Revenge
BeatmapID:1389295
BeatmapSetID:655618

[Difficulty]
HPDrainRate:5.9
CircleSize:3.9
OverallDifficulty:9.1
ApproachRate:9.1
SliderMultiplier:1.7
SliderTickRate:2

[Events]
//Background and Video events
0,0,"bg.png",0,0
//Break Periods
//Storyboard Layer 0 (Background)
//Storyboard Layer 1 (Fail)
//Storyboard Layer 2 (Pass)
//Storyboard Layer 3 (Foreground)
//Storyboard Sound Samples

[TimingPoints]
531,331.491712707182,4,2,2,75,1,0
52243,-100,4,2,2,75,0,1
68155,-100,4,2,2,75,0,0
76111,-100,4,2,2,75,0,1
86718,-100,4,2,2,75,0,0

[HitObjects]
312,240,1028,6,0,P|384:248|456:176,1,170
160,128,1525,2,0,L|72:128,1,85
416,88,1856,1,0,0:0:0:0:
112,80,2188,1,0,0:0:0:0:
232,80,2354,2,0,P|264:112|224:224,1,170
320,264,2851,5,0,0:0:0:0:
224,176,3017,2,0,L|328:176,1,85
40,176,3348,1,0,0:0:0:0:
394,176,3514,2,0,L|290:176,1,85
72,288,3845,1,0,0:0:0:0:
72,288,4011,1,0,0:0:0:0:
240,288,4177,6,0,L|152:288,1,85
288,288,4508,2,0,P|304:240|272:200,1,85
64,200,4840,2,0,P|48:152|80:112,1,85
208,120,5171,2,0,L|112:120,1,85
376,120,5503,1,0,0:0:0:0:
376,120,5669,1,0,0:0:0:0:
120,224,5834,6,0,L|208:224,2,85
440,224,6332,2,0,P|368:224|480:176,1,425
264,168,7989,6,0,L|328:168,1,42.5
480,128,8155,2,0,L|432:128,1,42.5
240,80,8321,2,0,L|296:80,1,42.5
480,240,8486,6,0,L|296:240,1,170
80,248,9149,2,0,P|40:224|32:168,1,85
128,152,9481,2,0,P|192:128|224:96,1,85
104,72,9812,1,0,0:0:0:0:
416,96,9978,2,0,L|452:117,2,42.5
224,96,10310,2,0,L|128:96,1,85
256,168,10641,2,0,L|344:168,1,85
184,280,10972,5,0,0:0:0:0:
144,272,11055,1,0,0:0:0:0:
104,248,11138,2,0,P|64:216|112:120,1,170
376,144,11635,2,0,L|360:184,1,42.5
196,89,11801,2,0,L|216:128,1,42.5
408,192,11967,2,0,P|432:272|360:264,1,170
128,240,12464,6,0,L|80:168,1,85
352,200,12796,1,0,0:0:0:0:
400,184,12879,1,0,0:0:0:0:
432,152,12961,2,0,P|448:112|440:64,1,85
144,112,13293,2,0,L|232:112,1,85
80,304,13790,6,0,L|64:216,1,85
144,176,14122,2,0,L|32:176,1,85
224,136,14453,2,0,L|256:104,1,42.5
152,80,14619,2,0,P|104:64|72:40,1,85
464,136,14950,6,0,L|368:112,1,85
144,280,15282,2,0,L|112:232,1,42.5
216,200,15448,2,0,P|248:152|248:112,1,85
48,96,15779,2,0,L|128:64,2,85
336,264,16442,6,0,L|360:224,1,42.5
480,200,16608,2,0,P|456:152|424:120,1,85
304,128,16939,2,0,L|304:32,1,85
112,256,17271,2,0,L|64:216,2,42.5
272,200,17602,2,0,P|352:192|440:120,1,170
96,136,18100,1,0,0:0:0:0:
392,192,19094,6,0,L|304:192,2,85
152,208,19591,2,0,L|128:168,1,42.5
240,120,19757,2,0,P|272:88|296:24,1,85
160,48,20089,2,0,L|72:48,1,85
456,48,20420,5,0,0:0:0:0:
320,48,20586,2,0,L|416:48,1,85
280,104,20917,2,0,L|256:144,1,42.5
392,176,21082,2,0,P|384:232|344:272,1,85
128,256,21414,2,0,L|24:256,1,85
208,216,21746,6,0,P|272:184|224:88,1,170
128,112,22243,2,0,P|88:80|80:64,1,42.5
392,120,22409,2,0,P|432:152|456:208,1,85
312,192,22740,2,0,P|264:240|248:272,1,85
376,288,23072,5,0,0:0:0:0:
64,288,23238,2,0,L|168:288,1,85
280,224,23569,2,0,L|320:192,1,42.5
224,160,23735,2,0,L|224:72,1,85
352,72,24066,2,0,P|392:128|312:136,1,170
120,216,24729,5,0,0:0:0:0:
224,248,24895,2,0,P|272:272|288:304,1,85
392,304,25227,2,0,P|432:272|432:264,1,42.5
320,224,25392,2,0,P|280:200|248:168,1,85
368,128,25724,6,0,L|384:32,1,85
264,80,26055,1,0,0:0:0:0:
368,144,26221,1,0,0:0:0:0:
240,184,26387,1,0,0:0:0:0:
360,256,26553,6,0,L|400:280,2,42.5
56,160,26884,2,0,L|152:160,1,85
248,160,27216,1,0,0:0:0:0:
24,240,27381,2,0,L|128:240,1,85
456,232,27713,1,0,0:0:0:0:
288,240,27879,5,0,0:0:0:0:
248,208,27961,1,0,0:0:0:0:
224,160,28044,1,0,0:0:0:0:
368,136,28210,1,0,0:0:0:0:
264,136,28376,2,0,L|80:136,1,170
480,136,28873,1,0,0:0:0:0:
360,136,29039,6,0,L|304:136,1,42.5
136,240,29205,2,0,L|184:240,1,42.5
400,288,29370,2,0,L|288:288,2,85
72,184,29868,2,0,L|160:184,2,85
472,192,30365,5,0,0:0:0:0:
336,168,30530,1,0,0:0:0:0:
288,168,30613,1,0,0:0:0:0:
240,144,30696,2,0,L|224:32,1,85
456,72,31028,5,0,0:0:0:0:
352,72,31193,2,0,L|400:168,1,85
264,160,31525,2,0,L|232:256,1,85
392,256,31856,1,0,0:0:0:0:
432,280,31939,1,0,0:0:0:0:
192,296,32022,2,0,L|112:248,1,85
240,192,32354,6,0,L|240:104,1,85
96,112,32685,1,0,0:0:0:0:
224,56,32851,1,0,0:0:0:0:
120,24,33017,5,0,0:0:0:0:
352,184,33182,1,0,0:0:0:0:
392,160,33265,1,0,0:0:0:0:
432,128,33348,2,0,P|456:80|464:40,1,85
160,120,33680,2,0,L|256:80,2,85
352,200,34343,5,0,0:0:0:0:
464,144,34508,2,0,L|496:112,2,42.5
320,128,34840,2,0,L|200:112,1,85
120,192,35171,2,0,L|208:152,1,85
80,120,35503,2,0,L|72:32,1,85
208,56,35834,6,0,L|248:24,1,42.5
352,40,36000,2,0,P|392:96|376:136,1,85
248,160,36332,2,0,L|344:160,1,85
456,208,36663,1,0,0:0:0:0:
344,272,36829,1,0,0:0:0:0:
472,312,36995,1,0,0:0:0:0:
312,352,37160,6,0,L|272:376,2,42.5
496,368,37492,1,0,0:0:0:0:
184,232,37823,2,0,L|272:168,2,85
80,168,38321,6,0,L|32:144,2,42.5
224,160,38652,1,0,0:0:0:0:
112,88,38818,1,0,0:0:0:0:
400,72,39149,1,0,0:0:0:0:
104,40,39481,1,0,0:0:0:0:
416,176,39812,2,0,L|432:80,1,85
80,224,40310,5,0,0:0:0:0:
232,192,40475,1,0,0:0:0:0:
384,152,40641,1,0,0:0:0:0:
136,144,40807,2,0,L|104:96,1,42.5
312,112,40972,2,0,P|360:72|392:24,2,85
176,128,41470,6,0,P|128:152|128:272,1,170
432,256,41967,2,0,L|336:256,1,85
208,208,42298,2,0,L|312:208,1,85
464,128,42630,2,0,L|368:128,1,85
64,136,42961,5,0,0:0:0:0:
224,112,43127,1,0,0:0:0:0:
376,88,43293,1,0,0:0:0:0:
128,208,43459,2,0,L|80:192,2,42.5
240,224,43790,2,0,L|288:152,1,85
400,152,44122,2,0,L|344:56,1,85
208,80,44453,6,0,L|208:-8,1,85
360,112,44785,1,0,0:0:0:0:
272,168,44950,1,0,0:0:0:0:
392,216,45116,2,0,L|448:240,2,42.5
80,224,45448,1,0,0:0:0:0:
176,224,45613,6,0,P|240:216|352:56,1,255
248,72,46276,1,0,0:0:0:0:
368,72,46442,1,0,0:0:0:0:
216,80,46608,6,0,P|144:96|192:240,1,255
320,248,47271,1,0,0:0:0:0:
208,304,47437,1,0,0:0:0:0:
368,328,47602,6,0,P|440:280|400:216,1,170
160,208,48100,1,0,0:0:0:0:
104,192,48182,1,0,0:0:0:0:
56,168,48265,6,0,P|32:104|32:64,1,85
152,104,48597,2,0,P|192:80|208:40,1,85
96,48,48928,1,0,0:0:0:0:
240,136,49094,1,0,0:0:0:0:
88,192,49260,1,0,0:0:0:0:
192,312,49426,5,0,0:0:0:0:
256,312,49508,1,0,0:0:0:0:
312,272,49591,1,0,0:0:0:0:
256,224,49674,1,0,0:0:0:0:
192,224,49757,1,0,0:0:0:0:
312,144,49840,6,0,L|320:80,1,42.5
144,96,50006,2,0,L|128:40,1,42.5
344,56,50171,1,0,0:0:0:0:
440,64,50254,6,0,P|467:121|477:184,2,127.5
72,168,50917,1,0,0:0:0:0:
352,232,51414,6,0,P|400:184|368:88,1,170
216,80,51912,2,0,L|104:48,1,85
424,96,52243,6,0,L|320:72,2,85
320,160,52740,2,0,L|280:120,1,42.5
88,80,52906,2,0,P|40:120|40:176,1,85
160,160,53238,2,0,L|72:160,1,85
432,200,53569,6,0,L|328:200,1,85
208,160,53901,1,0,0:0:0:0:
336,120,54066,1,0,0:0:0:0:
376,104,54149,1,0,0:0:0:0:
408,64,54232,1,0,0:0:0:0:
280,48,54398,2,0,L|192:48,2,85
160,128,54895,6,0,L|72:128,1,85
232,184,55227,1,0,0:0:0:0:
352,160,55392,1,0,0:0:0:0:
392,136,55475,1,0,0:0:0:0:
424,88,55558,1,0,0:0:0:0:
296,96,55724,1,0,0:0:0:0:
392,136,55890,1,0,0:0:0:0:
280,136,56055,6,0,P|224:104|208:88,1,85
304,48,56387,1,0,0:0:0:0:
184,48,56553,2,0,P|136:72|112:96,2,85
320,104,57050,2,0,L|360:136,1,42.5
264,160,57216,2,0,P|224:232|280:312,1,170
416,240,57713,6,0,L|448:208,2,42.5
296,224,58044,2,0,P|256:208|224:176,1,85
328,120,58376,2,0,L|328:24,1,85
208,48,58707,1,0,0:0:0:0:
304,88,58873,1,0,0:0:0:0:
192,144,59039,1,0,0:0:0:0:
144,168,59122,1,0,0:0:0:0:
120,216,59205,1,0,0:0:0:0:
392,240,59370,6,0,L|488:240,2,85
152,160,59868,2,0,L|248:160,1,85
368,120,60199,1,0,0:0:0:0:
256,104,60365,2,0,L|224:152,1,42.5
320,160,60530,2,0,P|336:208|320:240,1,85
216,264,60862,6,0,L|304:264,1,85
432,256,61193,2,0,L|472:224,2,42.5
384,256,61442,1,0,0:0:0:0:
336,256,61525,1,0,0:0:0:0:
296,256,61608,1,0,0:0:0:0:
104,248,61691,2,0,L|16:216,2,85
368,224,62188,2,0,P|448:192|432:112,1,170
312,120,62851,5,0,0:0:0:0:
424,96,63017,1,0,0:0:0:0:
440,64,63100,1,0,0:0:0:0:
464,24,63182,1,0,0:0:0:0:
336,24,63348,2,0,L|240:24,1,85
80,120,63680,2,0,L|168:120,1,85
416,256,64011,2,0,L|320:256,1,85
208,240,64343,5,0,0:0:0:0:
168,208,64426,1,0,0:0:0:0:
144,160,64508,1,0,0:0:0:0:
256,136,64674,2,0,P|304:96|312:64,2,85
136,144,65171,2,0,L|40:144,1,85
480,216,65503,5,0,0:0:0:0:
352,216,65669,1,0,0:0:0:0:
224,216,65834,1,0,0:0:0:0:
352,216,66166,1,0,0:0:0:0:
224,216,66332,1,0,0:0:0:0:
96,216,66497,1,0,0:0:0:0:
304,216,66829,5,0,0:0:0:0:
456,216,66995,1,0,0:0:0:0:
304,216,67160,1,0,0:0:0:0:
456,216,67326,1,0,0:0:0:0:
64,216,67658,1,0,0:0:0:0:
192,216,67823,1,0,0:0:0:0:
256,216,68155,5,0,0:0:0:0:
352,176,68321,2,0,L|384:136,1,42.5
280,112,68486,2,0,L|176:112,1,85
48,184,68818,1,0,0:0:0:0:
184,216,68984,1,0,0:0:0:0:
80,184,69149,1,0,0:0:0:0:
224,216,69315,1,0,0:0:0:0:
120,184,69481,5,0,0:0:0:0:
264,216,69647,1,0,0:0:0:0:
304,192,69729,1,0,0:0:0:0:
336,152,69812,1,0,0:0:0:0:
224,120,69978,2,0,L|128:120,1,85
280,72,70310,2,0,L|368:72,2,85
160,72,70807,6,0,P|120:104|208:176,1,170
304,184,71304,1,0,0:0:0:0:
136,216,71635,2,0,P|88:216|144:168,1,170
312,160,72298,5,0,0:0:0:0:
352,160,72381,1,0,0:0:0:0:
400,160,72464,1,0,0:0:0:0:
200,160,72630,1,0,0:0:0:0:
160,160,72713,1,0,0:0:0:0:
112,160,72796,1,0,0:0:0:0:
272,120,72961,2,0,L|360:104,2,85
136,128,73459,5,0,0:0:0:0:
24,80,73624,1,0,0:0:0:0:
376,144,73956,1,0,0:0:0:0:
488,96,74122,1,0,0:0:0:0:
48,296,74453,1,0,0:0:0:0:
136,256,74619,1,0,0:0:0:0:
296,272,74950,1,0,0:0:0:0:
216,240,75033,1,0,0:0:0:0:
136,208,75116,1,0,0:0:0:0:
376,144,75282,1,0,0:0:0:0:
136,104,75448,2,0,P|64:120|56:208,1,170
192,248,76111,5,0,0:0:0:0:
320,208,76276,1,0,0:0:0:0:
344,208,76359,1,0,0:0:0:0:
368,208,76442,1,0,0:0:0:0:
216,168,76608,2,0,L|192:80,1,85
352,112,76939,2,0,L|360:16,1,85
48,160,77271,2,0,L|144:160,1,85
272,160,77602,6,0,L|296:208,1,42.5
192,224,77768,2,0,L|168:312,1,85
312,312,78100,1,0,0:0:0:0:
432,248,78265,1,0,0:0:0:0:
256,264,78431,1,0,0:0:0:0:
384,192,78597,1,0,0:0:0:0:
208,216,78763,5,0,0:0:0:0:
336,152,78928,1,0,0:0:0:0:
376,120,79011,1,0,0:0:0:0:
400,72,79094,1,0,0:0:0:0:
104,144,79260,2,0,L|8:144,1,85
336,240,79591,2,0,L|432:240,1,85
272,240,79923,6,0,L|272:144,1,85
152,128,80254,2,0,L|96:104,2,42.5
280,120,80586,2,0,L|368:96,2,85
152,144,81083,2,0,P|112:208|176:256,1,170
384,280,81746,6,0,L|344:192,1,85
416,168,81995,1,0,0:0:0:0:
488,128,82077,2,0,L|440:32,1,85
104,296,82409,2,0,L|144:208,1,85
264,184,82740,1,0,0:0:0:0:
184,128,82906,1,0,0:0:0:0:
288,80,83072,1,0,0:0:0:0:
160,48,83238,2,0,L|112:24,2,42.5
312,40,83569,2,0,L|416:16,2,85
48,200,84066,5,0,0:0:0:0:
184,200,84232,1,0,0:0:0:0:
328,200,84398,1,0,0:0:0:0:
464,200,84729,1,0,0:0:0:0:
328,200,84895,1,0,0:0:0:0:
184,200,85061,1,0,0:0:0:0:
168,264,85392,5,0,0:0:0:0:
32,216,85558,1,0,0:0:0:0:
456,192,85724,1,0,0:0:0:0:
344,192,86055,1,0,0:0:0:0:
456,192,86221,1,0,0:0:0:0:
64,192,86387,1,0,0:0:0:0:
256,192,86718,12,0,88707,0:0:0:0:
112,256,88873,5,0,0:0:0:0:
432,208,89039,1,0,0:0:0:0:
72,136,89205,1,0,0:0:0:0:
