osu file format v14

[General]
AudioFilename: audio.mp3
AudioLeadIn: 0
PreviewTime: 51249
Countdown: 0
SampleSet: Soft
StackLeniency: 0.7
Mode: 2
LetterboxInBreaks: 0
WidescreenStoryboard: 1

[Editor]
Bookmarks: 1028,7989,13790,19094,29039,37160,38321,53569,65503,70807,72298,72796
DistanceSpacing: 1
BeatDivisor: 4
GridSize: 8
TimelineZoom: 1.9

[Metadata]
Title:Wagamama MIRROR HEART
TitleUnicode:ワガママMIRROR HEART
Artist:Ayaka Ohashi
ArtistUnicode:大橋彩香
Creator:Kazuyo
Version:Platter
Source:政宗くんのリベンジ
Tags:Masamune-kun no Revenge
BeatmapID:1389294
BeatmapSetID:655618

[Difficulty]
HPDrainRate:5.6
CircleSize:3.8
OverallDifficulty:8.3
ApproachRate:8.3
SliderMultiplier:1.7
SliderTickRate:2

[Events]
//Background and Video events
0,0,"bg.png",0,0
//Break Periods
//Storyboard Layer 0 (Background)
//Storyboard Layer 1 (Fail)
//Storyboard Layer 2 (Pass)
//Storyboard Layer 3 (Foreground)
//Storyboard Sound Samples

[TimingPoints]
531,331.491712707182,4,2,2,75,1,0
52243,-100,4,2,2,75,0,1
68155,-100,4,2,2,75,0,0
76111,-100,4,2,2,75,0,1
86718,-100,4,2,2,75,0,0

[HitObjects]
256,192,1028,5,0,0:0:0:0:
160,192,1359,2,0,P|112:168|80:112,1,85
184,104,1691,2,0,P|224:88|256:32,1,85
344,56,2188,1,0,0:0:0:0:
432,64,2354,2,0,P|464:96|416:208,1,170
344,216,2851,1,0,0:0:0:0:
256,208,3017,2,0,L|176:168,2,85
352,224,3514,6,0,P|424:240|480:152,1,170
192,104,4177,2,0,P|144:128|56:56,1,170
320,200,4840,2,0,P|384:216|368:304,2,170
176,200,5834,2,0,P|96:160|88:144,1,85
184,112,6166,2,0,P|224:88|248:48,1,85
408,288,7989,6,0,L|456:256,2,42.5
344,248,8238,2,0,L|296:216,2,42.5
408,216,8486,2,0,P|448:184|400:96,1,170
312,120,9149,1,0,0:0:0:0:
216,120,9315,2,0,P|162:57|81:62,1,170
184,64,9812,5,0,0:0:0:0:
296,152,9978,1,0,0:0:0:0:
344,152,10061,1,0,0:0:0:0:
295,151,10144,2,0,P|258:171|219:159,1,85
464,152,10475,1,0,0:0:0:0:
360,192,10641,2,0,L|280:232,2,85
448,184,11138,6,0,P|496:144|424:80,1,170
312,80,11635,2,0,L|288:128,1,42.5
224,160,11801,2,0,L|256:208,1,42.5
328,216,11967,2,0,P|376:256|288:304,1,170
224,312,12464,6,0,L|144:280,1,85
56,256,12796,1,0,0:0:0:0:
8,224,12879,1,0,0:0:0:0:
40,184,12961,2,0,L|120:128,1,85
216,192,13293,2,0,P|247:219|289:220,1,85
384,208,13790,6,0,L|472:176,1,85
368,120,14122,2,0,L|296:72,1,85
200,72,14453,2,0,L|112:128,1,85
48,192,14785,2,0,L|136:248,1,85
224,256,15116,5,0,0:0:0:0:
328,232,15282,1,0,0:0:0:0:
80,176,15448,2,0,P|48:144|32:80,1,85
152,96,15779,2,0,P|192:64|208:24,1,85
304,40,16111,1,0,0:0:0:0:
368,176,16443,5,0,0:0:0:0:
424,160,16525,1,0,0:0:0:0:
448,111,16608,2,0,L|368:80,1,85
272,72,16939,2,0,L|168:120,1,85
312,216,17271,1,0,0:0:0:0:
416,264,17437,1,0,0:0:0:0:
312,312,17602,2,0,P|232:340|148:338,1,170
448,296,18100,1,0,0:0:0:0:
280,224,19094,6,0,P|352:216|360:128,1,170
256,128,19591,2,0,L|168:128,1,85
72,160,19923,2,0,P|56:208|88:248,1,85
192,296,20254,1,0,0:0:0:0:
240,280,20337,1,0,0:0:0:0:
288,248,20420,6,0,P|328:208|344:168,1,85
224,168,20751,2,0,P|184:152|160:112,1,85
280,88,21083,1,0,0:0:0:0:
384,64,21249,1,0,0:0:0:0:
280,88,21414,2,0,P|240:144|248:184,1,85
344,168,21746,6,0,P|424:232|384:256,1,170
312,288,22243,1,0,0:0:0:0:
208,288,22409,1,0,0:0:0:0:
104,288,22575,2,0,L|24:232,2,85
208,296,23072,6,0,P|240:248|192:144,1,170
112,144,23569,2,0,P|96:96|120:72,1,85
216,56,23901,1,0,0:0:0:0:
328,208,24066,1,0,0:0:0:0:
368,176,24149,1,0,0:0:0:0:
328,144,24232,1,0,0:0:0:0:
240,144,24398,6,0,P|200:160|256:240,1,170
352,248,24895,2,0,L|440:248,1,85
120,240,25227,2,0,P|72:264|64:312,1,85
168,336,25558,1,0,0:0:0:0:
272,336,25724,6,0,P|360:312|440:248,1,170
312,240,26221,2,0,P|256:216|208:176,1,85
336,152,26553,1,0,0:0:0:0:
432,128,26718,2,0,L|472:104,2,42.5
320,80,27050,6,0,P|248:72|192:152,1,170
304,184,27547,2,0,L|392:184,1,85
104,248,27879,2,0,L|16:248,2,85
208,248,28376,2,0,P|272:248|320:152,1,170
224,160,28873,1,0,0:0:0:0:
128,160,29039,2,0,L|96:120,2,42.5
223,165,29370,2,0,P|265:160|304:176,1,85
416,232,29702,6,0,P|352:240|328:264,1,85
248,304,30033,1,0,0:0:0:0:
152,304,30199,2,0,P|104:288|64:256,1,85
368,192,30530,2,0,P|424:176|448:152,1,85
328,80,30862,1,0,0:0:0:0:
288,96,30945,1,0,0:0:0:0:
264,136,31028,6,0,P|216:152|152:136,1,85
80,176,31359,2,0,P|56:224|64:264,1,85
168,296,31691,1,0,0:0:0:0:
256,272,31856,1,0,0:0:0:0:
144,208,32022,2,0,P|72:224|32:216,1,85
136,120,32354,6,0,P|176:152|248:80,1,170
336,80,32851,2,0,P|352:120|408:136,1,85
248,216,33182,2,0,P|224:256|176:264,1,85
88,288,33514,1,0,0:0:0:0:
184,336,33680,5,0,0:0:0:0:
288,320,33845,1,0,0:0:0:0:
376,256,34011,1,0,0:0:0:0:
272,232,34177,2,0,L|248:184,1,42.5
336,168,34343,2,0,P|376:144|368:96,2,85
232,168,34840,1,0,0:0:0:0:
472,232,35006,6,0,P|456:288|344:264,1,170
240,264,35503,1,0,0:0:0:0:
344,208,35669,1,0,0:0:0:0:
232,168,35834,2,0,P|160:144|128:112,1,85
48,144,36166,2,0,P|24:200|56:248,1,85
136,280,36497,1,0,0:0:0:0:
240,240,36663,1,0,0:0:0:0:
352,216,36829,2,0,P|408:192|456:208,1,85
168,144,37160,5,0,0:0:0:0:
120,128,37243,1,0,0:0:0:0:
72,144,37326,2,0,P|56:192|72:240,1,85
312,256,37823,2,0,P|344:208|336:160,2,85
200,264,38321,6,0,L|128:224,1,42.5
256,216,38486,2,0,L|288:184,1,42.5
200,160,38652,2,0,P|160:136|104:80,1,85
320,80,39149,1,0,0:0:0:0:
96,56,39481,1,0,0:0:0:0:
344,64,39812,2,0,L|432:40,1,85
216,64,40310,5,0,0:0:0:0:
104,64,40475,1,0,0:0:0:0:
216,64,40641,1,0,0:0:0:0:
312,192,40972,5,0,0:0:0:0:
440,192,41138,2,0,P|471:164|482:124,2,85
328,192,41635,1,0,0:0:0:0:
216,232,41801,2,0,P|216:273|244:304,1,85
352,304,42133,1,0,0:0:0:0:
464,272,42298,2,0,P|480:208|384:152,1,170
232,144,42961,5,0,0:0:0:0:
120,144,43127,1,0,0:0:0:0:
8,144,43293,1,0,0:0:0:0:
128,64,43459,1,0,0:0:0:0:
168,64,43542,1,0,0:0:0:0:
216,64,43624,2,0,P|248:96|264:136,1,85
384,136,43956,1,0,0:0:0:0:
264,144,44122,2,0,P|208:168|224:280,1,170
304,272,44619,1,0,0:0:0:0:
56,280,44785,2,0,P|16:256|0:208,2,85
160,280,45282,1,0,0:0:0:0:
320,256,45613,6,0,P|400:240|344:88,1,255
192,176,46608,2,0,P|112:160|168:8,1,255
352,48,47602,6,0,P|392:96|304:144,1,170
216,160,48100,1,0,0:0:0:0:
112,184,48265,2,0,P|72:224|64:264,1,85
192,288,48597,2,0,P|232:304|272:296,1,85
376,240,48928,1,0,0:0:0:0:
472,176,49094,2,0,L|512:144,2,42.5
360,144,49426,2,0,P|296:120|216:192,1,170
128,208,49923,2,0,P|96:256|48:256,1,85
376,240,50254,6,0,P|448:200|480:160,2,127.5
80,240,50917,5,0,0:0:0:0:
320,160,51414,5,0,0:0:0:0:
192,160,51746,2,0,L|112:120,2,85
304,192,52243,6,0,P|440:216|456:200,1,170
360,120,52740,1,0,0:0:0:0:
240,112,52906,1,0,0:0:0:0:
136,160,53072,2,0,P|96:192|40:208,2,85
384,160,53569,5,0,0:0:0:0:
424,184,53652,1,0,0:0:0:0:
464,224,53735,2,0,P|480:272|464:312,1,85
360,320,54066,2,0,P|280:304|248:312,1,85
168,304,54398,2,0,P|120:288|96:240,1,85
200,192,54729,1,0,0:0:0:0:
288,152,54895,6,0,P|368:152|344:56,1,170
264,64,55392,1,0,0:0:0:0:
144,88,55558,2,0,P|112:120|152:224,1,170
264,232,56055,1,0,0:0:0:0:
376,216,56221,2,0,L|440:192,2,42.5
264,232,56553,2,0,P|216:240|176:272,1,85
72,272,56884,1,0,0:0:0:0:
192,232,57050,1,0,0:0:0:0:
312,200,57216,2,0,P|360:144|272:80,1,170
200,80,57713,5,0,0:0:0:0:
144,120,57796,1,0,0:0:0:0:
112,184,57879,2,0,P|96:240|112:272,1,85
224,280,58210,2,0,P|288:304|344:296,1,85
424,240,58542,2,0,P|376:208|328:208,1,85
240,192,58873,6,0,P|152:176|128:104,1,170
240,88,59370,2,0,L|328:72,1,85
456,96,59702,1,0,0:0:0:0:
344,192,59868,2,0,L|288:176,2,42.5
472,216,60199,6,0,P|472:272|352:312,1,170
264,296,60696,2,0,P|184:272|160:280,1,85
72,256,61028,2,0,P|96:200|136:176,1,85
224,176,61359,2,0,P|272:192|384:144,1,170
424,104,61774,1,0,0:0:0:0:
384,64,61856,2,0,P|320:64|272:64,1,85
184,64,62188,2,0,P|128:80|168:160,1,170
413,330,62851,6,0,P|452:316|472:280,2,85
304,328,63348,2,0,P|256:336|168:248,1,170
288,208,63845,2,0,P|336:176|352:136,1,85
224,112,64177,2,0,P|176:88|104:176,1,170
200,200,64674,2,0,L|312:200,1,85
152,296,65006,2,0,P|118:272|99:231,2,85
264,296,65503,5,0,0:0:0:0:
384,296,65669,1,0,0:0:0:0:
264,296,65834,1,0,0:0:0:0:
8,176,66166,1,0,0:0:0:0:
120,176,66332,1,0,0:0:0:0:
232,176,66497,1,0,0:0:0:0:
456,184,66829,6,0,P|504:152|512:120,2,85
344,184,67326,1,0,0:0:0:0:
128,184,67658,2,0,P|80:208|64:240,1,85
248,184,68155,6,0,P|296:176|336:152,1,85
440,120,68486,1,0,0:0:0:0:
328,160,68652,2,0,P|288:200|304:256,1,85
416,248,68984,2,0,P|448:280|448:328,1,85
344,336,69315,1,0,0:0:0:0:
232,336,69481,6,0,P|168:320|136:272,2,85
344,336,69978,1,0,0:0:0:0:
144,216,70310,2,0,L|64:168,2,85
376,208,70807,1,0,0:0:0:0:
176,208,71138,2,0,P|144:171|144:120,1,85
368,136,71635,2,0,P|416:120|392:16,1,170
184,80,72298,6,0,L|136:112,2,42.5
304,112,72630,2,0,L|352:136,2,42.5
192,200,72961,2,0,L|152:240,2,42.5
312,224,73293,1,0,0:0:0:0:
424,216,73459,6,0,L|496:160,1,85
96,152,73956,2,0,L|8:88,1,85
368,112,74453,2,0,L|456:64,1,85
216,168,74950,5,0,0:0:0:0:
112,168,75116,2,0,L|24:216,1,85
144,248,75448,2,0,P|192:272|256:176,1,170
376,192,76111,6,0,P|440:168|456:136,1,85
328,112,76442,2,0,P|280:96|256:64,1,85
136,88,76774,1,0,0:0:0:0:
48,152,76939,1,0,0:0:0:0:
136,216,77105,1,0,0:0:0:0:
248,240,77271,1,0,0:0:0:0:
360,248,77437,6,0,P|400:232|424:200,1,85
152,248,77768,2,0,P|112:232|87:199,1,85
192,160,78100,2,0,P|240:144|264:112,1,85
368,144,78431,2,0,P|384:192|424:216,1,85
296,240,78763,6,0,P|240:248|208:296,1,85
376,256,79094,2,0,P|404:286|446:285,2,85
280,280,79591,2,0,P|224:272|200:224,1,85
96,200,79923,1,0,0:0:0:0:
208,160,80089,6,0,P|264:160|288:144,1,85
392,128,80420,2,0,L|432:96,1,42.5
160,112,80585,2,0,P|112:136|80:176,1,85
192,224,80917,1,0,0:0:0:0:
304,240,81083,2,0,P|368:256|432:352,1,170
320,336,81746,6,0,L|216:336,1,85
136,256,82078,2,0,L|240:256,1,85
328,256,82409,2,0,P|400:240|432:208,1,85
488,168,82740,2,0,L|504:128,1,42.5
424,112,82906,6,0,P|368:96|344:56,1,85
240,104,83238,1,0,0:0:0:0:
136,168,83403,1,0,0:0:0:0:
312,192,83569,1,0,0:0:0:0:
224,256,83735,1,0,0:0:0:0:
384,272,84066,6,0,L|464:240,2,85
240,192,84729,2,0,L|152:144,2,85
400,144,85392,6,0,L|480:112,2,85
104,176,86055,2,0,L|16:152,2,85
256,192,86718,12,0,89205,0:0:0:0:
