osu file format v14

[General]
AudioFilename: audio.mp3
AudioLeadIn: 0
PreviewTime: 51249
Countdown: 0
SampleSet: None
StackLeniency: 0.7
Mode: 2
LetterboxInBreaks: 0
WidescreenStoryboard: 1

[Editor]
Bookmarks: 1028,7989,13790,19094,29039,37160,38321,53569,65503,70807,72298,72796
DistanceSpacing: 1
BeatDivisor: 4
GridSize: 8
TimelineZoom: 1.9

[Metadata]
Title:Wagamama MIRROR HEART
TitleUnicode:ワガママMIRROR HEART
Artist:Ayaka Ohashi
ArtistUnicode:大橋彩香
Creator:Kazuyo
Version:Cup
Source:政宗くんのリベンジ
Tags:Masamune-kun no Revenge
BeatmapID:1389293
BeatmapSetID:655618

[Difficulty]
HPDrainRate:4.2
CircleSize:3.1
OverallDifficulty:6.4
ApproachRate:6.4
SliderMultiplier:1.4
SliderTickRate:2

[Events]
//Background and Video events
0,0,"bg.png",0,0
//Break Periods
//Storyboard Layer 0 (Background)
//Storyboard Layer 1 (Fail)
//Storyboard Layer 2 (Pass)
//Storyboard Layer 3 (Foreground)
//Storyboard Sound Samples

[TimingPoints]
531,331.491712707182,4,2,0,65,1,0
52243,-100,4,2,0,75,0,1
62188,-100,4,2,0,5,0,1
62437,-100,4,2,0,75,0,1
68155,-100,4,2,0,65,0,0
76111,-100,4,2,0,75,0,1
86718,-100,4,2,0,65,0,0

[HitObjects]
208,264,1028,6,0,P|128:240|216:112,1,280
288,144,1856,2,0,P|344:152|288:32,1,280
184,288,3182,6,0,P|120:232|192:80,2,280
328,288,5171,2,0,P|392:232|320:80,2,280
168,152,8486,6,0,P|120:144|56:72,1,140
168,80,9149,2,0,P|224:72|360:160,2,210
64,96,10475,1,0,0:0:0:0:
160,136,10807,1,0,0:0:0:0:
264,160,11138,6,0,P|320:152|400:96,1,140
272,80,11801,2,0,P|176:96|72:48,2,210
368,80,13127,2,0,P|416:96|448:184,1,140
344,256,13790,5,0,0:0:0:0:
232,248,14122,1,0,0:0:0:0:
136,192,14453,1,0,0:0:0:0:
248,136,14785,1,0,0:0:0:0:
368,224,15116,6,0,P|416:200|464:128,1,140
360,128,15779,2,0,P|296:104|256:40,1,140
160,48,16442,2,0,P|112:112|176:224,1,210
336,216,17271,2,0,L|400:168,2,70
216,216,17934,1,0,0:0:0:0:
192,216,18100,1,0,0:0:0:0:
176,96,19094,5,0,0:0:0:0:
288,120,19426,1,0,0:0:0:0:
400,112,19757,1,0,0:0:0:0:
296,216,20089,2,0,P|256:256|160:264,1,140
264,320,20751,2,0,P|328:344|400:336,1,140
496,296,21414,1,0,0:0:0:0:
392,224,21746,5,0,0:0:0:0:
264,224,22077,1,0,0:0:0:0:
152,272,22409,1,0,0:0:0:0:
264,224,22740,2,0,P|328:216|384:168,1,140
256,120,23403,1,0,0:0:0:0:
152,176,23735,1,0,0:0:0:0:
256,216,24066,1,0,0:0:0:0:
392,272,24398,6,0,P|437:281|504:368,2,140
300,309,25392,2,0,P|282:243|224:208,1,140
336,200,26055,2,0,P|336:136|408:96,1,140
394,96,26718,1,0,0:0:0:0:
264,112,27050,5,0,0:0:0:0:
160,192,27381,1,0,0:0:0:0:
272,264,27713,2,0,P|328:256|400:296,1,140
304,184,28376,1,0,0:0:0:0:
184,224,28707,1,0,0:0:0:0:
80,264,29039,6,0,P|48:224|104:136,1,140
208,160,29536,2,0,P|240:110|184:24,2,140
104,128,30365,2,0,P|80:216|120:232,1,140
192,232,30862,1,0,0:0:0:0:
288,232,31028,6,0,P|328:288|408:304,1,140
480,168,31691,2,0,P|448:224|360:248,1,140
240,320,32354,2,0,P|200:304|160:216,1,140
272,200,33017,1,0,0:0:0:0:
384,152,33348,1,0,0:0:0:0:
256,112,33680,6,0,P|192:120|112:96,2,140
392,104,34674,1,0,0:0:0:0:
272,104,35006,2,0,P|192:96|104:256,1,280
240,256,36000,1,0,0:0:0:0:
360,256,36332,1,0,0:0:0:0:
472,192,36663,1,0,0:0:0:0:
360,144,36995,1,0,0:0:0:0:
224,136,37326,6,0,P|160:160|104:208,2,140
192,272,38321,2,0,P|224:296|336:288,1,140
408,288,38818,2,0,P|448:296|480:200,2,140
200,280,39812,1,0,0:0:0:0:
160,280,39978,1,0,0:0:0:0:
384,208,40310,5,0,0:0:0:0:
424,208,40475,1,0,0:0:0:0:
464,208,40641,1,0,0:0:0:0:
288,208,40972,2,0,P|238:256|211:320,1,140
120,320,41470,2,0,P|71:270|48:204,1,140
144,176,41967,2,0,P|216:168|280:128,2,140
56,176,42961,5,0,0:0:0:0:
32,152,43127,1,0,0:0:0:0:
56,120,43293,1,0,0:0:0:0:
184,112,43790,2,0,P|224:136|320:152,1,140
424,160,44287,2,0,P|456:192|416:280,2,140
312,160,45282,1,0,0:0:0:0:
200,176,45613,6,0,P|160:176|128:320,1,210
224,312,46608,2,0,P|314:274|305:176,1,210
176,176,47602,1,0,0:0:0:0:
72,176,47934,1,0,0:0:0:0:
176,176,48265,6,0,P|224:184|312:152,1,140
308,154,48763,1,0,0:0:0:0:
176,136,49094,1,0,0:0:0:0:
256,192,49426,12,0,51083,0:0:0:0:
256,192,51414,5,0,0:0:0:0:
344,192,51746,2,0,P|408:176|432:152,2,70
248,200,52243,2,0,P|160:200|104:232,1,140
200,304,52906,1,0,0:0:0:0:
312,312,53238,1,0,0:0:0:0:
416,312,53569,6,0,P|440:272|400:184,1,140
288,184,54232,1,0,0:0:0:0:
168,192,54564,1,0,0:0:0:0:
48,208,54895,2,0,P|32:176|192:96,1,280
304,88,55890,1,0,0:0:0:0:
432,104,56221,6,0,P|480:144|464:232,2,140
312,104,57216,1,0,0:0:0:0:
216,112,57547,2,0,P|192:184|136:208,2,140
320,104,58542,1,0,0:0:0:0:
416,176,58873,1,0,0:0:0:0:
320,248,59205,2,0,P|254:269|219:328,1,140
344,320,59868,1,0,0:0:0:0:
216,320,60199,6,0,P|128:256|104:208,2,140
344,296,61193,1,0,0:0:0:0:
384,264,61359,1,0,0:0:0:0:
232,200,61691,1,0,0:0:0:0:
200,160,61856,1,0,0:0:0:0:
328,136,62188,2,0,P|384:112|432:40,1,140
296,56,62851,5,0,0:0:0:0:
176,104,63182,1,0,0:0:0:0:
80,216,63514,2,0,P|104:256|208:296,1,140
320,296,64177,1,0,0:0:0:0:
432,248,64508,1,0,0:0:0:0:
320,200,64840,1,0,0:0:0:0:
208,160,65171,1,0,0:0:0:0:
328,112,65503,6,0,P|376:104|464:56,1,140
344,72,66166,2,0,P|264:64|216:32,1,140
96,80,66829,1,0,0:0:0:0:
64,112,66995,1,0,0:0:0:0:
152,136,67160,1,0,0:0:0:0:
184,160,67326,1,0,0:0:0:0:
56,256,67658,1,0,0:0:0:0:
56,256,67823,1,0,0:0:0:0:
160,256,68155,6,0,P|200:240|248:160,1,140
344,160,68818,2,0,P|371:222|432:256,1,140
336,248,69481,2,0,P|248:248|192:272,1,140
80,304,70144,1,0,0:0:0:0:
200,328,70475,1,0,0:0:0:0:
320,296,70807,5,0,0:0:0:0:
416,208,71138,1,0,0:0:0:0:
448,208,71304,1,0,0:0:0:0:
352,152,71635,2,0,P|320:192|368:272,1,140
456,264,72298,1,0,0:0:0:0:
392,264,72464,2,0,P|312:224|272:160,2,140
296,296,73459,6,0,P|224:304|96:224,2,210
400,248,74950,1,0,0:0:0:0:
440,208,75116,1,0,0:0:0:0:
400,152,75282,1,0,0:0:0:0:
328,152,75448,2,0,L|176:176,1,140
80,208,76111,6,0,P|48:184|96:104,1,140
176,104,76774,2,0,L|280:208,1,140
376,208,77437,2,0,P|408:160|352:88,1,140
248,88,78100,1,0,0:0:0:0:
128,88,78431,1,0,0:0:0:0:
248,88,78763,5,0,0:0:0:0:
368,96,79094,1,0,0:0:0:0:
480,152,79426,1,0,0:0:0:0:
384,232,79757,1,0,0:0:0:0:
264,232,80089,6,0,P|128:216|176:112,1,280
272,128,81083,2,0,P|320:152|376:72,2,140
144,136,82077,1,0,0:0:0:0:
48,208,82409,1,0,0:0:0:0:
144,280,82740,1,0,0:0:0:0:
264,280,83072,2,0,P|336:256|384:200,2,140
144,280,84066,6,0,L|88:232,2,70
264,216,84729,2,0,L|336:168,2,70
128,120,85392,6,0,L|56:64,2,70
272,120,86055,1,0,0:0:0:0:
328,120,86221,1,0,0:0:0:0:
384,120,86387,1,0,0:0:0:0:
256,192,86718,12,0,89370,0:0:0:0:
