osu file format v14

[General]
AudioFilename: audio.mp3
AudioLeadIn: 0
PreviewTime: 50800
Countdown: 0
SampleSet: Soft
StackLeniency: 0.7
Mode: 0
LetterboxInBreaks: 0
WidescreenStoryboard: 0

[Editor]
DistanceSpacing: 1
BeatDivisor: 4
GridSize: 32
TimelineZoom: 2.899999

[Metadata]
Title:Wagamama MIRROR HEART
TitleUnicode:ワガママMIRROR HEART
Artist:Ayaka Ohashi
ArtistUnicode:大橋彩香
Creator:Kagetsu
Version:Normal
Source:政宗くんのリベンジ
Tags:masamune kun no revenge ribenji opening tv size Haruto Meg iMage-- Janpai haruto_aizawa MugiwaraSekai Irohas Milan-
BeatmapID:1177724
BeatmapSetID:554626

[Difficulty]
HPDrainRate:4
CircleSize:3.5
OverallDifficulty:4
ApproachRate:5
SliderMultiplier:1.1
SliderTickRate:1

[Events]
//Background and Video events
Video,313,"video.avi"
0,0,"776243.jpg",0,0
//Break Periods
//Storyboard Layer 0 (Background)
//Storyboard Layer 1 (Fail)
//Storyboard Layer 2 (Pass)
//Storyboard Layer 3 (Foreground)
//Storyboard Sound Samples

[TimingPoints]
-83,331.491712707182,4,2,1,60,1,0
13176,-100,4,2,1,70,0,0
18480,-100,4,2,1,60,0,0
51629,-100,4,2,1,80,0,1
61408,-100,4,2,1,80,0,0
63563,-100,4,2,1,80,0,1
72845,-100,4,2,1,80,0,0
75497,-100,4,2,1,80,0,1
86104,-100,4,2,1,80,0,0

[Colours]
Combo1 : 44,107,226
Combo2 : 243,211,114
Combo3 : 58,92,69
Combo4 : 104,155,193

[HitObjects]
468,329,414,6,0,L|474:163,1,165,2|2,0:0|0:0,0:0:0:0:
437,60,1242,2,0,P|381:51|317:49,1,110,2|0,0:0|0:0,0:0:0:0:
291,85,1740,2,0,P|205:98|118:102,1,165,2|0,0:0|0:0,0:0:0:0:
46,197,2568,6,0,P|101:200|156:207,1,110,2|2,0:0|0:0,0:0:0:0:
187,312,3231,2,0,P|241:305|296:302,1,110,2|0,0:0|0:0,0:0:0:0:
358,211,3894,2,0,P|412:213|467:220,2,110,2|2|2,0:0|0:0|0:0,0:0:0:0:
250,184,4889,1,2,0:0:0:0:
217,79,5220,1,2,0:0:0:0:
256,192,5552,12,0,7209,0:0:0:0:
61,83,7872,6,0,B|113:37|113:37|334:45,1,275,6|0,0:3|0:0,0:0:0:0:
418,89,9033,2,0,L|407:198,1,110,2|0,0:0|0:0,0:0:0:0:
357,223,9530,2,0,P|275:212|125:210,1,220,2|2,0:0|0:0,0:0:0:0:
66,294,10524,6,0,P|28:222|55:138,1,165,2|0,0:3|0:0,0:0:0:0:
134,74,11353,1,2,0:0:0:0:
246,77,11684,2,0,P|299:79|355:82,2,110,2|0|0,0:0|0:0|0:0,0:0:0:0:
201,178,12679,2,0,L|211:239,1,55,2|8,0:3|0:0,0:0:0:0:
172,336,13176,6,0,P|226:332|281:330,1,110,2|2,0:3|0:3,0:0:0:0:
307,281,13673,2,0,P|361:284|416:286,1,110,2|0,0:3|0:0,0:0:0:0:
445,238,14171,1,2,0:3:0:0:
472,190,14336,2,0,P|485:142|447:75,1,110,0|0,0:0|0:0,0:0:0:0:
414,60,14834,1,2,0:3:0:0:
368,29,14999,2,0,L|196:22,1,165,0|8,0:0|0:0,0:0:0:0:
92,22,15828,6,0,P|79:74|101:123,1,110,6|8,0:3|0:0,0:0:0:0:
156,130,16325,2,0,P|168:182|146:231,1,110,2|2,0:3|0:3,0:0:0:0:
119,280,16823,1,2,0:3:0:0:
100,331,16988,2,0,L|232:320,1,110,8|2,0:0|0:3,0:0:0:0:
253,355,17486,1,8,0:0:0:0:
459,67,18480,6,0,B|402:98|402:98|243:65,1,220,6|2,0:3|0:3,0:0:0:0:
144,97,19475,1,2,0:3:0:0:
52,157,19806,2,0,P|56:211|58:266,1,110,2|2,0:3|0:3,0:0:0:0:
159,309,20469,2,0,P|160:254|165:199,1,110,2|8,0:3|0:0,0:0:0:0:
258,141,21132,5,2,0:3:0:0:
311,242,21463,1,0,0:0:0:0:
311,242,21629,2,0,P|389:271|473:230,1,165,0|2,0:0|0:3,0:0:0:0:
493,136,22458,2,0,P|497:81|499:26,2,110,2|2|2,0:3|0:3|0:3,0:0:0:0:
384,160,23452,1,8,0:0:0:0:
329,64,23784,6,0,P|231:31|185:123,1,220,6|2,0:3|0:3,0:0:0:0:
262,195,24778,1,2,0:3:0:0:
185,272,25110,2,0,L|50:258,1,110,2|2,0:3|0:3,0:0:0:0:
23,357,25773,2,0,L|132:368,1,110,2|8,0:3|0:0,0:0:0:0:
242,360,26436,5,2,0:3:0:0:
303,268,26767,1,2,0:3:0:0:
303,268,26933,2,0,B|362:294|362:294|465:264,1,165,0|2,0:0|0:3,0:0:0:0:
503,165,27762,2,0,P|513:115|491:56,1,110,0|6,0:0|0:3,0:0:0:0:
384,66,28425,2,0,L|395:11,2,55,8|8|8,0:0|0:0|0:0,0:0:0:0:
342,101,28922,6,0,P|273:78|185:106,1,165,6|8,0:3|0:0,0:0:0:0:
77,101,29751,2,0,P|92:149|102:217,1,110,0|8,0:0|0:0,0:0:0:0:
50,230,30248,2,0,P|35:278|25:346,1,110,0|0,0:0|0:0,0:0:0:0:
74,363,30745,1,8,0:0:0:0:
163,298,31077,2,0,P|217:294|272:292,1,110,0|8,0:0|0:0,0:0:0:0:
358,361,31740,6,0,P|330:308|359:207,1,165,2|0,0:3|0:0,0:0:0:0:
436,285,32568,1,0,0:0:0:0:
449,176,32900,2,0,L|285:156,1,165,2|8,0:3|0:0,0:0:0:0:
185,110,33729,1,2,0:3:0:0:
88,162,34060,1,8,0:0:0:0:
71,273,34392,6,0,P|119:258|187:248,1,110,2|8,0:3|0:0,0:0:0:0:
213,290,34889,2,0,P|287:313|391:328,1,165,0|8,0:0|0:0,0:0:0:0:
445,243,35718,2,0,P|446:188|451:133,1,110,2|8,0:3|0:0,0:0:0:0:
412,29,36381,2,0,L|490:15,2,55,2|0|8,0:3|0:0|0:0,0:0:0:0:
375,70,36878,6,0,B|335:87|335:87|265:67,1,110,2|0,0:3|0:0,0:0:0:0:
217,80,37375,2,0,P|162:78|108:64,1,110,8|8,0:0|0:0,0:0:0:0:
57,85,37872,1,8,0:0:0:0:
49,194,38204,2,0,P|102:180|157:178,1,110,6|6,0:3|0:3,0:0:0:0:
237,253,38867,2,0,B|286:279|286:279|406:256,1,165,6|8,0:3|0:0,0:0:0:0:
458,169,39696,6,0,B|512:179,2,55,8|8|8,0:0|0:0|0:0,0:0:0:0:
393,79,40358,2,0,P|338:81|284:95,1,110,0|10,0:0|0:0,0:0:0:0:
253,140,40856,2,0,P|198:141|145:126,1,110,2|2,0:3|0:3,0:0:0:0:
116,79,41353,1,8,0:0:0:0:
51,168,41684,2,0,B|71:277,1,110,2|8,0:3|0:0,0:0:0:0:
168,329,42347,6,0,B|178:274,2,55,8|8|8,0:0|0:0|0:0,0:0:0:0:
277,343,43010,2,0,P|332:344|385:329,1,110,2|8,0:0|0:0,0:0:0:0:
435,307,43508,2,0,P|436:252|421:199,1,110,2|0,0:3|0:0,0:0:0:0:
370,177,44005,1,8,0:0:0:0:
405,73,44336,2,0,L|295:96,1,110,2|8,0:3|0:0,0:0:0:0:
218,18,44999,6,4,B|243:72|243:72|222:190,1,165,2|2,0:0|0:0,0:0:0:0:
124,307,45994,2,4,B|99:253|99:253|120:135,1,165,2|2,0:0|0:0,0:0:0:0:
224,276,46988,1,8,0:0:0:0:
331,250,47320,1,8,0:0:0:0:
416,319,47651,6,0,P|424:264|440:212,1,110,2|8,0:3|0:0,0:0:0:0:
485,180,48149,2,0,P|476:125|460:73,1,110,8|2,0:0|0:3,0:0:0:0:
349,76,48812,2,0,P|287:80|222:49,1,110,2|0,0:3|0:0,0:0:0:0:
202,26,49309,1,8,0:0:0:0:
164,128,49640,6,0,L|157:224,2,82.5,8|8|8,0:0|0:0|0:0,0:0:0:0:
119,95,50303,1,8,0:0:0:0:
471,318,51629,6,0,L|331:306,1,110,6|8,0:3|0:0,0:0:0:0:
323,269,52126,2,0,L|134:284,1,165,0|8,0:0|0:0,0:0:0:0:
114,315,52789,1,0,0:0:0:0:
71,349,52955,2,0,P|62:294|46:242,1,110,2|8,0:3|0:0,0:0:0:0:
41,132,53618,2,0,L|150:141,1,110,2|8,0:3|0:0,0:0:0:0:
255,97,54281,6,0,P|238:149|230:203,1,110,2|8,0:3|0:0,0:0:0:0:
255,310,54944,2,0,P|299:277|348:252,1,110,2|8,0:3|0:0,0:0:0:0:
457,242,55607,2,0,L|451:309,2,55,2|0|8,0:3|0:0|0:0,0:0:0:0:
427,195,56104,2,0,L|414:64,1,110,0|0,0:0|0:0,0:0:0:0:
367,58,56602,1,8,0:0:0:0:
307,150,56933,6,0,P|252:141|200:125,1,110,6|8,0:3|0:0,0:0:0:0:
166,81,57430,1,0,0:3:0:0:
147,28,57596,2,0,P|92:37|40:53,1,110,2|8,0:3|0:0,0:0:0:0:
22,105,58093,2,0,L|37:216,1,110,0|0,0:0|0:0,0:0:0:0:
10,262,58591,1,8,0:0:0:0:
101,322,58922,2,0,L|212:307,1,110,2|8,0:3|0:0,0:0:0:0:
292,380,59585,6,4,B|267:326|267:326|288:208,1,165,6|4,0:3|0:3,0:0:0:0:
375,84,60579,1,8,0:0:0:0:
375,84,60745,2,0,L|209:102,1,165,6|8,0:3|0:0,0:0:0:0:
105,81,61574,2,0,P|121:133|129:187,1,110,2|2,0:3|0:0,0:0:0:0:
34,243,62237,5,6,0:3:0:0:
58,350,62568,2,0,P|110:333|164:325,1,110,8|8,0:0|0:0,0:0:0:0:
212,352,63066,1,8,0:0:0:0:
258,252,63397,1,6,0:3:0:0:
258,252,63563,2,0,P|313:261|365:277,1,110,0|8,0:0|0:0,0:0:0:0:
455,339,64226,2,0,P|464:284|480:232,1,110,2|8,0:3|0:0,0:0:0:0:
385,176,64889,6,0,L|316:184,2,55,2|2|4,0:3|0:3|0:3,0:0:0:0:
453,89,65552,2,0,L|522:97,2,55,2|2|4,0:3|0:3|0:3,0:0:0:0:
343,74,66215,1,2,0:3:0:0:
343,74,66381,1,2,0:3:0:0:
237,19,66712,2,0,P|162:10|97:64,1,165,2|8,0:3|0:0,0:0:0:0:
76,172,67541,6,0,L|186:163,1,110,6|8,0:3|0:0,0:0:0:0:
230,195,68038,2,0,L|339:204,1,110,0|0,0:0|0:0,0:0:0:0:
383,171,68535,1,8,0:0:0:0:
492,160,68867,2,0,P|505:215|495:286,1,110,6|8,0:3|0:0,0:0:0:0:
488,321,69364,2,0,L|378:311,1,110,0|0,0:0|0:0,0:0:0:0:
347,356,69861,1,8,0:0:0:0:
271,276,70193,6,0,L|280:221,2,55,12|8|8,0:0|0:0|0:0,0:0:0:0:
242,323,70690,2,0,P|193:307|116:300,1,110,8|8,0:0|0:0,0:0:0:0:
89,330,71187,1,8,0:0:0:0:
45,363,71353,2,0,L|16:189,1,165,4|2,0:0|0:3,0:0:0:0:
101,128,72182,2,0,P|155:121|207:104,1,110,8|2,0:0|0:3,0:0:0:0:
315,125,72845,5,6,0:3:0:0:
315,125,73010,1,8,0:0:0:0:
405,61,73342,1,4,0:3:0:0:
405,61,73508,1,8,0:0:0:0:
418,170,73839,1,6,0:3:0:0:
418,170,74005,1,8,0:0:0:0:
361,264,74336,6,0,L|417:270,2,55,6|2|2,0:3|0:3|0:3,0:0:0:0:
314,233,74834,2,0,P|260:240|208:257,1,110,8|8,0:0|0:0,0:0:0:0:
110,310,75497,6,0,P|103:256|86:204,1,110,8|8,0:0|0:0,0:0:0:0:
40,102,76160,2,0,P|92:119|146:126,1,110,8|8,0:0|0:0,0:0:0:0:
229,199,76823,1,8,0:0:0:0:
275,100,77154,1,8,0:0:0:0:
372,150,77486,1,8,0:0:0:0:
418,53,77817,1,8,0:0:0:0:
492,134,78149,6,0,P|483:193|478:248,1,110,8|8,0:0|0:0,0:0:0:0:
484,297,78646,1,2,0:3:0:0:
379,330,78977,2,0,P|326:313|272:305,1,110,2|2,0:3|0:3,0:0:0:0:
223,332,79475,2,0,P|170:348|116:356,1,110,8|8,0:0|0:0,0:0:0:0:
72,322,79972,1,0,0:3:0:0:
45,273,80137,2,0,P|39:218|31:163,1,110,8|8,0:0|0:0,0:0:0:0:
89,70,80800,5,4,0:3:0:0:
175,138,81132,2,4,B|229:163|229:163|347:142,1,165,8|2,0:0|0:3,0:0:0:0:
382,120,81795,1,8,0:0:0:0:
432,97,81961,2,0,P|453:151|431:210,1,110,0|0,0:0|0:0,0:0:0:0:
407,242,82458,1,8,0:0:0:0:
305,284,82789,2,0,P|252:267|198:259,1,110,8|8,0:0|0:0,0:0:0:0:
106,276,83452,6,0,L|115:331,2,55,2|2|12,0:3|0:3|0:0,0:0:0:0:
18,210,84115,2,0,L|9:264,2,55,2|2|12,0:3|0:3|0:0,0:0:0:0:
96,132,84778,2,0,L|104:186,2,55,2|2|12,0:3|0:3|0:0,0:0:0:0:
8,65,85441,2,0,L|0:119,2,55,2|2|12,0:3|0:3|0:0,0:0:0:0:
256,192,86104,12,12,88591,0:0:0:0:
