osu file format v14

[General]
AudioFilename: audio.mp3
AudioLeadIn: 0
PreviewTime: 147893
Countdown: 0
SampleSet: Soft
StackLeniency: 0.7
Mode: 0
LetterboxInBreaks: 0
WidescreenStoryboard: 0

[Editor]
DistanceSpacing: 0.9
BeatDivisor: 4
GridSize: 4
TimelineZoom: 1.7

[Metadata]
Title:Wagamama MIRROR HEART
TitleUnicode:ワガママMIRROR HEART
Artist:Ayaka Ohashi
ArtistUnicode:大橋彩香
Creator:Fycho
Version:Extra
Source:政宗くんのリベンジ
Tags:masamune-kun's revenge anime opening full ver -Hitomi L1gHT_u japanese pop no jpop j-pop Masamune kun no Ribenji
BeatmapID:1182474
BeatmapSetID:559105

[Difficulty]
HPDrainRate:7
CircleSize:4
OverallDifficulty:8
ApproachRate:9.3
SliderMultiplier:1.7
SliderTickRate:1

[Events]
//Background and Video events
0,0,"BG.jpg",0,0
//Break Periods
2,194708,202738
//Storyboard Layer 0 (Background)
//Storyboard Layer 1 (Fail)
//Storyboard Layer 2 (Pass)
//Storyboard Layer 3 (Foreground)
//Storyboard Layer 4 (Overlay)
//Storyboard Sound Samples

[TimingPoints]
3072,331.491712707182,4,2,1,60,1,0
3403,-133.333333333333,4,2,1,60,0,0
3569,-133.333333333333,4,2,1,40,0,0
11027,-111.111111111111,4,2,1,40,0,0
21635,-111.111111111111,4,2,1,50,0,0
26939,-100,4,2,1,60,0,0
31911,-100,4,2,1,30,0,0
32243,-111.111111111111,4,2,1,50,0,0
34563,-83.3333333333333,4,2,1,50,0,0
34895,-111.111111111111,4,2,1,50,0,0
37215,-83.3333333333333,4,2,1,50,0,0
37547,-111.111111111111,4,2,1,50,0,0
39867,-83.3333333333333,4,2,1,50,0,0
40199,-111.111111111111,4,2,1,50,0,0
42685,-100,4,2,1,60,0,0
58762,-100,4,2,1,50,0,0
60751,-100,4,2,1,65,0,0
64066,-133.333333333333,4,2,1,65,0,0
64563,-133.333333333333,4,2,1,55,0,0
65060,-133.333333333333,4,2,1,60,0,0
65392,-100,4,2,3,70,0,0
65558,-100,4,2,1,70,0,0
78983,-83.3333333333333,4,2,1,70,0,0
79315,-100,4,2,1,70,0,0
79646,-83.3333333333333,4,2,1,70,0,0
79978,-100,4,2,1,70,0,0
88596,-83.3333333333333,4,2,1,70,0,0
89259,-83.3333333333333,4,2,1,75,0,0
97215,-100,4,2,1,80,0,0
97547,-83.3333333333333,4,2,1,80,0,0
97878,-100,4,2,1,80,0,0
98210,-83.3333333333333,4,2,1,80,0,0
98541,-100,4,2,1,80,0,0
98873,-83.3333333333333,4,2,1,80,0,0
99204,-100,4,2,1,80,0,0
99536,-83.3333333333333,4,2,1,80,0,0
99867,-100,4,2,1,50,0,0
105171,-100,4,2,1,60,0,0
110475,-111.111111111111,4,2,1,50,0,0
120420,-111.111111111111,4,2,1,60,0,0
120917,-100,4,2,1,60,0,0
136994,-100,4,2,1,50,0,0
138983,-100,4,2,1,65,0,0
147436,-100,4,2,2,60,0,0
147933,-100,4,2,1,65,0,0
148928,-100,4,3,3,70,0,0
149094,-100,4,2,1,70,0,0
162519,-83.3333333333333,4,2,1,70,0,0
162851,-100,4,2,1,70,0,0
163182,-83.3333333333333,4,2,1,70,0,0
163513,-100,4,2,1,70,0,0
172630,-100,4,2,1,70,0,0
194508,-100,4,2,1,40,0,0
195337,-100,4,2,2,40,0,0
203292,-100,4,2,1,40,0,0
205779,-100,4,2,1,50,0,0
205944,-100,4,2,1,60,0,0
207270,-100,4,2,3,70,0,0
207436,-100,4,2,1,70,0,0
220862,-83.3333333333333,4,2,1,70,0,0
221193,-100,4,2,1,70,0,0
221525,-83.3333333333333,4,2,1,70,0,0
221856,-100,4,2,1,70,0,0
231138,-83.3333333333333,4,2,1,75,0,0
242077,-83.3333333333333,4,2,1,80,0,0
242906,-83.3333333333333,4,2,1,75,0,0
249701,-100,4,2,1,80,0,0
250033,-83.3333333333333,4,2,1,80,0,0
250364,-100,4,2,1,80,0,0
250696,-83.3333333333333,4,2,1,80,0,0
251027,-100,4,2,1,80,0,0
251359,-83.3333333333333,4,2,1,80,0,0
251690,-100,4,2,1,80,0,0
252022,-83.3333333333333,4,2,1,80,0,0
252353,-100,4,2,1,70,0,0
254839,-100,4,2,1,60,0,0

[Colours]
Combo1 : 38,202,67
Combo2 : 37,95,165
Combo3 : 249,222,159
Combo4 : 32,228,234

[HitObjects]
36,132,3570,6,0,P|79:109|179:110,1,127.500004863739,2|2,0:0|0:0,0:0:0:0:
249,84,4066,2,0,P|246:126|235:151,1,63.7500024318696,2|2,0:0|0:0,0:0:0:0:
195,263,4397,6,0,P|225:325|347:329,1,191.250007295609,6|2,0:0|0:0,0:0:0:0:
337,337,5558,1,2,0:0:0:0:
375,222,5723,2,0,L|396:139,1,63.7500024318696,2|0,0:0|0:0,0:0:0:0:
272,77,6055,2,0,L|314:126,1,63.7500024318696,2|0,0:0|0:0,0:0:0:0:
452,55,6386,2,0,L|384:63,1,63.7500024318696,2|0,0:0|0:0,0:0:0:0:
272,77,6718,2,0,L|182:63,1,63.7500024318696,2|0,0:0|0:0,0:0:0:0:
98,123,7049,6,0,P|47:128|-1:63,2,127.500004863739,2|2|2,0:2|0:0|0:0,0:0:0:0:
249,13,8044,1,2,0:0:0:0:
99,123,8375,1,2,0:0:0:0:
175,205,8541,2,0,L|142:339,1,127.500004863739,2|2,0:0|0:0,0:0:0:0:
256,192,8955,12,0,10530,0:0:0:0:
67,286,10696,5,0,3:0:0:0:
67,286,10779,1,0,3:0:0:0:
67,286,10862,1,0,3:0:0:0:
67,286,10944,1,0,3:0:0:0:
67,286,11027,2,0,L|151:297,1,76.4999976654053,4|0,1:0|0:0,0:0:0:0:
330,337,11359,2,0,P|352:273|334:221,1,114.749996498108,2|2,0:0|0:0,0:0:0:0:
330,210,11690,1,2,3:2:0:0:
206,174,11856,2,0,L|123:188,1,76.4999976654053,2|0,0:0|3:2,0:0:0:0:
48,96,12188,6,0,P|97:91|149:26,1,114.749996498108,2|0,0:0|0:0,0:0:0:0:
151,25,12519,1,2,0:0:0:0:
215,122,12685,1,0,3:2:0:0:
215,122,12768,1,0,0:2:0:0:
215,122,12851,2,0,L|302:108,1,76.4999976654053,2|0,0:2|3:0,0:0:0:0:
420,79,13182,1,2,0:0:0:0:
353,154,13348,2,0,P|342:190|339:229,1,76.4999976654053,2|0,3:2|0:0,0:0:0:0:
486,117,13679,6,0,P|498:68|476:30,1,76.4999976654053,2|0,3:2|0:0,0:0:0:0:
342,7,14011,1,2,3:2:0:0:
342,7,14094,1,2,0:2:0:0:
342,7,14176,1,2,0:2:0:0:
342,7,14259,1,2,0:0:0:0:
342,7,14342,2,0,L|273:21,1,38.2499988327027,0|0,3:0|3:0,0:0:0:0:
216,39,14508,2,0,P|195:60|189:112,1,76.4999976654053,2|0,0:0|3:0,0:0:0:0:
241,272,14839,6,0,P|329:272|358:207,1,152.999995330811,2|2,0:0|0:2,0:0:0:0:
357,222,15254,1,2,0:2:0:0:
357,222,15337,1,2,3:2:0:0:
434,309,15502,2,0,L|463:380,2,76.4999976654053,0|2|6,3:2|3:2|0:2,0:0:0:0:
276,193,16000,1,6,3:2:0:0:
441,121,16165,1,0,1:0:0:0:
293,278,16331,6,0,P|233:268|209:246,1,76.4999976654053,4|0,1:0|0:0,0:0:0:0:
106,156,16663,2,0,P|60:221|69:272,1,114.749996498108,2|2,3:2|0:0,0:0:0:0:
78,275,16994,1,0,3:0:0:0:
211,175,17160,2,0,P|234:136|234:105,1,76.4999976654053,2|0,0:0|3:0,0:0:0:0:
290,236,17491,6,0,L|441:207,1,152.999995330811,2|2,0:0|0:2,0:0:0:0:
440,207,17906,1,2,0:2:0:0:
440,207,17989,1,2,3:2:0:0:
347,71,18154,2,0,P|329:111|331:150,1,76.4999976654053,2|2,0:0|3:2,0:0:0:0:
411,304,18486,1,2,0:0:0:0:
417,122,18652,1,6,3:2:0:0:
335,231,18817,1,0,1:0:0:0:
259,86,18983,6,0,L|257:3,1,76.4999976654053,4|0,1:0|0:0,0:0:0:0:
94,96,19315,1,2,3:2:0:0:
187,208,19480,2,0,P|189:150|181:131,1,76.4999976654053,2|2,0:0|3:2,0:0:0:0:
182,133,19729,1,2,0:2:0:0:
182,133,19812,1,6,0:2:0:0:
301,192,19978,1,8,0:0:0:0:
66,202,20143,6,0,P|39:273|101:329,1,152.999995330811,4|0,1:0|1:0,0:0:0:0:
217,203,20641,1,8,0:0:0:0:
210,358,20806,1,8,3:0:0:0:
243,338,20889,1,8,3:0:0:0:
281,338,20972,1,4,3:0:0:0:
316,352,21055,1,4,3:0:0:0:
353,359,21138,1,2,3:0:0:0:
391,355,21221,1,2,3:0:0:0:
423,335,21304,2,0,L|435:285,1,38.2499988327027,0|2,1:0|3:0,0:0:0:0:
357,200,21469,2,0,L|366:267,1,38.2499988327027,4|8,3:0|3:0,0:0:0:0:
457,192,21635,6,0,L|466:86,1,76.4999976654053,4|0,1:0|0:0,0:0:0:0:
326,16,21967,2,0,P|280:61|286:121,1,114.749996498108,2|2,3:2|0:0,0:0:0:0:
294,129,22298,1,2,3:2:0:0:
177,37,22464,1,2,0:2:0:0:
177,37,22547,1,2,0:2:0:0:
177,37,22630,1,2,3:2:0:0:
43,183,22795,6,0,P|25:139|60:45,1,152.999995330811,2|2,0:0|0:2,0:0:0:0:
60,44,23210,1,2,0:2:0:0:
60,44,23292,1,2,3:2:0:0:
132,191,23458,2,0,L|203:161,1,76.4999976654053,2|0,0:0|3:0,0:0:0:0:
218,346,23790,1,0,0:0:0:0:
362,268,23955,1,2,3:2:0:0:
362,268,24038,1,2,0:0:0:0:
362,268,24121,1,2,1:2:0:0:
362,268,24204,1,2,1:2:0:0:
362,268,24287,6,0,P|327:240|222:252,1,152.999995330811,2|0,1:2|3:0,0:0:0:0:
87,274,24784,1,2,0:2:0:0:
87,274,24867,1,2,0:2:0:0:
87,274,24950,2,0,L|84:201,1,38.2499988327027,2|2,3:2|0:2,0:0:0:0:
15,122,25116,2,0,L|7:183,1,38.2499988327027,2|2,0:2|0:2,0:0:0:0:
163,138,25281,2,0,L|116:132,1,38.2499988327027,2|2,3:2|0:2,0:0:0:0:
196,229,25447,6,0,P|380:206|383:206,1,152.999995330811,6|2,0:2|0:0,0:0:0:0:
377,224,25862,1,2,0:0:0:0:
377,224,25944,2,0,L|427:214,1,38.2499988327027,2|0,3:2|0:0,0:0:0:0:
494,282,26110,2,0,L|484:319,1,38.2499988327027,0|0,3:0|0:0,0:0:0:0:
506,162,26276,2,0,L|497:124,1,38.2499988327027,0|0,1:0|0:0,0:0:0:0:
389,78,26442,2,0,L|397:115,1,38.2499988327027,0|0,1:0|0:0,0:0:0:0:
296,170,26607,5,12,0:0:0:0:
254,166,26690,1,8,0:0:0:0:
212,161,26773,1,8,0:0:0:0:
170,155,26856,1,8,0:0:0:0:
123,150,26939,6,0,P|104:104|116:66,1,85,4|2,1:0|0:0,0:0:0:0:
251,69,27270,1,2,1:2:0:0:
123,258,27436,2,0,P|75:266|41:241,1,85,2|0,0:0|1:0,0:0:0:0:
15,72,27768,1,2,0:0:0:0:
214,256,27933,1,2,1:2:0:0:
70,168,28099,1,2,0:2:0:0:
70,168,28182,1,2,0:2:0:0:
70,168,28265,6,0,P|46:228|46:255,1,85,0|2,1:0|0:0,0:0:0:0:
151,107,28596,1,2,1:2:0:0:
236,193,28762,2,0,P|313:214|384:132,1,170,2|2,0:0|0:0,0:0:0:0:
152,225,29259,2,0,L|133:368,1,127.5,12|0,0:0|0:0,0:0:0:0:
135,368,29591,5,4,1:0:0:0:
333,289,29757,1,2,1:2:0:0:
331,259,29839,1,2,1:2:0:0:
328,228,29922,1,2,1:2:0:0:
220,313,30088,1,2,1:2:0:0:
377,77,30254,1,0,1:0:0:0:
470,231,30420,1,2,1:2:0:0:
227,141,30585,1,2,1:2:0:0:
368,380,30751,1,12,0:0:0:0:
479,111,31083,5,2,1:2:0:0:
231,31,31248,1,14,0:0:0:0:
231,31,31746,5,0,0:0:0:0:
128,58,31911,6,0,L|133:108,1,42.5,0|0,3:0|3:0,0:0:0:0:
179,167,32077,2,0,L|166:211,1,42.5,0|0,3:0|3:0,0:0:0:0:
129,297,32243,6,0,P|237:283|315:284,1,152.999995330811,4|0,1:0|1:0,0:0:0:0:
402,308,32740,1,0,0:0:0:0:
362,154,32906,2,0,P|346:207|346:242,1,76.4999976654053,0|2,1:0|0:0,0:0:0:0:
416,85,33237,1,2,1:2:0:0:
260,187,33403,1,2,0:2:0:0:
260,187,33486,1,2,0:2:0:0:
260,187,33569,2,0,P|218:207|126:148,1,152.999995330811,2|2,1:2|1:2,0:0:0:0:
108,64,34066,1,0,0:0:0:0:
29,157,34232,2,0,L|13:240,1,76.4999976654053,2|0,1:2|0:0,0:0:0:0:
197,359,34563,6,0,P|220:307|200:200,1,152.999995330811,10|0,0:2|0:0,0:0:0:0:
200,190,34895,6,0,L|286:180,1,76.4999976654053,2|0,1:2|0:0,0:0:0:0:
367,206,35226,1,2,1:2:0:0:
297,333,35392,2,0,P|288:288|300:258,1,76.4999976654053,2|0,0:0|1:2,0:0:0:0:
456,175,35723,1,2,0:0:0:0:
450,261,35889,1,2,1:2:0:0:
380,118,36055,1,2,0:0:0:0:
241,191,36221,2,0,P|210:243|208:356,1,152.999995330811,0|0,1:0|1:0,0:0:0:0:
331,290,36718,1,2,0:2:0:0:
331,290,36801,1,2,0:2:0:0:
331,290,36884,2,0,L|344:198,1,76.4999976654053,2|0,1:2|0:0,0:0:0:0:
469,1,37215,6,0,P|420:52|337:57,1,152.999995330811,12|0,0:0|0:0,0:0:0:0:
322,41,37547,6,0,L|187:127,1,152.999995330811,4|0,1:0|1:0,0:0:0:0:
118,291,38044,2,0,L|133:202,1,76.4999976654053,0|0,0:0|1:0,0:0:0:0:
87,126,38375,1,2,0:2:0:0:
231,221,38541,2,0,P|283:233|316:216,1,76.4999976654053,2|2,1:2|0:2,0:0:0:0:
472,189,38873,6,0,L|390:207,1,76.4999976654053,2|0,1:2|0:0,0:0:0:0:
429,364,39204,2,0,L|439:288,1,76.4999976654053,2|0,1:2|0:0,0:0:0:0:
290,150,39536,2,0,L|307:252,1,76.4999976654053,2|0,1:2|0:0,0:0:0:0:
154,348,39867,6,0,P|78:331|55:256,1,152.999995330811,10|0,0:0|0:0,0:0:0:0:
61,241,40199,6,0,P|66:179|40:143,1,76.4999976654053,2|0,1:2|0:0,0:0:0:0:
4,82,40530,1,2,1:2:0:0:
186,113,40696,2,0,L|106:102,1,76.4999976654053,2|0,0:2|1:0,0:0:0:0:
141,197,41027,1,2,0:2:0:0:
294,106,41193,1,2,1:2:0:0:
232,32,41359,1,2,0:2:0:0:
263,195,41525,5,0,1:0:0:0:
375,52,41690,1,2,0:2:0:0:
375,52,41773,1,2,0:2:0:0:
375,52,41856,2,0,P|388:107|375:148,1,76.4999976654053,14|0,0:2|0:0,0:0:0:0:
317,316,42188,5,8,0:0:0:0:
317,316,42270,1,8,0:0:0:0:
317,316,42353,1,8,0:0:0:0:
498,135,42519,1,8,0:0:0:0:
259,56,42685,6,0,P|179:80|107:167,1,170,4|2,1:0|0:0,0:0:0:0:
225,295,43182,2,0,P|230:248|207:203,1,85,10|0,0:0|0:0,0:0:0:0:
119,347,43513,1,2,1:2:0:0:
307,340,43679,2,0,L|397:320,1,85,2|8,0:0|0:0,0:0:0:0:
491,191,44011,6,0,P|494:121|445:30,1,170,2|2,0:0|0:0,0:0:0:0:
238,26,44508,1,10,0:0:0:0:
392,128,44674,1,0,0:0:0:0:
206,235,44839,2,0,P|197:201|205:147,1,85,2|0,1:2|0:0,0:0:0:0:
393,292,45171,2,0,L|298:307,1,85,10|0,0:0|0:0,0:0:0:0:
203,152,45502,6,0,P|145:106|39:132,1,170,2|8,1:2|0:0,0:0:0:0:
159,266,46000,1,2,0:0:0:0:
5,198,46165,1,0,1:0:0:0:
130,351,46331,2,0,P|194:346|231:308,1,85,2|8,0:0|0:0,0:0:0:0:
307,188,46663,6,0,L|358:359,1,170,2|0,0:0|0:0,0:0:0:0:
444,219,47160,1,8,0:0:0:0:
444,219,47243,1,8,0:0:0:0:
444,219,47326,1,8,0:0:0:0:
444,219,47409,1,8,0:0:0:0:
444,219,47491,2,0,P|457:165|453:134,1,85,2|0,1:2|1:0,0:0:0:0:
275,8,47823,2,0,P|228:58|217:129,1,127.5,14|0,0:0|0:0,0:0:0:0:
211,135,48154,6,0,L|39:126,1,170,4|8,1:0|0:0,0:0:0:0:
132,306,48652,2,0,P|132:240|118:194,1,85,2|0,0:0|1:0,0:0:0:0:
1,222,48983,1,0,0:0:0:0:
223,215,49149,1,10,0:0:0:0:
35,330,49315,1,0,0:0:0:0:
249,306,49480,6,0,P|292:304|334:308,1,85,2|0,1:2|0:0,0:0:0:0:
451,175,49812,2,0,P|335:175|289:169,1,127.5,14|0,0:0|0:0,0:0:0:0:
292,162,50143,1,2,1:2:0:0:
438,289,50309,1,10,0:0:0:0:
438,289,50392,1,10,0:0:0:0:
438,289,50475,1,10,0:0:0:0:
191,171,50641,6,0,P|155:224|147:331,1,170,4|0,1:0|0:0,0:0:0:0:
292,162,51138,2,0,L|326:58,1,85,10|0,0:0|0:0,0:0:0:0:
327,47,51386,1,2,0:0:0:0:
327,47,51469,2,0,L|386:34,1,42.5,8|8,0:0|0:0,0:0:0:0:
472,161,51635,2,0,L|424:160,1,42.5,0|0,1:0|1:0,0:0:0:0:
480,69,51801,1,8,0:0:0:0:
215,18,51967,5,2,1:2:0:0:
215,18,52298,1,2,1:2:0:0:
347,134,52464,1,8,0:0:0:0:
122,276,52630,2,0,P|40:244|23:144,1,170,4|0,1:2|1:0,0:0:0:0:
242,248,53127,2,0,L|224:346,1,85,12|0,0:0|0:0,0:0:0:0:
164,162,53458,5,8,0:0:0:0:
378,125,53624,1,8,0:0:0:0:
262,35,53790,1,8,0:0:0:0:
285,239,53955,5,10,0:0:0:0:
285,239,54038,1,10,0:0:0:0:
285,239,54121,2,0,L|282:330,1,85,10|2,0:0|1:2,0:0:0:0:
168,266,54453,1,8,0:0:0:0:
382,146,54618,6,0,P|442:162|455:276,1,170,4|2,1:0|1:2,0:0:0:0:
271,151,55116,1,10,0:0:0:0:
407,321,55281,1,8,0:0:0:0:
407,321,55364,1,8,0:0:0:0:
407,321,55447,1,2,1:2:0:0:
164,227,55613,1,0,1:0:0:0:
382,146,55779,1,14,0:0:0:0:
382,146,56110,5,2,1:3:0:0:
134,106,56276,1,2,1:3:0:0:
322,34,56442,1,2,1:3:0:0:
128,14,56607,5,10,0:0:0:0:
128,14,56690,1,10,0:0:0:0:
128,14,56773,2,0,L|36:41,1,85,10|2,0:0|1:2,0:0:0:0:
26,169,57105,1,8,0:0:0:0:
252,272,57270,6,0,P|266:189|237:111,1,170,6|2,1:2|1:2,0:0:0:0:
26,169,57768,2,0,P|20:210|38:248,1,85,10|8,0:0|0:0,0:0:0:0:
38,248,58016,1,8,0:0:0:0:
38,248,58099,1,2,1:2:0:0:
236,110,58265,1,0,1:0:0:0:
26,169,58431,1,8,0:0:0:0:
26,169,58762,5,2,0:0:0:0:
190,174,58928,1,0,0:0:0:0:
46,253,59094,1,0,0:0:0:0:
157,88,59259,1,2,0:0:0:0:
421,83,59757,5,2,0:0:0:0:
245,96,59923,1,0,0:0:0:0:
401,167,60089,1,0,0:0:0:0:
278,10,60254,1,2,0:0:0:0:
144,145,60751,6,0,L|123:52,1,85,12|0,0:0|0:0,0:0:0:0:
401,167,61083,2,0,L|374:275,1,85,12|0,0:0|0:0,0:0:0:0:
146,265,61414,5,4,1:0:0:0:
238,91,61580,1,0,1:0:0:0:
317,163,61746,1,10,0:0:0:0:
137,161,61911,1,8,0:0:0:0:
137,161,61994,1,8,0:0:0:0:
137,161,62077,2,0,P|120:101|124:69,1,85,8|2,0:0|1:2,0:0:0:0:
228,216,62409,1,8,0:0:0:0:
291,45,62574,6,0,P|389:66|416:146,1,170,4|0,1:0|1:0,0:0:0:0:
402,272,63071,1,8,1:2:0:0:
290,127,63237,1,8,1:2:0:0:
204,318,63403,5,8,0:0:0:0:
176,221,63652,5,8,0:0:0:0:
149,127,63900,5,8,0:0:0:0:
372,246,64066,6,0,P|379:214|363:172,2,63.7500024318696,4|0|0,1:2|0:0|0:0,0:0:0:0:
278,332,64563,2,0,L|148:303,1,127.500004863739,2|2,0:0|0:0,0:0:0:0:
192,140,65060,1,10,0:0:0:0:
261,226,65226,1,2,0:0:0:0:
95,212,65392,6,0,P|78:132|86:109,1,85,4|0,1:0|0:0,0:0:0:0:
261,226,65723,1,10,0:0:0:0:
148,337,65889,1,2,0:0:0:0:
148,337,65972,1,2,0:0:0:0:
148,337,66055,2,0,L|43:326,1,85,2|0,1:2|0:0,0:0:0:0:
291,335,66386,1,8,0:0:0:0:
322,313,66469,1,2,0:0:0:0:
338,278,66552,1,2,0:0:0:0:
328,240,66635,1,2,0:0:0:0:
300,213,66718,6,0,L|206:201,1,85,2|0,1:2|0:0,0:0:0:0:
413,80,67049,2,0,P|420:146|413:177,1,85,10|0,0:0|0:0,0:0:0:0:
322,313,67381,1,2,1:2:0:0:
260,114,67547,1,2,0:0:0:0:
260,114,67630,1,2,0:0:0:0:
260,114,67712,2,0,L|274:27,1,85,10|0,0:0|0:0,0:0:0:0:
29,121,68044,6,0,P|129:133|173:193,1,170,2|8,1:2|0:0,0:0:0:0:
117,318,68541,1,2,0:0:0:0:
117,318,68624,1,2,0:0:0:0:
117,318,68707,1,2,1:2:0:0:
279,176,68873,1,0,0:0:0:0:
314,271,69038,1,8,0:0:0:0:
164,156,69204,1,0,0:0:0:0:
351,106,69370,5,2,1:2:0:0:
173,249,69536,2,0,P|162:306|169:356,1,85,2|8,1:2|0:0,0:0:0:0:
367,364,69867,1,10,0:0:0:0:
367,364,69950,1,8,0:0:0:0:
367,364,70033,1,0,1:2:0:0:
262,212,70199,1,0,1:0:0:0:
453,292,70364,1,10,0:0:0:0:
482,267,70447,1,10,0:0:0:0:
491,229,70530,1,10,0:0:0:0:
483,191,70613,1,10,0:0:0:0:
455,164,70696,6,0,L|362:190,1,85,4|2,1:0|0:0,0:0:0:0:
255,115,71027,1,10,0:0:0:0:
203,238,71193,1,2,0:0:0:0:
349,90,71359,1,2,1:2:0:0:
140,54,71525,1,2,0:0:0:0:
140,54,71607,1,2,0:0:0:0:
140,54,71690,2,0,P|126:109|137:138,1,85,10|2,0:0|0:0,0:0:0:0:
50,313,72022,6,0,P|51:225|30:127,1,170,0|10,1:2|0:0,0:0:0:0:
10,30,72519,1,0,0:0:0:0:
223,67,72685,2,0,L|130:52,1,85,2|0,1:2|1:0,0:0:0:0:
335,95,73016,1,10,0:0:0:0:
357,126,73099,1,10,0:0:0:0:
359,164,73182,1,10,0:0:0:0:
344,199,73265,1,10,0:0:0:0:
312,221,73348,5,4,1:0:0:0:
223,67,73513,1,0,1:0:0:0:
449,103,73679,1,8,0:0:0:0:
179,252,73845,2,0,P|174:210|183:169,1,85,2|0,0:0|1:0,0:0:0:0:
415,263,74176,1,2,0:0:0:0:
277,146,74342,1,10,0:0:0:0:
117,343,74508,6,0,P|67:342|15:216,1,170,6|0,1:2|1:0,0:0:0:0:
113,140,75005,1,8,0:0:0:0:
222,267,75171,1,2,1:2:0:0:
326,19,75337,1,12,0:0:0:0:
326,19,75668,6,0,L|327:167,1,127.5,10|0,0:0|0:0,0:0:0:0:
328,170,76000,5,2,1:2:0:0:
450,94,76165,2,0,L|409:105,1,42.5,8|0,0:0|0:0,0:0:0:0:
208,188,76331,2,0,L|255:206,1,42.5,10|0,0:0|0:0,0:0:0:0:
460,220,76497,2,0,L|418:230,1,42.5,10|0,0:0|0:0,0:0:0:0:
220,290,76663,2,0,L|260:303,1,42.5,8|0,0:0|0:0,0:0:0:0:
462,338,76828,2,0,L|421:351,1,42.5,8|8,0:0|0:0,0:0:0:0:
320,370,76994,5,8,0:0:0:0:
328,339,77077,1,8,0:0:0:0:
339,305,77160,2,0,P|340:250|317:103,1,170,4|0,1:0|0:0,0:0:0:0:
261,4,77657,2,0,L|165:34,1,85,10|0,0:0|0:0,0:0:0:0:
415,55,77989,2,0,L|515:81,1,85,2|0,1:2|0:0,0:0:0:0:
243,154,78320,2,0,L|147:184,1,85,10|0,0:0|0:0,0:0:0:0:
119,156,78569,1,2,0:0:0:0:
119,156,78652,6,0,L|119:105,1,42.5,2|0,1:2|0:0,0:0:0:0:
14,178,78817,2,0,L|2:231,1,42.5,0|0,1:0|0:0,0:0:0:0:
96,290,78983,6,0,B|152:293|152:293|192:310|192:310|266:316,1,152.999995330811,10|0,0:0|0:0,0:0:0:0:
344,243,79315,6,0,L|408:229,1,42.5,2|0,1:2|0:0,0:0:0:0:
224,152,79480,2,0,L|165:149,1,42.5,0|0,1:0|0:0,0:0:0:0:
335,15,79646,6,0,B|330:68|330:68|313:108|313:108|310:164,1,152.999995330811,10|0,0:0|0:0,0:0:0:0:
262,258,79978,5,2,1:2:0:0:
428,135,80143,1,2,1:2:0:0:
437,373,80309,1,8,0:0:0:0:
310,164,80475,2,0,P|257:159|159:259,1,170,4|0,1:0|1:0,0:0:0:0:
428,135,80972,2,0,P|444:95|442:50,1,85,12|0,0:0|0:0,0:0:0:0:
220,32,81304,6,0,P|263:75|294:80,1,85,2|2,1:2|0:0,0:0:0:0:
444,53,81635,1,10,0:0:0:0:
326,172,81801,2,0,L|274:239,1,85,2|0,0:0|1:0,0:0:0:0:
229,344,82132,1,2,0:0:0:0:
428,135,82298,1,10,0:0:0:0:
445,261,82464,1,2,0:0:0:0:
274,239,82630,6,0,P|253:172|266:135,1,85,2|2,1:2|0:0,0:0:0:0:
292,25,82961,1,10,0:0:0:0:
157,18,83127,2,0,L|69:49,1,85,2|0,0:0|1:0,0:0:0:0:
185,180,83458,1,2,0:0:0:0:
44,126,83624,1,10,0:0:0:0:
2,265,83790,1,2,0:0:0:0:
146,91,83955,5,4,1:0:0:0:
74,325,84121,1,0,1:0:0:0:
302,236,84287,1,10,0:0:0:0:
115,107,84453,1,8,0:0:0:0:
100,346,84618,1,0,1:0:0:0:
301,204,84784,1,2,1:2:0:0:
86,127,84950,1,8,0:0:0:0:
285,373,85116,6,0,L|301:203,1,170,4|8,1:0|0:0,0:0:0:0:
302,204,85530,1,8,0:0:0:0:
302,204,85613,1,0,1:0:0:0:
497,283,85779,1,2,1:2:0:0:
184,326,85944,1,10,0:2:0:0:
217,321,86027,1,10,0:2:0:0:
250,315,86110,1,2,1:2:0:0:
450,177,86276,1,2,1:2:0:0:
245,117,86442,1,8,0:0:0:0:
211,113,86525,1,8,0:0:0:0:
180,117,86607,6,0,P|154:174|159:212,1,85,12|8,1:2|0:0,0:0:0:0:
277,306,86939,1,0,1:0:0:0:
380,161,87105,5,8,1:2:0:0:
253,216,87270,1,8,0:0:0:0:
466,294,87436,1,0,1:0:0:0:
211,358,87602,5,8,1:2:0:0:
356,292,87768,1,8,0:0:0:0:
118,245,87933,1,0,1:0:0:0:
334,129,88099,5,14,0:0:0:0:
203,230,88265,1,2,1:2:0:0:
443,327,88431,1,2,1:2:0:0:
150,374,88596,5,10,0:2:0:0:
180,346,88679,1,2,0:2:0:0:
220,338,88762,1,2,1:2:0:0:
260,344,88845,1,2,0:2:0:0:
296,361,88928,1,10,0:2:0:0:
336,361,89011,1,2,0:2:0:0:
374,347,89094,1,2,1:2:0:0:
404,320,89176,1,2,0:2:0:0:
414,280,89259,5,14,0:0:0:0:
239,174,89425,1,0,1:0:0:0:
420,112,89591,1,10,0:0:0:0:
238,269,89757,1,0,1:0:0:0:
332,86,89922,1,10,0:0:0:0:
390,225,90088,1,0,1:0:0:0:
216,85,90254,1,10,0:0:0:0:
400,25,90420,1,0,1:0:0:0:
232,173,90585,5,10,0:0:0:0:
299,4,90751,1,0,1:0:0:0:
428,154,90917,1,10,0:0:0:0:
188,65,91083,1,0,1:0:0:0:
408,2,91248,1,10,0:0:0:0:
291,248,91414,1,0,1:0:0:0:
327,81,91580,1,10,0:0:0:0:
468,220,91746,1,0,1:0:0:0:
226,324,91911,6,0,P|186:252|197:225,1,101.999996887207,10|0,0:0|1:0,0:0:0:0:
387,236,92243,1,10,0:0:0:0:
422,60,92409,2,0,P|411:125|355:156,1,101.999996887207,2|8,1:2|0:0,0:0:0:0:
226,153,92740,1,2,1:2:0:0:
469,189,92906,1,8,0:0:0:0:
305,63,93071,1,2,1:2:0:0:
159,261,93237,5,10,0:0:0:0:
360,155,93403,1,0,1:0:0:0:
125,128,93569,1,8,0:0:0:0:
280,229,93734,1,2,1:2:0:0:
210,17,93900,1,10,0:0:0:0:
28,160,94066,1,0,1:0:0:0:
265,107,94232,1,12,0:0:0:0:
66,56,94397,1,0,1:0:0:0:
132,266,94563,6,0,L|107:364,1,101.999996887207,4|0,1:0|1:0,0:0:0:0:
263,186,94895,1,10,0:0:0:0:
263,369,95060,1,0,1:0:0:0:
132,266,95226,1,8,0:0:0:0:
352,299,95392,1,2,1:2:0:0:
169,131,95558,1,10,0:0:0:0:
227,273,95723,1,2,1:2:0:0:
363,58,95889,5,8,0:0:0:0:
206,167,96055,1,2,1:2:0:0:
429,249,96221,1,10,0:0:0:0:
283,107,96386,1,0,1:0:0:0:
485,110,96552,1,10,0:0:0:0:
289,195,96718,1,0,1:0:0:0:
507,271,96884,1,14,0:0:0:0:
370,143,97049,1,0,1:0:0:0:
323,302,97215,6,0,L|306:366,1,42.5,2|0,1:2|0:0,0:0:0:0:
195,259,97381,2,0,L|186:206,1,42.5,0|0,1:0|0:0,0:0:0:0:
149,83,97547,6,0,B|200:45|256:109|295:76,1,152.999995330811,8|0,0:0|0:0,0:0:0:0:
281,164,97878,6,0,P|260:168|239:164,1,42.5,2|0,1:2|0:0,0:0:0:0:
103,14,98044,2,0,P|83:21|66:35,1,42.5,0|0,1:0|0:0,0:0:0:0:
136,224,98210,6,0,P|167:149|145:77,1,152.999995330811,8|0,0:0|0:0,0:0:0:0:
227,14,98541,6,0,P|251:61|251:69,1,42.5,2|0,1:2|0:0,0:0:0:0:
235,256,98707,2,0,P|244:210|242:199,1,42.5,0|0,1:0|0:0,0:0:0:0:
305,122,98873,6,0,L|467:98,1,152.999995330811,8|8,0:0|0:0,0:0:0:0:
426,224,99204,6,0,L|355:221,1,42.5,2|0,1:2|0:0,0:0:0:0:
380,23,99370,2,0,L|431:16,1,42.5,0|0,1:0|0:0,0:0:0:0:
212,126,99536,6,0,P|123:115|100:45,1,152.999995330811,8|8,0:0|0:0,0:0:0:0:
97,28,99867,5,4,1:0:0:0:
238,41,100033,1,2,0:0:0:0:
43,192,100199,1,0,1:0:0:0:
149,135,100364,1,2,0:0:0:0:
149,135,100447,1,2,0:0:0:0:
149,135,100530,1,0,1:0:0:0:
132,266,100696,2,0,L|119:364,1,85,2|0,0:0|1:0,0:0:0:0:
276,324,101027,6,0,P|304:246|262:175,1,170,2|2,3:2|0:0,0:0:0:0:
262,175,101442,1,2,0:0:0:0:
262,175,101525,1,2,1:2:0:0:
93,222,101690,1,2,0:0:0:0:
193,99,101856,2,0,L|196:7,1,85,0|2,1:0|0:0,0:0:0:0:
393,60,102188,1,2,1:2:0:0:
393,60,102270,1,2,0:2:0:0:
393,60,102353,1,2,0:2:0:0:
393,60,102436,1,2,0:2:0:0:
393,60,102519,6,0,P|393:138|382:156,1,85,2|2,1:2|0:0,0:0:0:0:
254,214,102851,1,2,1:2:0:0:
417,284,103016,1,2,3:2:0:0:
417,284,103099,1,2,3:2:0:0:
417,284,103182,2,0,L|473:266,1,42.5,2|2,1:2|3:2,0:0:0:0:
321,378,103348,2,0,L|326:318,1,42.5,2|2,3:2|3:2,0:0:0:0:
254,214,103513,2,0,L|264:272,1,42.5,0|0,1:0|0:0,0:0:0:0:
184,336,103679,1,2,3:2:0:0:
75,214,103845,6,0,P|66:254|83:292,1,85,0|2,1:0|0:0,0:0:0:0:
174,110,104176,1,2,1:2:0:0:
174,110,104259,1,2,3:2:0:0:
174,110,104342,1,2,3:2:0:0:
174,110,104425,1,2,3:2:0:0:
174,110,104508,2,0,P|184:48|166:19,1,85,2|2,1:2|0:0,0:0:0:0:
296,99,104839,1,14,1:3:0:0:
338,103,104922,1,2,0:0:0:0:
378,86,105005,1,2,0:0:0:0:
402,48,105088,1,2,0:0:0:0:
411,2,105171,6,0,L|436:121,1,85,4|2,1:0|0:0,0:0:0:0:
495,199,105502,1,2,1:2:0:0:
314,341,105668,2,0,L|323:225,1,85,2|0,0:0|1:0,0:0:0:0:
424,306,106000,1,2,0:0:0:0:
319,137,106165,1,0,1:0:0:0:
208,232,106331,1,2,0:0:0:0:
208,232,106414,1,2,0:0:0:0:
208,232,106497,6,0,P|202:190|183:152,1,85,2|2,1:2|0:0,0:0:0:0:
57,72,106828,1,0,1:0:0:0:
123,270,106994,2,0,P|185:322|264:302,1,170,2|2,0:0|3:2,0:0:0:0:
275,122,107491,2,0,L|414:103,1,127.5,12|0,0:0|0:0,0:0:0:0:
428,104,107823,5,4,1:0:0:0:
223,268,107989,1,2,1:2:0:0:
225,238,108071,1,2,1:2:0:0:
228,207,108154,1,2,1:2:0:0:
317,1,108320,1,2,1:2:0:0:
449,209,108486,1,0,1:0:0:0:
192,126,108652,1,2,1:2:0:0:
450,46,108817,1,2,1:2:0:0:
219,297,108983,1,12,0:0:0:0:
81,34,109315,5,2,1:2:0:0:
356,76,109480,1,14,0:0:0:0:
219,297,110143,1,0,0:0:0:0:
17,173,110475,6,0,P|97:172|177:161,1,152.999995330811,4|0,1:0|0:0,0:0:0:0:
253,80,110972,2,0,P|287:60|351:188,1,229.499992996216,0|2,1:0|0:0,0:0:0:0:
163,315,111635,1,2,0:2:0:0:
163,315,111718,1,2,0:2:0:0:
163,315,111801,6,0,P|165:215|170:152,1,152.999995330811,2|0,1:2|0:0,0:0:0:0:
278,80,112298,2,0,P|213:85|157:22,1,152.999995330811,0|0,1:0|0:0,0:0:0:0:
381,44,112795,1,10,0:0:0:0:
381,44,113127,6,0,P|399:100|386:142,1,76.4999976654053,2|2,1:2|0:0,0:0:0:0:
320,173,113458,1,2,0:2:0:0:
431,306,113624,2,0,P|329:270|275:296,1,152.999995330811,2|2,1:2|0:2,0:0:0:0:
405,192,114121,1,2,0:2:0:0:
208,333,114287,1,2,0:2:0:0:
208,333,114370,1,2,0:2:0:0:
208,333,114453,6,0,P|177:257|186:171,1,152.999995330811,2|0,1:2|0:0,0:0:0:0:
147,51,114950,2,0,P|281:75|316:99,1,152.999995330811,0|0,1:0|0:0,0:0:0:0:
106,134,115447,1,12,0:0:0:0:
106,134,115779,6,0,P|28:100|26:25,1,152.999995330811,4|0,1:0|0:0,0:0:0:0:
206,125,116276,2,0,L|170:287,2,152.999995330811,0|2|2,1:0|0:0|0:0,0:0:0:0:
406,94,117105,6,0,P|351:49|258:78,1,152.999995330811,2|2,1:2|0:0,0:0:0:0:
236,224,117602,2,0,L|472:173,1,229.499992996216,0|10,1:0|0:0,0:0:0:0:
451,340,118265,1,2,0:2:0:0:
451,340,118348,1,2,0:2:0:0:
451,340,118431,6,0,P|324:298|296:301,1,152.999995330811,2|2,1:2|0:0,0:0:0:0:
179,334,118928,2,0,P|109:355|54:306,1,152.999995330811,0|2,1:0|0:2,0:0:0:0:
44,127,119425,1,2,0:2:0:0:
234,263,119591,5,14,0:0:0:0:
234,263,120420,1,0,1:0:0:0:
413,151,120585,1,8,0:0:0:0:
413,151,120668,1,8,0:0:0:0:
413,151,120751,1,8,0:0:0:0:
221,29,120917,6,0,P|114:31|45:63,1,170,4|0,1:0|0:0,0:0:0:0:
287,148,121414,2,0,P|339:98|342:79,1,85,10|0,0:0|0:0,0:0:0:0:
154,132,121745,1,2,1:2:0:0:
251,239,121911,2,0,L|247:343,1,85,2|8,0:0|0:0,0:0:0:0:
410,351,122243,6,0,P|457:257|424:190,1,170,2|2,0:0|0:0,0:0:0:0:
247,323,122740,1,10,0:0:0:0:
126,215,122906,1,0,0:0:0:0:
306,149,123071,2,0,P|315:183|307:237,1,85,2|0,1:2|0:0,0:0:0:0:
350,45,123403,2,0,L|445:30,1,85,10|0,0:0|0:0,0:0:0:0:
210,159,123734,6,0,P|130:170|78:101,1,170,2|8,1:2|0:0,0:0:0:0:
305,70,124232,1,2,0:0:0:0:
242,247,124397,1,0,1:0:0:0:
442,130,124563,2,0,P|401:128|363:146,1,85,2|8,0:0|0:0,0:0:0:0:
476,369,124895,6,0,L|494:193,1,170,2|0,0:0|0:0,0:0:0:0:
352,132,125392,1,8,0:0:0:0:
352,132,125475,1,8,0:0:0:0:
352,132,125558,1,8,0:0:0:0:
352,132,125641,1,8,0:0:0:0:
352,132,125723,2,0,P|339:186|343:217,1,85,2|0,1:2|1:0,0:0:0:0:
195,360,126055,2,0,P|242:310|221:243,1,127.5,12|0,0:0|0:0,0:0:0:0:
230,226,126386,6,0,L|60:217,1,170,4|8,1:0|0:0,0:0:0:0:
26,41,126884,2,0,P|26:107|40:153,1,85,2|0,0:0|1:0,0:0:0:0:
240,45,127215,1,0,0:0:0:0:
137,205,127381,1,10,0:0:0:0:
291,122,127547,1,0,0:0:0:0:
132,49,127712,6,0,P|89:51|47:47,1,85,2|0,1:2|0:0,0:0:0:0:
291,122,128044,2,0,P|407:122|453:128,1,127.5,14|8,0:0|0:0,0:0:0:0:
442,132,128375,1,0,1:0:0:0:
212,237,128541,1,10,0:2:0:0:
212,237,128624,1,10,0:2:0:0:
212,237,128707,1,2,1:2:0:0:
436,367,128873,6,0,P|472:314|423:229,1,170,4|2,1:0|0:0,0:0:0:0:
212,237,129370,2,0,L|178:341,1,85,10|0,0:0|0:0,0:0:0:0:
174,337,129618,1,2,0:0:0:0:
174,337,129701,2,0,L|115:350,1,42.5,8|8,0:0|0:0,0:0:0:0:
40,223,129867,2,0,L|88:224,1,42.5,0|0,1:0|0:0,0:0:0:0:
32,315,130033,1,8,0:0:0:0:
142,129,130199,5,2,1:2:0:0:
142,129,130530,1,2,1:2:0:0:
240,206,130696,1,8,0:0:0:0:
395,76,130862,2,0,P|426:120|413:235,1,170,4|0,1:2|1:0,0:0:0:0:
285,84,131359,2,0,L|303:-14,1,85,12|0,0:0|0:0,0:0:0:0:
235,231,131690,5,8,0:0:0:0:
367,109,131856,1,8,0:0:0:0:
492,199,132022,1,8,0:0:0:0:
335,326,132187,5,2,0:0:0:0:
335,326,132270,1,2,0:0:0:0:
335,326,132353,2,0,L|338:235,1,85,2|2,0:0|1:2,0:0:0:0:
457,93,132685,1,8,0:0:0:0:
184,222,132850,6,0,P|124:206|111:92,1,170,4|2,1:0|1:2,0:0:0:0:
306,88,133348,1,10,0:0:0:0:
235,292,133513,1,8,0:0:0:0:
235,292,133596,1,8,0:0:0:0:
235,292,133679,1,2,1:2:0:0:
404,175,133845,1,0,1:0:0:0:
130,238,134011,1,10,0:0:0:0:
130,238,134342,5,2,1:2:0:0:
378,278,134508,1,2,1:2:0:0:
197,137,134674,1,2,1:2:0:0:
294,352,134839,5,10,0:0:0:0:
294,352,134922,1,10,0:0:0:0:
294,352,135005,2,0,L|386:325,1,85,10|4,0:0|1:2,0:0:0:0:
455,190,135337,1,8,0:0:0:0:
276,68,135502,6,0,P|225:151|254:229,1,170,4|2,1:0|1:2,0:0:0:0:
452,104,136000,2,0,P|458:63|440:25,1,85,10|8,0:0|0:0,0:0:0:0:
439,24,136248,1,8,0:0:0:0:
439,24,136331,1,10,1:2:0:0:
469,274,136497,1,0,1:0:0:0:
198,301,136663,1,10,0:0:0:0:
198,301,136994,5,2,0:0:0:0:
198,301,137160,1,0,0:0:0:0:
439,186,137326,1,0,0:0:0:0:
439,186,137491,1,2,0:0:0:0:
91,301,137989,5,2,0:0:0:0:
91,301,138154,1,0,0:0:0:0:
376,98,138320,1,0,0:0:0:0:
376,98,138486,1,2,0:0:0:0:
376,98,138983,6,0,L|257:83,1,85,12|0,0:0|0:0,0:0:0:0:
91,301,139315,2,0,L|198:311,1,85,12|0,0:0|0:0,0:0:0:0:
419,196,139646,5,4,1:0:0:0:
255,193,139812,1,0,1:0:0:0:
87,194,139978,1,8,0:0:0:0:
181,352,140143,1,8,0:0:0:0:
206,343,140226,1,8,0:0:0:0:
229,337,140309,1,0,1:0:0:0:
281,196,140475,1,0,1:0:0:0:
232,57,140641,1,8,0:0:0:0:
138,222,140806,1,8,0:0:0:0:
158,217,140889,1,8,0:0:0:0:
180,213,140972,6,0,P|240:204|349:197,1,170,2|10,1:2|0:0,0:0:0:0:
66,320,141469,1,10,0:2:0:0:
59,303,141552,1,10,0:2:0:0:
48,288,141635,2,0,P|54:238|61:200,1,85,10|2,0:2|1:2,0:0:0:0:
184,80,141967,1,10,0:2:0:0:
184,80,142049,1,10,0:2:0:0:
184,80,142132,1,10,0:2:0:0:
328,223,142298,6,0,P|401:197|396:82,1,170,4|8,1:2|0:0,0:0:0:0:
149,160,142795,1,2,0:0:0:0:
149,160,142878,1,2,0:0:0:0:
149,160,142961,1,0,1:0:0:0:
290,49,143127,1,2,0:0:0:0:
323,43,143210,1,2,0:0:0:0:
356,43,143292,1,8,0:0:0:0:
384,61,143375,1,2,0:0:0:0:
416,72,143458,1,2,0:0:0:0:
450,71,143541,1,2,0:0:0:0:
479,53,143624,6,0,L|480:148,1,85,2|0,1:2|1:0,0:0:0:0:
340,331,143955,2,0,L|332:236,1,85,10|8,0:0|0:0,0:0:0:0:
332,246,144204,1,8,0:0:0:0:
332,246,144287,1,2,1:2:0:0:
195,40,144453,1,8,0:0:0:0:
153,49,144536,1,8,0:0:0:0:
121,76,144618,1,0,1:0:0:0:
103,114,144701,1,8,0:0:0:0:
97,156,144784,1,8,0:0:0:0:
105,197,144867,1,8,0:0:0:0:
130,230,144950,6,0,L|139:276,1,42.5,4|0,1:0|0:0,0:0:0:0:
242,182,145116,2,0,L|251:118,1,42.5,0|0,1:0|0:0,0:0:0:0:
351,219,145281,2,0,L|356:361,1,127.5,8|0,0:0|0:0,0:0:0:0:
449,254,145613,6,0,L|444:191,1,42.5,2|0,1:2|0:0,0:0:0:0:
344,51,145779,2,0,L|351:114,1,42.5,0|0,1:0|0:0,0:0:0:0:
242,182,145944,2,0,P|161:184|125:146,1,127.5,8|8,0:0|0:0,0:0:0:0:
174,38,146276,6,0,L|244:48,1,42.5,0|8,1:0|0:0,0:0:0:0:
48,104,146442,2,0,L|-13:115,1,42.5,0|0,1:0|1:0,0:0:0:0:
242,182,146607,1,8,0:0:0:0:
56,217,146773,2,0,P|31:274|111:357,1,170,10|8,0:0|0:0,0:0:0:0:
89,353,147188,1,8,0:0:0:0:
89,353,147270,1,8,0:0:0:0:
123,76,147436,5,6,1:2:0:0:
123,76,147933,1,0,1:0:0:0:
246,276,148099,2,0,P|315:269|347:163,1,170,14|10,0:0|0:2,0:0:0:0:
353,184,148513,1,10,0:2:0:0:
353,184,148596,1,2,1:2:0:0:
114,287,148762,1,8,3:0:0:0:
114,287,148845,1,4,3:0:0:0:
114,287,148928,6,0,P|100:233|107:202,1,85,4|0,1:0|0:0,0:0:0:0:
261,93,149259,1,10,0:0:0:0:
353,184,149425,1,2,0:0:0:0:
353,184,149508,1,2,0:0:0:0:
353,184,149591,2,0,L|335:285,1,85,2|0,1:2|0:0,0:0:0:0:
495,107,149922,1,8,0:0:0:0:
494,68,150005,1,2,0:0:0:0:
468,39,150088,1,2,0:0:0:0:
430,30,150171,1,2,0:0:0:0:
392,35,150254,6,0,L|316:74,1,85,2|0,1:2|0:0,0:0:0:0:
160,149,150585,2,0,P|146:97|160:52,1,85,10|0,0:0|0:0,0:0:0:0:
222,235,150917,1,2,1:2:0:0:
111,356,151083,1,2,0:0:0:0:
111,356,151166,1,2,0:0:0:0:
111,356,151248,2,0,L|209:338,1,85,10|0,0:0|0:0,0:0:0:0:
391,361,151580,6,0,P|406:217|420:170,1,170,2|8,1:2|0:0,0:0:0:0:
278,338,152077,1,2,0:0:0:0:
278,338,152160,1,2,0:0:0:0:
278,338,152243,1,2,1:2:0:0:
462,113,152409,1,0,0:0:0:0:
321,177,152574,1,8,0:0:0:0:
512,248,152740,1,0,0:0:0:0:
278,338,152906,5,2,1:2:0:0:
395,214,153072,2,0,P|401:172|389:132,1,85,2|8,1:2|0:0,0:0:0:0:
251,63,153403,1,10,0:0:0:0:
251,63,153486,1,8,0:0:0:0:
251,63,153569,1,0,1:2:0:0:
164,143,153735,1,0,1:0:0:0:
59,92,153900,1,10,0:0:0:0:
30,117,153983,1,10,0:0:0:0:
21,155,154066,1,10,0:0:0:0:
29,193,154149,1,10,0:0:0:0:
57,220,154232,6,0,L|39:313,1,85,4|2,1:0|0:0,0:0:0:0:
257,269,154563,1,10,0:0:0:0:
123,161,154729,1,2,0:0:0:0:
144,311,154895,1,2,1:2:0:0:
222,108,155061,1,2,0:0:0:0:
222,108,155143,1,2,0:0:0:0:
222,108,155226,2,0,L|246:18,1,85,10|2,0:0|0:0,0:0:0:0:
441,41,155558,6,0,P|454:106|461:227,1,170,0|10,1:2|0:0,0:0:0:0:
327,160,156055,1,0,0:0:0:0:
289,317,156221,2,0,L|382:332,1,85,2|0,1:2|1:0,0:0:0:0:
461,209,156552,1,10,0:0:0:0:
483,178,156635,1,10,0:0:0:0:
485,140,156718,1,10,0:0:0:0:
470,105,156801,1,10,0:0:0:0:
438,83,156884,5,4,1:0:0:0:
161,156,157049,1,0,1:0:0:0:
336,322,157215,1,8,0:0:0:0:
333,104,157381,2,0,L|331:-16,1,85,2|0,0:0|1:0,0:0:0:0:
91,92,157712,1,2,0:0:0:0:
336,220,157878,1,10,0:0:0:0:
176,6,158044,6,0,L|126:185,1,170,6|0,1:2|1:0,0:0:0:0:
399,244,158541,1,8,0:0:0:0:
290,117,158707,1,2,1:2:0:0:
186,365,158873,1,12,0:0:0:0:
186,365,159204,6,0,L|185:217,1,127.5,10|0,0:0|0:0,0:0:0:0:
184,214,159536,5,2,1:2:0:0:
392,175,159701,2,0,L|433:164,1,42.5,8|0,0:0|0:0,0:0:0:0:
227,96,159867,2,0,L|232:148,1,42.5,10|0,0:0|0:0,0:0:0:0:
344,97,160033,2,0,L|355:42,1,42.5,10|0,0:0|0:0,0:0:0:0:
184,214,160199,2,0,L|118:231,1,42.5,8|0,0:0|0:0,0:0:0:0:
368,260,160364,2,0,L|420:279,1,42.5,8|8,0:0|0:0,0:0:0:0:
378,359,160530,5,8,0:0:0:0:
343,342,160613,1,8,0:0:0:0:
304,338,160696,2,0,P|222:329|112:328,1,170,4|0,1:0|0:0,0:0:0:0:
350,75,161193,2,0,L|361:167,1,85,10|0,0:0|0:0,0:0:0:0:
114,102,161525,2,0,L|141:-7,1,85,2|0,1:2|0:0,0:0:0:0:
166,225,161856,2,0,L|78:237,1,85,10|0,0:0|0:0,0:0:0:0:
56,246,162105,1,2,0:0:0:0:
56,246,162188,6,0,L|56:297,1,42.5,2|0,1:2|0:0,0:0:0:0:
267,236,162353,2,0,L|279:183,1,42.5,0|0,1:0|0:0,0:0:0:0:
272,62,162519,6,0,B|325:66|325:66|365:83|365:83|421:86,1,152.999995330811,10|0,0:0|0:0,0:0:0:0:
512,169,162851,6,0,L|448:183,1,42.5,2|0,1:2|0:0,0:0:0:0:
224,233,163016,2,0,L|266:235,1,42.5,0|0,1:0|0:0,0:0:0:0:
377,369,163182,6,0,B|382:316|382:316|399:276|399:276|402:213,1,152.999995330811,10|0,0:0|0:0,0:0:0:0:
421,86,163514,5,2,1:2:0:0:
291,335,163679,1,2,1:2:0:0:
500,273,163845,1,8,0:0:0:0:
326,151,164011,2,0,P|239:166|156:221,1,170,4|0,1:0|1:0,0:0:0:0:
2,146,164508,2,0,P|1:104|17:65,1,85,12|0,0:0|0:0,0:0:0:0:
212,3,164840,6,0,P|251:17|276:50,1,85,2|2,1:2|0:0,0:0:0:0:
100,121,165171,1,10,0:0:0:0:
280,159,165337,2,0,L|260:246,1,85,2|0,0:0|1:0,0:0:0:0:
230,374,165668,1,2,0:0:0:0:
280,159,165834,1,10,0:0:0:0:
123,280,166000,1,2,0:0:0:0:
383,327,166166,6,0,L|481:290,1,85,2|2,1:2|0:0,0:0:0:0:
374,116,166497,1,10,0:0:0:0:
227,272,166663,2,0,L|313:240,1,85,2|0,0:0|1:0,0:0:0:0:
458,191,166994,1,2,0:0:0:0:
227,272,167160,1,10,0:0:0:0:
462,296,167326,1,2,0:0:0:0:
169,337,167491,5,4,1:0:0:0:
303,100,167657,1,0,1:0:0:0:
337,275,167823,1,10,0:0:0:0:
149,82,167989,1,8,0:0:0:0:
251,227,168154,1,0,1:0:0:0:
434,36,168320,1,2,1:2:0:0:
404,193,168486,1,8,0:0:0:0:
227,11,168652,6,0,L|211:181,1,170,4|8,1:0|0:0,0:0:0:0:
210,180,169066,1,8,0:0:0:0:
210,180,169149,1,0,1:0:0:0:
473,109,169315,1,2,1:2:0:0:
352,24,169480,1,10,0:2:0:0:
319,29,169563,1,10,0:2:0:0:
286,35,169646,1,2,1:2:0:0:
63,69,169812,1,2,1:2:0:0:
215,184,169978,1,8,0:0:0:0:
206,210,170061,1,8,0:0:0:0:
194,231,170143,6,0,L|184:322,1,85,12|8,1:2|0:0,0:0:0:0:
92,194,170475,1,0,1:0:0:0:
326,92,170641,2,0,L|314:197,1,85,8|8,0:0|0:0,0:0:0:0:
230,32,170972,1,0,1:0:0:0:
441,104,171138,6,0,L|453:-1,1,85,8|8,0:0|0:0,0:0:0:0:
254,148,171469,1,0,1:0:0:0:
254,148,171552,1,0,1:0:0:0:
254,148,171635,2,0,L|247:212,1,42.5,8|0,0:0|1:0,0:0:0:0:
129,77,171801,2,0,L|129:17,1,42.5,8|8,0:0|0:0,0:0:0:0:
47,189,171967,1,0,1:0:0:0:
47,189,172049,1,0,1:0:0:0:
47,189,172132,1,2,0:0:0:0:
47,189,172630,6,0,B|103:169|155:192|155:192|215:168,1,170,12|0,0:0|0:0,0:0:0:0:
379,37,173127,2,0,P|398:94|386:143,1,85,8|2,0:0|0:0,0:0:0:0:
395,117,173375,1,2,0:0:0:0:
395,117,173458,1,0,1:0:0:0:
247,63,173624,1,2,0:0:0:0:
442,196,173790,1,10,0:0:0:0:
238,330,173955,6,0,P|140:329|104:240,1,170,2|2,0:0|0:0,0:0:0:0:
118,47,174453,1,8,0:0:0:0:
242,151,174618,1,2,0:2:0:0:
242,151,174701,1,2,0:2:0:0:
242,151,174784,1,2,1:2:0:0:
29,213,174950,2,0,P|6:257|19:308,1,85,2|8,0:0|0:0,0:0:0:0:
21,323,175199,1,2,0:0:0:0:
21,323,175281,6,0,P|146:297|221:297,1,170,2|2,0:0|0:0,0:0:0:0:
298,151,175779,2,0,L|404:169,1,85,10|2,0:0|0:0,0:0:0:0:
381,165,176027,1,2,0:0:0:0:
381,165,176110,1,2,1:2:0:0:
190,218,176276,1,2,0:0:0:0:
304,40,176442,1,10,0:0:0:0:
442,255,176607,6,0,P|479:172|451:99,1,170,2|2,0:0|0:0,0:0:0:0:
179,35,177105,2,0,L|192:126,1,85,10|8,0:0|0:0,0:0:0:0:
191,119,177353,1,8,0:0:0:0:
191,119,177436,1,2,1:2:0:0:
337,27,177602,1,2,1:2:0:0:
92,160,177768,1,12,0:0:0:0:
363,147,177933,6,0,P|470:173|528:247,1,170,4|2,1:0|0:2,0:0:0:0:
510,213,178348,1,2,0:2:0:0:
510,213,178431,1,10,0:2:0:0:
314,308,178596,1,0,0:0:0:0:
496,356,178762,1,2,1:2:0:0:
222,364,178928,1,2,0:2:0:0:
415,255,179094,1,10,0:2:0:0:
165,287,179259,6,0,P|95:263|87:164,1,170,2|2,0:2|0:0,0:0:0:0:
270,85,179757,2,0,L|278:180,1,85,10|8,0:0|0:0,0:0:0:0:
101,79,180088,1,10,0:2:0:0:
105,74,180171,1,10,0:2:0:0:
109,69,180254,1,2,1:2:0:0:
362,11,180420,1,12,0:0:0:0:
170,163,180585,6,0,P|149:307|146:357,1,170,4|2,1:0|0:0,0:0:0:0:
383,221,181083,2,0,L|301:203,1,85,10|0,0:0|0:0,0:0:0:0:
236,61,181414,1,2,1:2:0:0:
451,125,181580,2,0,P|461:74|450:32,1,85,2|8,0:0|0:0,0:0:0:0:
214,214,181911,6,0,B|217:290|217:290|269:275|317:282,1,170,2|2,0:0|0:0,0:0:0:0:
340,80,182409,1,10,0:0:0:0:
114,231,182574,1,2,3:2:0:0:
115,86,182740,1,10,1:2:0:0:
305,160,182906,1,8,0:0:0:0:
305,160,182989,1,8,0:0:0:0:
305,160,183071,1,8,0:0:0:0:
58,336,183237,6,0,L|76:147,1,170,4|2,1:0|0:2,0:0:0:0:
84,138,183652,1,2,0:2:0:0:
84,138,183734,2,0,L|145:123,1,42.5,10|2,0:2|0:2,0:0:0:0:
228,60,183900,2,0,L|293:81,1,42.5,2|2,0:2|0:2,0:0:0:0:
223,246,184066,2,0,L|208:181,1,42.5,2|2,1:2|0:2,0:0:0:0:
370,276,184232,2,0,L|359:346,1,42.5,2|2,1:2|0:2,0:0:0:0:
394,158,184397,2,0,L|450:167,1,42.5,10|2,0:2|0:2,0:0:0:0:
256,330,184563,6,0,L|88:354,1,170,6|2,1:2|1:2,0:0:0:0:
55,324,184978,1,2,0:2:0:0:
55,324,185060,2,0,L|36:260,1,42.5,10|2,0:2|0:2,0:0:0:0:
127,174,185226,2,0,L|126:227,1,42.5,2|2,0:2|0:2,0:0:0:0:
226,269,185392,1,2,1:2:0:0:
256,246,185475,1,2,0:2:0:0:
293,240,185558,1,2,1:2:0:0:
330,245,185641,1,2,0:2:0:0:
363,262,185723,1,10,0:2:0:0:
132,366,185889,6,0,P|50:333|73:233,1,170,6|2,1:2|1:2,0:0:0:0:
75,228,186304,1,2,0:2:0:0:
65,187,186386,1,10,0:2:0:0:
55,145,186469,1,2,0:2:0:0:
80,107,186552,1,2,0:2:0:0:
92,66,186635,1,2,0:2:0:0:
85,23,186718,6,0,L|144:11,1,42.5,2|2,1:2|0:2,0:0:0:0:
226,137,186884,2,0,L|172:134,1,42.5,2|2,1:2|0:2,0:0:0:0:
353,33,187049,2,0,L|338:106,1,42.5,10|2,0:2|0:2,0:0:0:0:
314,206,187215,6,0,P|423:197|485:207,1,170,6|2,1:2|1:2,0:0:0:0:
213,251,187712,1,10,0:2:0:0:
312,384,187878,2,0,P|393:344|397:265,1,170,6|0,1:2|1:0,0:0:0:0:
416,60,188375,1,8,0:0:0:0:
264,144,188541,5,2,0:2:0:0:
229,160,188624,1,2,0:2:0:0:
190,163,188707,1,2,1:2:0:0:
153,156,188790,1,2,0:2:0:0:
114,154,188873,1,2,0:2:0:0:
83,175,188955,1,2,0:2:0:0:
62,207,189038,6,0,L|50:271,1,42.5,10|2,0:2|0:2,0:0:0:0:
211,354,189204,2,0,L|207:311,1,42.5,2|2,1:2|0:2,0:0:0:0:
83,331,189370,2,0,L|30:343,1,42.5,10|2,0:2|0:2,0:0:0:0:
190,193,189536,2,0,L|238:202,1,42.5,2|2,1:2|0:2,0:0:0:0:
362,330,189701,2,0,L|294:347,1,42.5,10|2,0:2|0:2,0:0:0:0:
420,232,189867,5,2,1:2:0:0:
420,232,189950,1,2,0:2:0:0:
420,232,190033,2,0,L|428:184,1,42.5,10|2,0:2|0:2,0:0:0:0:
388,54,190199,1,2,1:2:0:0:
388,54,190281,1,2,0:2:0:0:
388,54,190364,2,0,L|325:67,1,42.5,10|2,0:2|0:2,0:0:0:0:
200,43,190530,2,0,L|186:-24,1,42.5,2|2,1:2|0:2,0:0:0:0:
97,151,190696,2,0,L|34:163,1,42.5,10|2,3:2|3:2,0:0:0:0:
310,234,190862,2,0,L|375:257,1,42.5,2|2,1:2|3:2,0:0:0:0:
183,257,191027,2,0,L|170:297,1,42.5,10|2,3:2|3:2,0:0:0:0:
16,356,191193,5,2,1:2:0:0:
16,356,191276,1,2,3:2:0:0:
16,356,191359,2,0,L|83:344,1,42.5,10|10,0:2|0:2,0:0:0:0:
286,330,191525,1,10,0:2:0:0:
19,235,191690,1,0,1:0:0:0:
241,124,191856,1,8,0:0:0:0:
241,124,191939,1,8,0:0:0:0:
241,124,192022,2,0,L|237:191,1,42.5,0|0,1:0|0:0,0:0:0:0:
231,327,192188,5,2,1:2:0:0:
458,115,192353,1,10,0:0:0:0:
154,12,192519,1,4,1:0:0:0:
256,192,192602,12,0,194508,0:0:0:0:
98,110,203292,5,2,0:0:0:0:
379,75,203790,1,2,0:0:0:0:
218,96,204453,1,2,0:0:0:0:
259,283,205116,1,2,0:0:0:0:
259,283,205779,2,0,L|256:240,1,42.5,2|2,0:0|0:0,0:0:0:0:
240,123,205944,5,4,1:2:0:0:
240,123,206276,1,0,3:0:0:0:
156,208,206442,2,0,P|78:215|46:127,1,170,2|2,3:2|0:0,0:0:0:0:
349,141,206939,1,10,3:0:0:0:
261,29,207105,1,2,0:0:0:0:
261,29,207188,1,2,0:0:0:0:
260,28,207270,6,0,L|237:201,1,170,4|10,1:0|0:0,0:0:0:0:
413,183,207767,1,2,0:0:0:0:
413,183,207850,1,2,0:0:0:0:
413,183,207933,2,0,P|425:130|414:95,1,85,2|0,1:2|0:0,0:0:0:0:
152,24,208264,1,8,0:0:0:0:
131,56,208347,1,2,0:0:0:0:
123,93,208430,1,2,0:0:0:0:
130,130,208513,1,2,0:0:0:0:
141,165,208596,6,0,L|134:257,1,85,2|0,1:2|0:0,0:0:0:0:
0,327,208928,2,0,P|12:288|11:220,1,85,10|0,0:0|0:0,0:0:0:0:
63,40,209259,1,2,1:2:0:0:
240,130,209425,1,2,0:0:0:0:
240,130,209508,1,2,0:0:0:0:
240,130,209591,2,0,L|250:218,1,85,10|0,0:0|0:0,0:0:0:0:
205,358,209922,6,0,P|270:302|349:313,1,170,2|8,1:2|0:0,0:0:0:0:
151,173,210419,1,2,0:0:0:0:
151,173,210502,1,2,0:0:0:0:
151,173,210585,1,2,1:2:0:0:
293,214,210751,1,0,0:0:0:0:
101,297,210916,1,8,0:0:0:0:
235,82,211082,1,0,0:0:0:0:
401,173,211248,5,2,1:2:0:0:
200,243,211414,2,0,L|184:326,1,85,2|8,1:2|0:0,0:0:0:0:
430,341,211745,1,2,0:0:0:0:
430,341,211828,1,2,0:0:0:0:
430,341,211911,1,0,1:2:0:0:
200,243,212077,1,0,1:0:0:0:
468,213,212242,1,10,0:0:0:0:
483,181,212325,1,10,0:0:0:0:
482,142,212408,1,10,0:0:0:0:
468,106,212491,1,10,0:0:0:0:
435,85,212574,6,0,L|337:74,1,85,4|2,1:0|0:0,0:0:0:0:
150,253,212905,1,10,0:0:0:0:
230,59,213071,1,2,0:0:0:0:
332,228,213237,1,2,1:2:0:0:
130,103,213403,1,2,0:0:0:0:
130,103,213485,1,2,0:0:0:0:
130,103,213568,2,0,L|106:13,1,85,10|2,0:0|0:0,0:0:0:0:
21,185,213900,6,0,P|8:250|1:371,1,170,0|10,1:2|0:0,0:0:0:0:
228,177,214397,1,0,0:0:0:0:
167,281,214563,2,0,L|164:388,1,85,2|0,1:2|1:0,0:0:0:0:
403,249,214894,1,10,0:0:0:0:
372,227,214977,1,10,0:0:0:0:
334,225,215060,1,10,0:0:0:0:
299,240,215143,1,10,0:0:0:0:
277,272,215226,5,4,1:0:0:0:
486,314,215391,1,0,1:0:0:0:
374,109,215557,1,8,0:0:0:0:
204,206,215723,2,0,L|176:295,1,85,2|0,0:0|1:0,0:0:0:0:
464,177,216054,1,2,0:0:0:0:
302,54,216220,1,10,0:0:0:0:
464,177,216386,6,0,P|510:95|485:22,1,170,6|0,1:2|1:0,0:0:0:0:
203,98,216883,1,8,0:0:0:0:
351,146,217049,1,2,1:2:0:0:
59,217,217215,1,12,0:0:0:0:
59,217,217546,6,0,L|195:196,1,127.5,10|0,0:0|0:0,0:0:0:0:
259,184,217878,5,2,1:2:0:0:
158,92,218044,2,0,L|117:81,1,42.5,8|0,0:0|0:0,0:0:0:0:
342,80,218210,2,0,L|390:62,1,42.5,10|0,0:0|0:0,0:0:0:0:
185,197,218375,2,0,L|193:238,1,42.5,10|0,0:0|0:0,0:0:0:0:
325,224,218541,2,0,L|335:175,1,42.5,8|0,0:0|0:0,0:0:0:0:
128,346,218707,2,0,L|178:337,1,42.5,8|8,0:0|0:0,0:0:0:0:
428,318,218873,2,0,L|371:314,1,42.5,8|8,0:0|0:0,0:0:0:0:
259,202,219038,6,0,L|258:372,1,170,4|0,1:0|0:0,0:0:0:0:
438,250,219535,2,0,L|421:158,1,85,10|0,0:0|0:0,0:0:0:0:
151,190,219867,2,0,L|141:274,1,85,2|0,1:2|0:0,0:0:0:0:
146,44,220198,2,0,L|234:56,1,85,10|0,0:0|0:0,0:0:0:0:
266,43,220447,1,2,0:0:0:0:
266,43,220530,6,0,L|266:94,1,42.5,2|0,1:2|0:0,0:0:0:0:
359,172,220696,2,0,L|349:216,1,42.5,0|0,1:0|0:0,0:0:0:0:
251,345,220862,6,0,B|307:342|307:342|347:325|347:325|400:321,1,152.999995330811,10|0,0:0|0:0,0:0:0:0:
498,255,221193,6,0,L|490:207,1,42.5,2|0,1:2|0:0,0:0:0:0:
371,151,221359,2,0,L|381:102,1,42.5,0|0,1:0|0:0,0:0:0:0:
495,24,221525,6,0,B|442:19|442:19|402:2|402:2|345:0,1,152.999995330811,10|0,0:0|0:0,0:0:0:0:
259,58,221856,5,2,1:2:0:0:
503,131,222021,1,2,1:2:0:0:
177,254,222187,1,8,0:0:0:0:
426,363,222353,2,0,P|453:261|415:205,1,170,4|0,1:0|1:0,0:0:0:0:
208,129,222850,2,0,P|208:171|223:210,1,85,12|0,0:0|0:0,0:0:0:0:
435,53,223182,6,0,L|349:92,1,85,2|2,1:2|0:0,0:0:0:0:
512,182,223513,1,10,0:0:0:0:
333,242,223679,2,0,L|324:329,1,85,2|0,0:0|1:0,0:0:0:0:
461,330,224010,1,2,0:0:0:0:
395,167,224176,1,10,0:0:0:0:
244,347,224342,1,2,0:0:0:0:
177,184,224508,6,0,P|177:141|196:104,1,85,2|2,1:2|0:0,0:0:0:0:
350,157,224839,1,10,0:0:0:0:
207,297,225005,2,0,L|106:302,1,85,2|0,0:0|1:0,0:0:0:0:
313,240,225336,1,2,0:0:0:0:
473,321,225502,1,10,0:0:0:0:
437,142,225668,1,2,0:0:0:0:
314,358,225833,5,4,1:0:0:0:
492,220,225999,1,0,1:0:0:0:
317,152,226165,1,10,0:0:0:0:
395,331,226331,1,8,0:0:0:0:
399,89,226496,1,0,1:0:0:0:
216,221,226662,1,2,1:2:0:0:
406,223,226828,1,8,0:0:0:0:
166,87,226994,6,0,L|136:254,1,170,4|8,1:0|0:0,0:0:0:0:
130,287,227408,1,8,0:0:0:0:
130,287,227491,1,0,1:0:0:0:
347,157,227657,1,2,1:2:0:0:
0,211,227822,1,10,0:2:0:0:
15,174,227905,1,10,0:2:0:0:
32,137,227988,1,2,1:2:0:0:
181,17,228154,1,2,1:2:0:0:
279,217,228320,1,8,0:0:0:0:
290,253,228403,1,8,0:0:0:0:
303,288,228486,5,12,1:2:0:0:
64,314,228652,1,8,0:0:0:0:
117,159,228983,5,8,1:2:0:0:
284,194,229149,1,8,0:0:0:0:
409,309,229480,5,8,1:2:0:0:
170,335,229646,1,8,0:0:0:0:
242,106,229977,5,4,1:0:0:0:
409,141,230143,1,10,0:0:0:0:
204,227,230309,1,2,1:2:0:0:
374,316,230475,2,0,L|383:211,1,85,10|0,0:0|1:2,0:0:0:0:
381,231,230723,1,0,1:0:0:0:
381,231,230806,1,14,0:0:0:0:
461,327,230972,1,0,1:0:0:0:
305,154,231138,5,14,0:0:0:0:
185,316,231304,1,0,1:0:0:0:
209,124,231469,1,10,0:0:0:0:
286,268,231635,1,0,1:0:0:0:
357,73,231801,1,10,0:0:0:0:
178,221,231967,1,0,1:0:0:0:
193,24,232132,1,10,0:0:0:0:
363,207,232298,1,0,1:0:0:0:
291,2,232464,5,10,0:0:0:0:
115,179,232630,1,0,1:0:0:0:
133,3,232795,1,10,0:0:0:0:
296,159,232961,1,0,1:0:0:0:
137,86,233127,1,10,0:0:0:0:
22,286,233292,1,0,1:0:0:0:
33,41,233458,1,10,0:0:0:0:
203,155,233624,1,0,1:0:0:0:
21,285,233790,6,0,P|22:235|45:190,1,101.999996887207,10|0,0:0|1:0,0:0:0:0:
299,189,234121,1,10,0:0:0:0:
199,360,234287,2,0,L|94:373,1,101.999996887207,2|8,1:2|0:0,0:0:0:0:
359,109,234618,1,2,1:2:0:0:
352,290,234784,1,8,0:0:0:0:
205,164,234950,1,2,1:2:0:0:
451,321,235116,5,10,0:0:0:0:
312,161,235282,1,0,1:0:0:0:
262,287,235448,1,8,0:0:0:0:
432,98,235613,1,2,1:2:0:0:
504,230,235779,1,10,0:0:0:0:
297,51,235945,1,0,1:0:0:0:
230,191,236111,1,12,0:0:0:0:
431,10,236276,1,0,1:0:0:0:
388,226,236442,6,0,L|378:337,1,101.999996887207,4|0,1:0|1:0,0:0:0:0:
316,152,236774,1,10,0:0:0:0:
487,227,236939,1,0,1:0:0:0:
226,283,237105,1,8,0:0:0:0:
403,124,237271,1,2,1:2:0:0:
153,35,237437,1,10,0:0:0:0:
313,233,237602,1,2,1:2:0:0:
297,39,237768,5,8,0:0:0:0:
114,267,237934,1,2,1:2:0:0:
138,75,238100,1,10,0:0:0:0:
345,231,238265,1,0,1:0:0:0:
392,87,238431,1,10,0:0:0:0:
192,189,238597,1,0,1:0:0:0:
293,30,238763,1,14,0:0:0:0:
372,314,238928,1,0,1:0:0:0:
234,99,239094,5,2,1:2:0:0:
129,246,239259,1,0,1:0:0:0:
285,223,239425,1,10,0:0:0:0:
68,98,239591,2,0,P|42:141|30:191,1,101.999996887207,10|0,0:0|1:0,0:0:0:0:
101,362,239922,1,2,1:2:0:0:
183,152,240088,1,12,0:0:0:0:
363,349,240254,6,0,P|428:325|424:188,1,203.999993774414,4|0,1:0|1:0,0:0:0:0:
306,41,240751,2,0,L|427:28,1,101.999996887207,12|0,0:0|0:0,0:0:0:0:
444,29,241000,1,8,0:0:0:0:
444,29,241083,1,0,1:0:0:0:
280,212,241248,1,0,1:0:0:0:
108,84,241414,1,8,0:0:0:0:
108,84,241497,1,8,0:0:0:0:
108,84,241580,1,8,0:0:0:0:
108,84,242077,5,14,0:0:0:0:
311,97,242326,5,10,0:0:0:0:
126,248,242574,5,10,0:0:0:0:
170,236,242657,1,8,3:0:0:0:
215,244,242740,1,4,3:0:0:0:
245,278,242823,1,2,3:0:0:0:
270,316,242906,6,0,B|325:293|385:311|385:311|417:269|420:217,1,203.999993774414,4|2,1:0|1:2,0:0:0:0:
241,15,243403,2,0,L|237:149,1,101.999996887207,10|0,0:0|1:0,0:0:0:0:
73,332,243734,2,0,L|59:214,1,101.999996887207,10|0,0:0|1:0,0:0:0:0:
128,72,244066,1,10,0:0:0:0:
228,246,244232,1,0,1:0:0:0:
205,17,244397,5,10,0:0:0:0:
118,190,244563,1,0,1:0:0:0:
51,8,244729,1,10,0:0:0:0:
239,123,244895,1,2,1:2:0:0:
401,48,245060,1,8,0:0:0:0:
106,77,245226,1,2,1:2:0:0:
299,4,245392,1,8,0:0:0:0:
354,261,245558,1,2,1:2:0:0:
105,76,245723,6,0,L|88:181,1,101.999996887207,14|0,0:0|1:0,0:0:0:0:
254,331,246055,1,8,0:0:0:0:
411,175,246221,1,2,1:2:0:0:
411,175,246304,1,0,1:0:0:0:
411,175,246386,1,10,0:0:0:0:
213,244,246552,1,0,1:0:0:0:
440,291,246718,1,12,0:0:0:0:
357,90,246884,1,0,1:0:0:0:
332,361,247049,5,4,1:0:0:0:
282,140,247215,1,0,1:0:0:0:
169,268,247381,1,10,0:0:0:0:
432,154,247547,1,0,1:0:0:0:
153,56,247712,1,10,0:0:0:0:
363,202,247878,1,0,1:0:0:0:
82,280,248044,1,10,0:0:0:0:
262,158,248210,1,0,1:0:0:0:
0,76,248375,5,10,0:0:0:0:
187,192,248541,1,0,1:0:0:0:
103,31,248707,1,10,0:0:0:0:
0,190,248873,1,0,1:0:0:0:
231,269,249038,1,10,0:0:0:0:
140,117,249204,1,0,1:0:0:0:
22,310,249370,1,14,0:0:0:0:
266,188,249536,1,0,1:0:0:0:
127,261,249701,6,0,L|120:310,1,42.5,2|0,1:2|0:0,0:0:0:0:
321,80,249867,2,0,L|330:27,1,42.5,0|0,1:0|0:0,0:0:0:0:
141,85,250033,6,0,P|67:55|-5:78,1,152.999995330811,12|0,0:0|0:0,0:0:0:0:
32,224,250364,6,0,P|65:228|86:224,1,42.5,2|0,1:2|0:0,0:0:0:0:
231,148,250530,2,0,P|255:157|272:171,1,42.5,0|0,1:0|0:0,0:0:0:0:
396,303,250696,6,0,P|365:228|387:156,1,152.999995330811,12|0,0:0|0:0,0:0:0:0:
477,117,251027,6,0,P|483:139|480:172,1,42.5,2|0,1:2|0:0,0:0:0:0:
277,256,251193,2,0,P|268:210|270:199,1,42.5,0|0,1:0|0:0,0:0:0:0:
308,54,251359,6,0,L|146:30,1,152.999995330811,12|8,0:0|0:0,0:0:0:0:
235,139,251690,6,0,L|306:136,1,42.5,2|0,1:2|0:0,0:0:0:0:
53,80,251856,2,0,L|11:69,1,42.5,0|0,1:0|0:0,0:0:0:0:
28,241,252022,6,0,P|117:230|140:160,1,152.999995330811,10|0,0:0|0:0,0:0:0:0:
139,151,252353,5,12,1:2:0:0:
316,95,252519,1,8,0:0:0:0:
234,180,252685,1,0,1:0:0:0:
342,93,252851,1,8,1:2:0:0:
310,277,253016,1,8,0:0:0:0:
310,277,253348,5,8,1:2:0:0:
342,93,253513,1,8,0:0:0:0:
171,171,253679,1,0,1:0:0:0:
371,117,253845,1,8,1:2:0:0:
216,53,254011,2,0,P|142:45|80:89,1,127.5,8|0,0:0|1:0,0:0:0:0:
79,100,254342,5,0,1:0:0:0:
263,209,254508,1,8,0:0:0:0:
56,237,254674,1,12,0:0:0:0:
239,305,254839,6,0,P|323:297|413:280,1,170,4|2,1:0|0:0,0:0:0:0:
351,89,255337,2,0,P|332:146|344:195,1,85,8|0,0:0|0:0,0:0:0:0:
335,169,255585,1,2,0:0:0:0:
335,169,255668,1,2,1:2:0:0:
197,90,255834,1,2,0:0:0:0:
70,196,256000,1,10,0:0:0:0:
190,336,256165,6,0,P|277:312|357:307,1,170,2|2,0:0|0:0,0:0:0:0:
510,323,256663,1,10,0:0:0:0:
403,204,256828,1,0,0:0:0:0:
403,204,256911,1,2,0:0:0:0:
403,204,256994,1,2,1:2:0:0:
339,316,257160,1,0,0:0:0:0:
486,141,257326,2,0,P|509:185|496:236,1,85,10|0,0:0|0:0,0:0:0:0:
248,341,257657,5,2,1:2:0:0:
403,204,257823,1,2,0:2:0:0:
296,92,257989,2,0,L|190:110,1,85,10|2,0:2|0:2,0:0:0:0:
64,122,258320,1,0,1:0:0:0:
278,178,258486,1,0,0:0:0:0:
178,24,258652,1,8,0:0:0:0:
77,210,258817,6,0,P|51:288|88:363,1,170,2|2,0:0|0:0,0:0:0:0:
287,383,259315,2,0,L|299:298,1,85,10|8,0:0|0:0,0:0:0:0:
321,119,259646,1,2,1:2:0:0:
200,233,259812,1,2,0:0:0:0:
420,166,259978,1,12,0:0:0:0:
219,73,260143,1,2,0:0:0:0:
462,6,260309,6,0,L|478:127,1,85,4|0,1:0|0:0,0:0:0:0:
489,200,260641,1,8,0:0:0:0:
302,57,260806,1,2,0:0:0:0:
293,241,260972,2,0,L|305:137,1,85,2|2,1:2|0:0,0:0:0:0:
153,223,261304,1,10,0:0:0:0:
356,320,261469,6,0,P|426:296|434:197,1,170,2|2,0:0|0:0,0:0:0:0:
244,41,261967,2,0,L|236:136,1,85,10|0,0:0|0:0,0:0:0:0:
388,69,262298,1,2,1:2:0:0:
195,235,262464,1,0,0:0:0:0:
372,177,262630,1,12,0:0:0:0:
244,41,262795,1,0,0:0:0:0:
505,275,262961,5,4,1:0:0:0:
291,194,263127,1,0,1:0:0:0:
511,285,263292,5,10,0:0:0:0:
285,199,263458,1,2,1:2:0:0:
450,120,263624,5,0,1:0:0:0:
358,356,263790,1,2,1:2:0:0:
454,106,263955,5,8,0:0:0:0:
355,369,264121,2,0,L|369:191,1,170,4|8,1:0|0:0,0:0:0:0:
373,169,264536,1,8,0:0:0:0:
373,169,264618,1,0,1:0:0:0:
452,295,264784,5,0,1:0:0:0:
390,74,264950,1,10,0:0:0:0:
390,74,265033,1,10,0:0:0:0:
390,74,265116,1,0,1:0:0:0:
256,192,265281,1,0,1:0:0:0:
256,24,265447,5,8,0:0:0:0:
256,24,265530,1,8,0:0:0:0:
256,24,265613,1,4,1:2:0:0:
120,72,265779,1,0,0:0:0:0:
390,74,265944,1,0,1:0:0:0:
256,264,266110,5,2,0:0:0:0:
256,264,266193,1,2,0:0:0:0:
256,264,266276,1,2,1:2:0:0:
336,148,266442,1,2,0:0:0:0:
184,148,266607,1,2,1:2:0:0:
376,288,266773,6,0,L|395:205,1,85,2|0,0:0|1:0,0:0:0:0:
256,120,267105,1,0,0:0:0:0:
144,288,267270,2,0,L|127:201,1,85,2|0,1:2|0:0,0:0:0:0:
256,40,267602,5,12,3:0:0:0:
256,224,267768,1,12,1:2:0:0:
416,112,267933,1,8,1:2:0:0:
104,112,268099,1,8,1:2:0:0:
