osu file format v14

[General]
AudioFilename: audio.mp3
AudioLeadIn: 0
PreviewTime: 51410
Countdown: 0
SampleSet: None
StackLeniency: 0.7
Mode: 0
LetterboxInBreaks: 0
WidescreenStoryboard: 1

[Editor]
DistanceSpacing: 0.6
BeatDivisor: 4
GridSize: 32
TimelineZoom: 1.8

[Metadata]
Title:Wagamama MIRROR HEART
TitleUnicode:ワガママMIRROR HEART
Artist:Ayaka Ohashi
ArtistUnicode:大橋彩香
Creator:Flezlin
Version:Vengeance
Source:政宗くんのリベンジ
Tags:Masamune-kun's Revenge anime opening tv size
BeatmapID:1246926
BeatmapSetID:589028

[Difficulty]
HPDrainRate:5
CircleSize:4
OverallDifficulty:8.7
ApproachRate:9.4
SliderMultiplier:1.8
SliderTickRate:1

[Events]
//Background and Video events
//Break Periods
//Storyboard Layer 0 (Background)
//Storyboard Layer 1 (Fail)
//Storyboard Layer 2 (Pass)
//Storyboard Layer 3 (Foreground)
//Storyboard Sound Samples

[TimingPoints]
531,331.491712707182,4,2,0,100,1,0
531,-166.666666666667,4,2,0,60,0,0
1856,-100,4,2,0,60,0,0
2685,-166.666666666667,4,2,0,60,0,0
8486,-133.333333333333,4,2,0,60,0,0
13790,-117.647058823529,4,2,0,60,0,0
19094,-166.666666666667,4,2,0,60,0,0
29536,-133.333333333333,4,2,0,60,0,0
38818,-111.111111111111,4,2,0,60,0,0
45613,-200,4,2,0,60,0,0
46111,-100,4,2,0,60,0,0
46608,-200,4,2,0,60,0,0
47105,-100,4,2,0,60,0,0
47602,-100,4,2,0,60,0,0
50254,-111.111111111111,4,2,0,60,0,0
52243,-83.3333333333333,4,2,0,60,0,1
61359,-83.3333333333333,4,2,0,60,0,0
62851,-142.857142857143,4,2,0,60,0,0
63017,-111.111111111111,4,2,0,60,0,0
63182,-90.9090909090908,4,2,0,60,0,0
63348,-76.9230769230769,4,2,0,60,0,0
63514,-66.6666666666667,4,2,0,60,0,0
63680,-90.9090909090909,4,2,0,60,0,0
64011,-83.3333333333333,4,2,0,60,0,1
73459,-83.3333333333333,4,2,0,60,0,0
76111,-83.3333333333333,4,2,0,60,0,1
84729,-74.0740740740741,4,2,0,60,0,1
85392,-66.6666666666667,4,2,0,60,0,1
86055,-60.6060606060606,4,2,0,60,0,1
86718,-100,4,2,0,60,0,0

[HitObjects]
7,167,1028,6,0,L|108:163,1,80.9999975280763
87,163,1359,1,0,0:0:0:0:
52,251,1525,1,0,0:0:0:0:
52,251,1691,1,0,0:0:0:0:
212,104,1856,6,0,B|217:79|292:63|285:161|247:152|230:149|210:160|203:198,1,180
212,104,2354,2,0,B|211:78|141:48|128:144|167:144|184:144|201:159|200:198,1,180
199,198,3017,1,0,0:0:0:0:
291,245,3182,6,0,P|322:243|362:221,1,53.9999983520508
454,329,3514,2,0,P|436:303|397:279,1,53.9999983520508
449,143,3845,2,0,P|436:166|431:193,1,53.9999983520508
366,372,4177,2,0,P|361:345|348:322,1,53.9999983520508
210,186,4508,2,0,P|236:185|262:176,1,53.9999983520508
450,142,4840,2,0,P|424:133|397:131,1,53.9999983520508
406,283,5171,2,0,L|409:213,1,53.9999983520508
317,94,5503,2,0,L|314:40,1,53.9999983520508
210,186,5834,5,0,0:0:0:0:
175,98,6000,2,0,P|217:94|249:104,1,53.9999983520508
162,286,6332,2,0,B|155:111|155:111|172:170|220:191,1,269.999991760254
209,185,7492,1,0,0:0:0:0:
209,185,7658,1,0,0:0:0:0:
389,102,7989,6,0,L|366:97,3,13.4999995880127
393,112,8155,2,0,L|386:212,1,80.9999975280763
441,293,8486,6,0,P|389:277|325:298,1,101.250003862381
283,343,8818,2,0,P|247:335|203:346,1,67.5000025749208
217,339,9066,1,0,0:0:0:0:
217,339,9149,1,0,0:0:0:0:
141,381,9315,1,0,0:0:0:0:
139,361,9398,1,0,0:0:0:0:
138,343,9481,1,0,0:0:0:0:
137,326,9564,1,0,0:0:0:0:
128,288,9647,6,0,B|181:315|181:315|259:277,1,135.000005149842
325,230,10061,1,0,0:0:0:0:
336,222,10144,1,0,0:0:0:0:
178,155,10310,2,0,L|182:223,1,67.5000025749208
61,363,10641,1,0,0:0:0:0:
241,334,10807,1,0,0:0:0:0:
247,332,10890,1,0,0:0:0:0:
253,330,10972,1,0,0:0:0:0:
259,328,11055,1,0,0:0:0:0:
278,324,11138,6,0,L|197:316,1,67.5000025749208
25,285,11470,6,0,L|73:280,1,33.7500012874604
220,248,11635,1,0,0:0:0:0:
220,248,11718,1,0,0:0:0:0:
220,248,11801,2,0,L|275:249,1,33.7500012874604
392,299,11967,2,0,L|421:302,4,16.8750006437302
392,299,12298,6,0,L|386:155,1,135.000005149842
401,75,12713,1,0,0:0:0:0:
401,75,12796,2,0,L|351:78,1,33.7500012874604
179,91,12961,2,0,L|229:88,1,33.7500012874604
289,83,13127,5,0,0:0:0:0:
212,245,13293,1,0,0:0:0:0:
86,32,13459,2,0,L|82:150,1,101.250003862381
145,186,13790,5,0,0:0:0:0:
21,279,13956,1,0,0:0:0:0:
222,337,14122,5,0,0:0:0:0:
8,278,14287,2,0,L|107:273,1,76.5000014591217
229,242,14619,1,0,0:0:0:0:
69,373,14785,5,0,0:0:0:0:
230,149,14950,1,0,0:0:0:0:
235,143,15033,1,0,0:0:0:0:
240,137,15116,2,0,L|243:246,1,76.5000014591217
327,384,15448,1,0,0:0:0:0:
444,285,15613,6,0,L|264:291,1,153.000002918243
458,376,16111,2,0,L|462:274,1,76.5000014591217
353,119,16442,1,0,0:0:0:0:
512,233,16608,1,0,0:0:0:0:
291,290,16774,5,0,0:0:0:0:
510,86,16939,2,0,L|405:79,1,76.5000014591217
195,64,17271,1,0,0:0:0:0:
400,211,17437,1,0,0:0:0:0:
135,373,17602,2,0,L|128:238,1,114.750002188683
129,258,17934,1,0,0:0:0:0:
398,323,18100,2,0,P|349:318|304:325,1,76.5000014591217
322,320,19094,6,0,P|324:258|327:201,2,107.999996704102
402,360,19923,1,0,0:0:0:0:
234,290,20089,1,0,0:0:0:0:
418,169,20254,1,0,0:0:0:0:
418,169,20337,1,0,0:0:0:0:
418,169,20420,2,0,L|414:243,1,53.9999983520508
311,72,20751,2,0,L|315:146,1,53.9999983520508
433,11,21083,2,0,L|429:85,1,53.9999983520508
239,157,21414,1,0,0:0:0:0:
231,164,21746,6,0,P|276:127|343:140,1,107.999996704102
304,212,22243,1,0,0:0:0:0:
314,45,22409,1,0,0:0:0:0:
409,162,22575,1,0,0:0:0:0:
206,77,22740,1,0,0:0:0:0:
140,223,22906,1,0,0:0:0:0:
140,223,22989,1,0,0:0:0:0:
140,223,23072,2,0,P|136:175|133:145,1,53.9999983520508
202,291,23403,1,0,0:0:0:0:
222,174,23569,1,0,0:0:0:0:
108,309,23735,2,0,L|178:307,1,53.9999983520508
355,338,24066,1,0,0:0:0:0:
374,337,24398,6,0,B|434:331|418:360|480:351,2,107.999996704102
286,371,25227,1,0,0:0:0:0:
341,210,25392,1,0,0:0:0:0:
374,337,25558,1,0,0:0:0:0:
232,285,25724,2,0,P|268:279|302:281,1,53.9999983520508
512,269,26055,2,0,P|481:264|442:265,1,53.9999983520508
374,337,26387,2,0,L|374:266,1,53.9999983520508
389,58,26718,1,0,0:0:0:0:
400,51,27050,6,0,P|414:128|406:174,1,107.999996704102
324,110,27547,1,0,0:0:0:0:
503,81,27713,1,0,0:0:0:0:
331,219,27879,1,0,0:0:0:0:
508,182,28044,1,0,0:0:0:0:
417,137,28210,1,0,0:0:0:0:
417,137,28293,1,0,0:0:0:0:
417,137,28376,2,0,L|413:208,1,53.9999983520508
303,34,28707,6,0,L|415:36,1,107.999996704102
493,47,29122,1,0,0:0:0:0:
493,47,29205,2,0,L|498:94,1,26.9999991760254
325,223,29370,2,0,L|327:196,1,26.9999991760254
232,4,29536,6,0,B|265:61|265:61|230:149,1,135.000005149842
185,222,30033,2,0,P|241:217|270:217,1,67.5000025749208
316,329,30365,1,0,0:0:0:0:
231,374,30530,2,0,P|229:324|223:286,1,67.5000025749208
191,155,30862,2,0,P|190:188|186:222,1,67.5000025749208
125,304,31193,1,0,0:0:0:0:
0,196,31359,6,0,L|111:190,1,101.250003862381
111,198,31691,2,0,P|111:164|112:130,1,67.5000025749208
0,10,32022,2,0,P|0:43|1:77,1,67.5000025749208
227,35,32354,6,0,B|181:32|181:32|142:51|142:51|90:48,1,135.000005149842
212,189,32851,2,0,P|218:150|200:109,1,67.5000025749208
96,48,33182,1,0,0:0:0:0:
291,96,33348,1,0,0:0:0:0:
145,242,33514,1,0,0:0:0:0:
69,158,33680,2,0,P|108:153|158:154,1,67.5000025749208
302,238,34011,6,0,L|300:118,1,101.250003862381
300,122,34343,2,0,P|359:131|381:129,1,67.5000025749208
456,335,34674,2,0,L|460:249,1,67.5000025749208
220,367,35006,6,0,P|281:336|359:351,1,135.000005149842
215,256,35503,2,0,L|211:171,1,67.5000025749208
321,248,35834,1,0,0:0:0:0:
130,312,36000,2,0,P|124:250|118:199,1,101.250003862381
108,168,36332,2,0,P|95:232|81:257,1,67.5000025749208
282,165,36663,2,0,L|212:161,1,67.5000025749208
26,190,36995,5,0,0:0:0:0:
215,256,37160,1,0,0:0:0:0:
224,260,37243,1,0,0:0:0:0:
233,262,37326,1,0,0:0:0:0:
14,359,37492,2,0,P|76:337|156:344,1,135.000005149842
126,90,37989,6,0,L|121:182,1,67.5000025749208
116,242,38238,1,0,0:0:0:0:
116,242,38321,2,0,L|174:235,1,33.7500012874604
328,212,38486,1,0,0:0:0:0:
30,137,38652,1,0,0:0:0:0:
254,25,38818,2,0,L|251:82,1,40.4999987640381
237,253,39149,6,0,L|239:212,1,40.4999987640381
254,9,39315,1,0,0:0:0:0:
185,134,39481,2,0,L|310:142,1,121.499996292114
307,141,39812,1,0,0:0:0:0:
466,281,39978,2,0,P|412:267|337:309,1,121.499996292114
352,290,40310,5,0,0:0:0:0:
443,71,40475,1,0,0:0:0:0:
481,300,40641,1,0,0:0:0:0:
281,213,41138,5,0,0:0:0:0:
281,213,41221,1,0,0:0:0:0:
281,213,41304,2,0,L|341:208,1,40.4999987640381
418,362,41470,2,0,L|315:358,1,80.9999975280763
212,353,41801,1,0,0:0:0:0:
415,167,41967,2,0,P|418:231|411:271,1,80.9999975280763
308,288,42298,1,0,0:0:0:0:
308,288,42464,1,0,0:0:0:0:
512,377,42630,1,0,0:0:0:0:
512,377,42961,5,0,0:0:0:0:
204,265,43127,1,0,0:0:0:0:
501,187,43293,1,0,0:0:0:0:
361,324,43459,1,0,0:0:0:0:
361,324,43542,1,0,0:0:0:0:
361,324,43624,2,0,L|356:261,1,40.4999987640381
355,52,43790,1,0,0:0:0:0:
405,192,43956,1,0,0:0:0:0:
157,144,44122,6,0,L|256:140,1,80.9999975280763
317,165,44453,1,0,0:0:0:0:
185,349,44619,2,0,P|187:298|183:254,1,80.9999975280763
80,140,44950,1,0,0:0:0:0:
80,140,45116,1,0,0:0:0:0:
7,317,45282,2,0,P|62:308|116:311,1,80.9999975280763
309,296,45613,6,0,P|265:296|214:276,1,90
305,116,46111,6,0,L|309:318,1,180
467,217,46608,6,0,P|425:203|376:213,1,90
435,354,47105,6,0,P|496:295|466:216,1,180
215,121,47602,6,0,L|316:115,1,90
438,364,47934,2,0,L|337:358,1,90
98,191,48265,2,0,B|125:252|125:252|84:338,1,135
95,313,48597,1,0,0:0:0:0:
17,142,48763,2,0,P|73:143|113:138,1,90
367,76,49094,1,0,0:0:0:0:
173,176,49260,1,0,0:0:0:0:
381,353,49426,2,0,P|310:330|248:363,1,135
257,353,49757,1,0,0:0:0:0:
140,262,49923,5,0,0:0:0:0:
336,198,50089,1,0,0:0:0:0:
125,72,50254,6,0,P|163:94|224:103,1,53.9999983520508
367,76,50475,6,0,P|330:97|291:146,1,53.9999983520508
243,284,50696,6,0,P|243:241|220:183,1,53.9999983520508
246,144,50917,5,0,0:0:0:0:
271,49,51249,5,0,0:0:0:0:
253,151,51414,2,0,L|346:156,1,80.9999975280763
423,202,51746,1,0,0:0:0:0:
345,273,51912,2,0,L|340:215,1,40.4999987640381
512,147,52077,2,0,L|508:187,1,40.4999987640381
364,76,52243,6,0,B|281:74|281:74|232:110|232:110|159:108,1,215.999993408203
47,27,52740,1,0,0:0:0:0:
47,27,52823,1,0,0:0:0:0:
47,27,52906,2,0,P|53:94|57:162,1,107.999996704102
10,255,53238,1,0,0:0:0:0:
159,108,53403,1,0,0:0:0:0:
290,334,53569,6,0,L|167:330,1,107.999996704102
10,255,53901,2,0,L|133:251,1,107.999996704102
320,181,54232,1,0,0:0:0:0:
211,242,54398,1,0,0:0:0:0:
379,384,54564,2,0,P|387:324|368:258,1,107.999996704102
211,71,54895,6,0,P|273:136|403:112,1,215.999993408203
316,49,55392,1,0,0:0:0:0:
211,242,55558,2,0,P|214:185|217:128,1,107.999996704102
470,61,55890,2,0,P|473:118|476:175,1,107.999996704102
290,334,56221,5,0,0:0:0:0:
390,122,56387,1,0,0:0:0:0:
484,290,56553,1,0,0:0:0:0:
484,290,56635,1,0,0:0:0:0:
484,290,56718,2,0,P|417:283|361:278,1,107.999996704102
211,242,57050,1,0,0:0:0:0:
379,384,57216,2,0,B|391:329|391:329|377:279,1,107.999996704102
291,85,57547,5,0,0:0:0:0:
298,252,57713,1,0,0:0:0:0:
303,71,57879,1,0,0:0:0:0:
153,175,58044,1,0,0:0:0:0:
390,164,58210,5,0,0:0:0:0:
183,65,58376,1,0,0:0:0:0:
248,329,58542,1,0,0:0:0:0:
47,238,58707,1,0,0:0:0:0:
47,238,58790,1,0,0:0:0:0:
47,238,58873,6,0,P|110:235|161:233,1,107.999996704102
317,175,59205,2,0,P|299:246|317:297,1,107.999996704102
474,79,59536,2,0,P|411:76|360:74,1,107.999996704102
131,23,59868,2,0,P|149:94|131:145,1,107.999996704102
39,354,60199,6,0,P|91:293|207:321,1,161.999995056153
168,291,60530,1,0,0:0:0:0:
60,150,60696,1,0,0:0:0:0:
60,150,60779,1,0,0:0:0:0:
60,150,60862,1,0,0:0:0:0:
126,369,61028,1,0,0:0:0:0:
227,132,61193,1,0,0:0:0:0:
379,364,61359,6,0,P|306:364|193:372,1,161.999995056153
217,369,61691,1,0,0:0:0:0:
400,174,61856,1,0,0:0:0:0:
379,372,62022,1,0,0:0:0:0:
218,116,62188,1,0,0:0:0:0:
420,183,62519,6,0,L|451:186,7,26.9999991760254
404,179,62851,6,0,P|380:177|354:182,1,31.4999990386963
157,338,63017,6,0,P|180:339|212:331,1,40.4999987640381
430,273,63182,6,0,P|410:260|383:252,1,49.5000015106202
112,240,63348,6,0,P|131:252|170:260,1,58.4999973220826
411,372,63514,6,0,P|400:351|370:325,1,58.4999973220826
131,137,63680,5,0,0:0:0:0:
131,137,63763,1,0,0:0:0:0:
131,137,63845,2,0,P|141:157|171:183,1,49.5000015106202
274,253,64011,1,0,0:0:0:0:
77,322,64177,6,0,L|70:204,1,107.999996704102
214,0,64508,2,0,L|207:107,1,107.999996704102
64,56,64840,1,0,0:0:0:0:
165,250,65006,1,0,0:0:0:0:
331,90,65171,2,0,P|262:80|214:92,1,107.999996704102
53,151,65503,6,0,P|64:177|68:209,1,53.9999983520508
274,166,65669,2,0,P|263:192|259:224,1,53.9999983520508
155,363,65834,2,0,L|159:189,1,161.999995056153
143,182,66166,6,0,L|202:187,1,53.9999983520508
372,295,66332,2,0,L|425:290,1,53.9999983520508
253,261,66497,2,0,B|269:375|269:375|293:326,1,161.999995056153
290,333,66829,5,0,0:0:0:0:
73,293,66995,1,0,0:0:0:0:
351,209,67160,1,0,0:0:0:0:
141,153,67326,2,0,P|146:209|155:288,1,107.999996704102
145,370,67658,1,0,0:0:0:0:
351,209,67823,2,0,L|224:206,1,107.999996704102
62,38,68155,5,0,0:0:0:0:
261,121,68321,1,0,0:0:0:0:
22,187,68486,1,0,0:0:0:0:
181,39,68652,1,0,0:0:0:0:
181,39,68735,1,0,0:0:0:0:
181,39,68818,2,0,L|291:32,1,107.999996704102
351,209,69149,1,0,0:0:0:0:
141,153,69315,1,0,0:0:0:0:
402,96,69481,5,0,0:0:0:0:
221,267,69647,1,0,0:0:0:0:
261,121,69812,1,0,0:0:0:0:
423,303,69978,1,0,0:0:0:0:
423,303,70061,1,0,0:0:0:0:
423,303,70144,2,0,L|300:298,1,107.999996704102
363,192,70475,1,0,0:0:0:0:
352,384,70641,1,0,0:0:0:0:
126,244,70807,5,0,0:0:0:0:
460,209,70972,1,0,0:0:0:0:
181,39,71138,5,0,0:0:0:0:
234,338,71304,1,0,0:0:0:0:
265,111,71470,1,0,0:0:0:0:
0,203,71635,5,0,0:0:0:0:
274,234,71801,1,0,0:0:0:0:
96,349,71967,2,0,B|88:195|88:195|105:229|136:251,1,215.999993408203
125,243,72381,1,0,0:0:0:0:
125,243,72464,2,0,L|43:252,1,53.9999983520508
0,329,72630,1,0,0:0:0:0:
166,110,72796,1,0,0:0:0:0:
166,110,72879,1,0,0:0:0:0:
166,110,72961,2,0,L|169:186,1,53.9999983520508
196,352,73127,1,0,0:0:0:0:
16,116,73293,1,0,0:0:0:0:
16,116,73376,1,0,0:0:0:0:
16,116,73459,5,0,0:0:0:0:
274,234,73624,2,0,L|143:239,1,107.999996704102
333,120,73956,5,0,0:0:0:0:
196,352,74122,2,0,L|327:357,1,107.999996704102
95,302,74453,5,0,0:0:0:0:
381,229,74619,2,0,L|273:233,1,107.999996704102
439,328,74950,5,0,0:0:0:0:
200,189,75116,1,0,0:0:0:0:
431,139,75282,1,0,0:0:0:0:
342,384,75448,6,0,P|328:334|337:270,1,107.999996704102
512,101,75779,2,0,P|518:154|503:206,1,107.999996704102
310,99,76111,5,0,0:0:0:0:
439,328,76276,1,0,0:0:0:0:
179,198,76442,5,0,0:0:0:0:
431,139,76608,1,0,0:0:0:0:
138,100,76774,5,0,0:0:0:0:
333,278,76939,1,0,0:0:0:0:
108,272,77105,5,0,0:0:0:0:
310,87,77271,1,0,0:0:0:0:
240,382,77437,5,0,0:0:0:0:
132,89,77602,1,0,0:0:0:0:
49,375,77768,5,0,0:0:0:0:
350,278,77934,1,0,0:0:0:0:
37,174,78100,5,0,0:0:0:0:
250,249,78265,1,0,0:0:0:0:
223,3,78431,5,0,0:0:0:0:
153,189,78597,1,0,0:0:0:0:
417,20,78763,5,0,0:0:0:0:
126,78,78928,1,0,0:0:0:0:
367,278,79094,5,0,0:0:0:0:
318,9,79260,1,0,0:0:0:0:
490,230,79426,5,0,0:0:0:0:
224,278,79591,1,0,0:0:0:0:
422,132,79757,5,0,0:0:0:0:
473,368,79923,1,0,0:0:0:0:
208,114,80089,6,0,L|335:122,1,107.999996704102
507,64,80420,1,0,0:0:0:0:
377,308,80586,1,0,0:0:0:0:
377,308,80669,1,0,0:0:0:0:
377,308,80751,2,0,P|365:244|375:183,1,107.999996704102
318,9,81083,2,0,P|329:61|325:115,1,107.999996704102
194,291,81414,6,0,P|275:250|379:313,1,215.999993408203
282,355,81912,1,0,0:0:0:0:
150,177,82077,1,0,0:0:0:0:
152,384,82243,1,0,0:0:0:0:
288,214,82409,2,0,L|224:210,1,53.9999983520508
30,287,82575,2,0,L|94:283,1,53.9999983520508
376,307,82740,5,0,0:0:0:0:
150,166,82906,1,0,0:0:0:0:
394,65,83072,2,0,P|391:148|390:191,1,107.999996704102
510,368,83403,6,0,P|431:304|348:318,1,161.999995056153
282,355,83735,2,0,P|298:293|286:229,1,107.999996704102
24,104,84066,6,0,L|28:172,1,53.9999983520508
156,383,84232,2,0,L|159:329,1,53.9999983520508
169,227,84398,2,0,B|77:217|106:275|14:263,1,161.999995056153
14,279,84729,6,0,P|36:283|79:299,1,60.7500002317429
298,161,84895,2,0,P|267:165|232:181,1,60.7500002317429
156,383,85061,2,0,B|206:333|206:333|167:222,1,182.250000695229
159,151,85392,6,0,L|152:229,1,67.5000025749208
17,372,85558,2,0,L|10:304,1,67.5000025749208
36,88,85724,2,0,B|86:47|86:47|73:195,1,202.500007724762
14,89,86055,6,0,L|93:83,1,74.2500007081032
298,161,86221,2,0,L|372:166,1,74.2500007081032
208,23,86387,2,0,B|174:32|153:72|154:120|195:148|195:148|216:140|235:125|235:125|238:107|223:96,1,222.75000212431
231,104,86718,6,0,L|235:213,1,90
272,288,87050,1,0,0:0:0:0:
158,284,87216,1,0,0:0:0:0:
153,283,87298,1,0,0:0:0:0:
148,282,87381,2,0,P|193:268|242:279,1,90
328,345,87630,1,0,0:0:0:0:
328,345,87713,2,0,P|338:325|345:299,1,45
431,282,87879,2,0,P|421:262|414:236,1,45
350,87,88044,6,0,L|348:198,1,90
441,41,88376,1,0,0:0:0:0:
276,17,88542,1,0,0:0:0:0:
276,17,88624,1,0,0:0:0:0:
276,17,88707,1,0,0:0:0:0:
472,150,88873,1,0,0:0:0:0:
273,291,89039,1,0,0:0:0:0:
309,99,89205,6,0,B|352:57|352:57|348:176,1,180
