osu file format v14

[General]
AudioFilename: audio.mp3
AudioLeadIn: 0
PreviewTime: 50634
Countdown: 0
SampleSet: Soft
StackLeniency: 0.3
Mode: 0
LetterboxInBreaks: 0
WidescreenStoryboard: 0

[Editor]
DistanceSpacing: 1.7
BeatDivisor: 4
GridSize: 4
TimelineZoom: 1.8

[Metadata]
Title:Wagamama MIRROR HEART
TitleUnicode:ワガママMIRROR HEART
Artist:Ayaka Ohashi
ArtistUnicode:大橋彩香
Creator:-Hanashi-
Version:Insane
Source:政宗くんのリベンジ
Tags:masamune-kun no masamune's revenge ribenji opening adagaki aki masamune makabe kibbleru
BeatmapID:1181224
BeatmapSetID:555414

[Difficulty]
HPDrainRate:6
CircleSize:4
OverallDifficulty:7
ApproachRate:9
SliderMultiplier:1.7
SliderTickRate:1

[Events]
//Background and Video events
0,0,"pig's foot.jpg",0,0
//Break Periods
//Storyboard Layer 0 (Background)
//Storyboard Layer 1 (Fail)
//Storyboard Layer 2 (Pass)
//Storyboard Layer 3 (Foreground)
//Storyboard Sound Samples

[TimingPoints]
247,331.491712707182,4,2,1,40,1,0
247,-142.857142857143,4,2,1,40,0,0
1075,331.491712707182,4,2,1,40,1,0
1075,-142.857142857143,4,2,1,40,0,0
7207,-111.111111111111,4,2,1,30,0,0
7704,-111.111111111111,4,2,1,50,0,0
13008,-100,4,2,1,60,0,0
18312,-142.857142857143,4,2,1,40,0,0
28257,-111.111111111111,4,2,1,50,0,0
39528,-111.111111111111,4,2,1,60,0,0
40025,-142.857142857143,4,2,1,60,0,0
40356,-100,4,2,1,60,0,0
44831,-166.666666666667,4,2,1,40,0,0
46820,-100,4,2,1,60,0,0
50135,-200,4,2,1,70,0,0
51130,-100,4,2,1,70,0,0
51461,-100,4,2,1,70,0,1
61406,-166.666666666667,4,2,1,70,0,1
63229,-100,4,2,1,70,0,1
64721,-166.666666666667,4,2,1,70,0,1
65052,-83.3333333333333,4,2,1,70,0,1
65384,-166.666666666667,4,2,1,70,0,1
65715,-83.3333333333333,4,2,1,70,0,1
66047,-100,4,2,1,70,0,1
72677,-100,4,2,1,70,0,0
75329,-100,4,2,1,70,0,1
83284,-166.666666666667,4,2,1,70,0,1
83616,-100,4,2,1,70,0,1
83947,-166.666666666667,4,2,1,70,0,1
84279,-83.3333333333333,4,2,1,70,0,1
84610,-166.666666666667,4,2,1,70,0,1
84942,-83.3333333333333,4,2,1,70,0,1
85273,-166.666666666667,4,2,1,70,0,1
85605,-83.3333333333333,4,2,1,70,0,1
85936,-142.857142857143,4,2,1,50,0,0

[Colours]
Combo1 : 255,197,138
Combo2 : 176,176,255
Combo3 : 255,128,128
Combo4 : 151,255,151

[HitObjects]
94,194,247,6,0,B|152:211|152:211|216:193,1,118.999996368408
285,150,744,1,0,0:0:0:0:
285,150,909,1,0,0:0:0:0:
281,287,1075,2,0,P|323:338|397:344,1,118.999996368408
371,259,1572,2,0,B|190:242,1,178.499994552612
166,156,2235,1,0,0:0:0:0:
98,274,2400,2,0,P|91:310|102:344,1,59.4999981842042
221,317,2732,2,0,P|225:287|218:259,1,59.4999981842042
274,147,3063,2,0,L|341:142,1,59.4999981842042
415,47,3395,2,0,L|348:42,1,59.4999981842042
411,169,3726,2,0,P|393:213|419:296,1,118.999996368408
171,312,4389,2,0,P|189:268|163:185,1,118.999996368408
134,119,4887,1,0,0:0:0:0:
220,225,5052,2,0,P|257:229|293:225,1,59.4999981842042
395,91,5550,1,0,0:0:0:0:
155,268,7207,1,0,0:0:0:0:
155,268,7290,1,0,0:0:0:0:
155,268,7373,2,0,L|155:333,3,38.2499988327027
197,345,7704,2,0,P|272:316|288:314,1,76.4999976654053
383,312,8036,2,0,P|388:259|380:175,1,114.749996498108
376,173,8367,1,0,0:0:0:0:
283,105,8533,2,0,P|244:100|184:106,1,76.4999976654053
183,290,8865,2,0,P|240:296|337:282,1,152.999995330811
359,273,9279,1,0,0:0:0:0:
374,258,9362,1,0,0:0:0:0:
283,105,9528,1,0,0:0:0:0:
283,105,9693,2,0,P|279:170|286:215,1,76.4999976654053
359,273,10025,1,0,0:0:0:0:
394,286,10107,1,0,0:0:0:0:
432,283,10190,1,0,0:0:0:0:
465,264,10273,1,0,0:0:0:0:
486,244,10356,2,0,L|472:87,1,152.999995330811
315,174,10854,1,0,0:0:0:0:
315,174,10936,1,0,0:0:0:0:
315,174,11019,2,0,L|246:165,1,38.2499988327027
211,229,11185,2,0,L|117:241,1,76.4999976654053
301,298,11516,2,0,P|344:306|437:243,1,152.999995330811
440,230,11931,1,0,0:0:0:0:
440,209,12014,1,0,0:0:0:0:
294,111,12179,1,0,0:0:0:0:
294,111,12345,2,0,P|287:154|296:206,1,76.4999976654053
406,322,12677,2,0,P|414:282|407:226,1,76.4999976654053
290,186,13008,2,0,B|176:199,1,85
116,102,13340,1,0,0:0:0:0:
125,296,13505,2,0,L|302:323,1,170
420,336,14003,1,0,0:0:0:0:
360,150,14168,2,0,P|360:202|381:328,1,170
472,230,14666,1,0,0:0:0:0:
360,150,14831,2,0,B|428:120|483:27,1,170
360,150,15329,1,0,0:0:0:0:
361,302,15494,1,0,0:0:0:0:
485,228,15660,1,0,0:0:0:0:
340,227,15826,1,0,0:0:0:0:
481,195,15992,1,0,0:0:0:0:
361,302,16157,2,0,P|284:307|186:293,1,170
121,135,16655,1,0,0:0:0:0:
125,336,16820,1,0,0:0:0:0:
125,336,17152,1,0,0:0:0:0:
121,135,17318,1,0,0:0:0:0:
417,80,18146,1,0,0:0:0:0:
417,80,18229,1,0,0:0:0:0:
417,80,18312,2,0,L|410:211,1,118.999996368408
261,336,18975,2,0,P|221:332|187:339,1,59.4999981842042
113,283,19307,2,0,P|73:287|39:280,1,59.4999981842042
61,132,19638,2,0,L|56:220,1,59.4999981842042
187,143,19970,2,0,L|182:55,1,59.4999981842042
299,158,20301,2,0,L|305:221,1,59.4999981842042
420,293,20633,2,0,L|426:230,1,59.4999981842042
315,315,20964,2,0,P|260:313|185:335,1,118.999996368408
120,215,21461,2,0,L|122:76,1,118.999996368408
200,32,21958,1,0,0:0:0:0:
305,121,22124,2,0,P|229:142|172:120,1,118.999996368408
200,32,22621,1,0,0:0:0:0:
57,73,22787,1,0,0:0:0:0:
130,261,23119,1,0,0:0:0:0:
137,125,23284,1,0,0:0:0:0:
137,125,23616,2,0,P|178:139|212:138,1,59.4999981842042
267,256,23947,2,0,P|308:242|342:243,1,59.4999981842042
380,115,24279,2,0,L|376:194,1,59.4999981842042
267,256,24610,2,0,L|263:177,1,59.4999981842042
177,88,24942,2,0,P|168:122|172:171,1,59.4999981842042
111,230,25273,2,0,P|77:221|28:225,1,59.4999981842042
146,322,25605,2,0,P|180:331|278:318,1,118.999996368408
345,265,26102,1,0,0:0:0:0:
421,151,26268,2,0,B|439:206|439:206|420:282,1,118.999996368408
296,326,26765,2,0,P|226:316|160:325,1,118.999996368408
80,292,27262,1,0,0:0:0:0:
188,201,27428,2,0,P|225:158|232:80,1,118.999996368408
155,35,27925,1,0,0:0:0:0:
188,201,28091,1,0,0:0:0:0:
61,230,28257,1,0,0:0:0:0:
61,230,28339,1,0,0:0:0:0:
61,230,28423,2,0,B|117:243,1,38.2499988327027
190,258,28588,1,0,0:0:0:0:
298,109,28754,2,0,P|356:126|391:207,1,152.999995330811
292,290,29251,1,0,0:0:0:0:
453,268,29417,1,0,0:0:0:0:
295,186,29583,2,0,L|299:103,1,76.4999976654053
171,139,29914,2,0,L|166:55,1,76.4999976654053
89,217,30246,2,0,P|137:229|232:277,1,152.999995330811
342,339,30743,1,0,0:0:0:0:
363,177,30909,1,0,0:0:0:0:
406,298,31074,1,0,0:0:0:0:
274,199,31240,1,0,0:0:0:0:
445,215,31406,1,0,0:0:0:0:
374,26,31572,2,0,P|358:89|363:180,1,152.999995330811
406,298,32069,2,0,P|366:294|326:306,1,76.4999976654053
224,228,32400,2,0,P|184:228|148:220,1,76.4999976654053
60,124,32732,1,0,0:0:0:0:
224,228,32898,2,0,L|216:316,1,76.4999976654053
340,268,33229,2,0,L|348:364,1,76.4999976654053
424,184,33561,1,0,0:0:0:0:
368,68,33726,1,0,0:0:0:0:
340,268,33892,1,0,0:0:0:0:
340,268,34224,2,0,B|280:256|236:272|236:272|176:232,1,152.999995330811
206,92,34721,2,0,L|194:272,1,152.999995330811
48,336,35218,2,0,L|44:240,1,76.4999976654053
168,132,35550,2,0,L|172:228,1,76.4999976654053
184,340,35881,1,0,0:0:0:0:
171,208,36047,1,0,0:0:0:0:
288,343,36213,2,0,P|344:323|380:319,1,76.4999976654053
386,320,36461,1,0,0:0:0:0:
412,324,36544,1,0,0:0:0:0:
481,162,36710,2,0,L|485:314,1,152.999995330811
394,138,37207,2,0,L|399:228,1,76.4999976654053
408,344,37539,1,0,0:0:0:0:
295,207,37704,1,0,0:0:0:0:
421,237,37870,1,0,0:0:0:0:
277,342,38036,1,0,0:0:0:0:
277,342,38367,1,0,0:0:0:0:
144,112,38699,2,0,P|144:190|190:272,1,152.999995330811
295,125,39196,2,0,P|299:167|293:221,1,76.4999976654053
271,329,39528,1,0,0:0:0:0:
451,312,39693,1,0,0:0:0:0:
373,154,39859,1,0,0:0:0:0:
270,269,40025,2,0,L|271:344,1,59.4999981842042
271,183,40356,1,0,0:0:0:0:
