osu file format v14

[General]
AudioFilename: audio.ogg
AudioLeadIn: 0
PreviewTime: 55081
Countdown: 0
SampleSet: Soft
StackLeniency: 0.7
Mode: 3
LetterboxInBreaks: 0
SpecialStyle: 0
WidescreenStoryboard: 1

[Editor]
DistanceSpacing: 1.2
BeatDivisor: 8
GridSize: 16
TimelineZoom: 2

[Metadata]
Title:Please, please! (TV Size)
TitleUnicode:Please, please! (TV Size)
Artist:Ayaka Ohashi
ArtistUnicode:大橋彩香
Creator:Amiichii
Version:Revenge!
Source:政宗くんのリベンジR
Tags:masamune kun no revenge R season 2 Anime Japanese Pop J-pop Jpop OP Opening Adagaki Aki Kanata Okajima 岡嶋かな多 pw.a pwa
BeatmapID:4179440
BeatmapSetID:2008972

[Difficulty]
HPDrainRate:8
CircleSize:4
OverallDifficulty:8
ApproachRate:9.2
SliderMultiplier:1.8
SliderTickRate:1

[Events]
//Background and Video events
0,0,"IN.jpg",0,0
Video,0,"video.mp4"
//Break Periods
//Storyboard Layer 0 (Background)
//Storyboard Layer 1 (Fail)
//Storyboard Layer 2 (Pass)
//Storyboard Layer 3 (Foreground)
//Storyboard Layer 4 (Overlay)
//Storyboard Sound Samples

[TimingPoints]
2057,333.333333333333,4,2,1,50,1,0
56723,-100,4,2,1,50,0,1
66056,-100,4,2,1,50,0,0
67390,-100,4,2,1,50,0,1
76723,-100,4,2,1,50,0,0
78056,-100,4,2,1,50,0,1
87390,-100,4,2,1,50,0,0

[HitObjects]
64,192,723,128,0,890:0:0:0:0:
448,192,890,128,0,1223:0:0:0:0:
192,192,1223,128,0,1557:0:0:0:0:
64,192,1557,128,0,1723:0:0:0:0:
448,192,1723,128,0,1890:0:0:0:0:
320,192,1890,128,0,2056:0:0:0:0:
64,192,2056,128,2,2223:0:0:0:0:
192,192,2056,1,8,0:0:0:0:
448,192,2056,1,0,0:0:0:0:
320,192,2223,128,0,2390:0:0:0:0:
64,192,2390,1,2,0:0:0:0:
192,192,2390,1,8,0:0:0:0:
448,192,2390,128,0,2723:0:0:0:0:
192,192,2556,128,0,2723:0:0:0:0:
64,192,2723,1,2,0:0:0:0:
320,192,2723,1,8,0:0:0:0:
192,192,2890,128,0,3056:0:0:0:0:
64,192,3056,1,2,0:0:0:0:
320,192,3056,128,8,3223:0:0:0:0:
448,192,3056,1,0,0:0:0:0:
64,192,3223,128,0,3390:0:0:0:0:
192,192,3390,1,2,0:0:0:0:
320,192,3390,1,8,0:0:0:0:
448,192,3390,128,0,3556:0:0:0:0:
320,192,3556,128,0,3723:0:0:0:0:
64,192,3723,128,2,4056:0:0:0:0:
192,192,3723,1,8,0:0:0:0:
448,192,3723,1,0,0:0:0:0:
320,192,3890,128,0,4056:0:0:0:0:
192,192,4056,1,2,0:0:0:0:
448,192,4056,1,8,0:0:0:0:
64,192,4223,1,0,0:0:0:0:
64,192,4390,1,8,0:0:0:0:
192,192,4390,1,2,0:0:0:0:
320,192,4390,128,0,4556:0:0:0:0:
448,192,4556,1,0,0:0:0:0:
64,192,4723,128,2,5056:0:0:0:0:
320,192,4723,1,8,0:0:0:0:
448,192,4723,1,0,0:0:0:0:
192,192,4890,1,0,0:0:0:0:
192,192,5056,1,8,0:0:0:0:
320,192,5056,1,2,0:0:0:0:
448,192,5056,128,0,5223:0:0:0:0:
320,192,5223,128,0,5390:0:0:0:0:
64,192,5390,128,2,5723:0:0:0:0:
192,192,5390,1,8,0:0:0:0:
448,192,5390,1,0,0:0:0:0:
192,192,5556,128,0,5723:0:0:0:0:
320,192,5723,1,8,0:0:0:0:
448,192,5723,128,2,5890:0:0:0:0:
64,192,5890,128,0,6056:0:0:0:0:
192,192,6056,128,8,6223:0:0:0:0:
320,192,6056,1,2,0:0:0:0:
448,192,6056,1,0,0:0:0:0:
448,192,6223,128,0,6390:0:0:0:0:
64,192,6390,128,8,6556:0:0:0:0:
192,192,6390,1,2,0:0:0:0:
320,192,6390,1,0,0:0:0:0:
320,192,6556,128,0,6723:0:0:0:0:
64,192,6723,1,8,0:0:0:0:
192,192,6723,1,2,0:0:0:0:
448,192,6723,128,0,6890:0:0:0:0:
320,192,6890,1,0,0:0:0:0:
64,192,7056,128,8,7390:0:0:0:0:
192,192,7056,1,2,0:0:0:0:
448,192,7056,1,0,0:0:0:0:
320,192,7223,1,0,0:0:0:0:
192,192,7390,1,8,0:0:0:0:
320,192,7390,1,2,0:0:0:0:
448,192,7390,128,0,7723:0:0:0:0:
64,192,7556,1,0,0:0:0:0:
64,192,7723,1,8,0:0:0:0:
192,192,7723,1,2,0:0:0:0:
320,192,7723,1,0,0:0:0:0:
320,192,7890,1,0,0:0:0:0:
64,192,8056,128,8,8223:0:0:0:0:
192,192,8056,1,2,0:0:0:0:
448,192,8056,1,0,0:0:0:0:
320,192,8223,128,0,8390:0:0:0:0:
64,192,8390,1,2,0:0:0:0:
192,192,8390,1,8,0:0:0:0:
448,192,8390,1,0,0:0:0:0:
448,192,8556,128,0,8723:0:0:0:0:
64,192,8723,1,8,0:0:0:0:
192,192,8723,1,2,0:0:0:0:
320,192,8723,1,0,0:0:0:0:
64,192,8890,1,0,0:0:0:0:
192,192,9056,1,2,0:0:0:0:
320,192,9056,1,8,0:0:0:0:
448,192,9056,1,0,0:0:0:0:
448,192,9223,1,0,0:0:0:0:
64,192,9390,128,8,9556:0:0:0:0:
192,192,9390,1,2,0:0:0:0:
320,192,9390,1,0,0:0:0:0:
320,192,9556,128,0,9723:0:0:0:0:
448,192,9556,1,0,0:0:0:0:
64,192,9723,1,2,0:0:0:0:
192,192,9723,1,8,0:0:0:0:
448,192,9723,128,0,9890:0:0:0:0:
64,192,9890,128,0,10056:0:0:0:0:
320,192,10056,1,8,0:0:0:0:
448,192,10056,1,2,0:0:0:0:
64,192,10140,1,2,0:0:0:0:
192,192,10140,1,0,0:0:0:0:
320,192,10223,1,2,0:0:0:0:
448,192,10223,1,0,0:0:0:0:
64,192,10306,1,2,0:0:0:0:
192,192,10306,1,0,0:0:0:0:
320,192,10390,1,2,0:0:0:0:
448,192,10390,1,0,0:0:0:0:
192,192,10473,1,2,0:0:0:0:
64,192,10556,1,8,0:0:0:0:
448,192,10556,1,2,0:0:0:0:
192,192,10640,1,2,0:0:0:0:
320,192,10640,1,0,0:0:0:0:
64,192,10723,1,2,0:0:0:0:
448,192,10723,1,0,0:0:0:0:
192,192,10806,1,2,0:0:0:0:
320,192,10806,1,0,0:0:0:0:
64,192,10890,1,2,0:0:0:0:
448,192,10890,1,0,0:0:0:0:
320,192,10973,1,2,0:0:0:0:
64,192,11056,1,8,0:0:0:0:
192,192,11056,1,2,0:0:0:0:
320,192,11140,1,2,0:0:0:0:
448,192,11140,1,0,0:0:0:0:
64,192,11223,1,8,0:0:0:0:
192,192,11223,1,2,0:0:0:0:
320,192,11306,1,2,0:0:0:0:
448,192,11306,1,0,0:0:0:0:
64,192,11390,128,2,11515:0:0:0:0:
192,192,11390,1,0,0:0:0:0:
320,192,11515,128,0,11598:0:0:0:0:
448,192,11598,128,0,11723:0:0:0:0:
192,192,11890,128,0,11994:0:0:0:0:
64,192,11994,128,0,12077:0:0:0:0:
448,192,12077,128,0,12223:0:0:0:0:
64,192,12223,1,2,0:0:0:0:
192,192,12223,1,0,0:0:0:0:
320,192,12306,1,2,0:0:0:0:
64,192,12390,1,0,0:0:0:50:soft-hitclap1.wav
192,192,12390,1,0,0:0:0:0:
448,192,12390,128,0,12473:0:0:0:0:
320,192,12473,128,0,12556:0:0:0:0:
192,192,12556,128,0,12723:0:0:0:0:
64,192,12723,1,2,0:0:0:0:
320,192,12723,1,4,0:0:0:0:
448,192,12723,128,0,12890:0:0:0:0:
192,192,12890,1,0,0:0:0:0:
64,192,13056,128,8,13223:0:0:0:0:
320,192,13056,1,0,0:0:0:0:
448,192,13056,1,0,0:0:0:0:
192,192,13223,1,8,0:0:0:0:
320,192,13223,1,0,0:0:0:0:
448,192,13223,128,0,13390:0:0:0:0:
64,192,13390,1,2,0:0:0:0:
192,192,13390,1,0,0:0:0:0:
320,192,13556,128,0,13723:0:0:0:0:
64,192,13723,1,8,0:0:0:0:
192,192,13723,1,0,0:0:0:0:
448,192,13723,1,0,0:0:0:0:
64,192,13890,128,0,14056:0:0:0:0:
320,192,14056,1,2,0:0:0:0:
448,192,14056,1,0,0:0:0:0:
192,192,14223,128,0,14390:0:0:0:0:
64,192,14390,1,8,0:0:0:0:
320,192,14390,1,0,0:0:0:0:
448,192,14390,1,0,0:0:0:0:
192,192,14556,128,0,14723:0:0:0:0:
320,192,14640,128,0,14806:0:0:0:0:
64,192,14723,1,2,0:0:0:0:
448,192,14723,128,0,14890:0:0:0:0:
64,192,14890,128,0,15056:0:0:0:0:
192,192,15056,1,8,0:0:0:0:
320,192,15056,128,0,15223:0:0:0:0:
448,192,15056,1,0,0:0:0:0:
192,192,15223,128,0,15390:0:0:0:0:
64,192,15390,1,2,0:0:0:0:
448,192,15390,128,0,15556:0:0:0:0:
320,192,15556,1,0,0:0:0:0:
64,192,15723,1,8,0:0:0:0:
192,192,15723,1,0,0:0:0:0:
320,192,15723,128,0,15890:0:0:0:0:
64,192,15890,128,8,16056:0:0:0:0:
192,192,15890,1,0,0:0:0:0:
448,192,15890,1,0,0:0:0:0:
320,192,16056,1,2,0:0:0:0:
448,192,16056,1,0,0:0:0:0:
192,192,16223,128,0,16390:0:0:0:0:
64,192,16390,1,8,0:0:0:0:
320,192,16390,1,0,0:0:0:0:
448,192,16390,1,0,0:0:0:0:
448,192,16556,128,0,16723:0:0:0:0:
192,192,16723,1,2,0:0:0:0:
320,192,16723,1,0,0:0:0:0:
64,192,16890,128,0,17056:0:0:0:0:
192,192,17056,1,8,0:0:0:0:
320,192,17056,1,0,0:0:0:0:
448,192,17056,1,0,0:0:0:0:
64,192,17223,1,0,0:0:0:0:
192,192,17306,1,0,0:0:0:0:
320,192,17390,1,2,0:0:0:0:
448,192,17390,128,0,17473:0:0:0:0:
448,192,17556,128,0,17640:0:0:0:0:
64,192,17723,1,8,0:0:0:0:
192,192,17723,1,0,0:0:0:0:
448,192,17723,128,0,17890:0:0:0:0:
320,192,17806,128,0,17973:0:0:0:0:
192,192,17890,128,0,18056:0:0:0:0:
64,192,17973,128,0,18056:0:0:0:0:
320,192,18056,1,2,0:0:0:0:
448,192,18056,128,0,18223:0:0:0:0:
192,192,18223,1,0,0:0:0:0:
64,192,18390,128,8,18556:0:0:0:0:
320,192,18390,1,0,0:0:0:0:
448,192,18390,1,0,0:0:0:0:
192,192,18556,1,8,0:0:0:0:
320,192,18556,128,0,18723:0:0:0:0:
448,192,18556,1,0,0:0:0:0:
64,192,18723,1,2,0:0:0:0:
192,192,18723,1,0,0:0:0:0:
448,192,18890,128,0,19056:0:0:0:0:
64,192,19056,1,8,0:0:0:0:
192,192,19056,1,0,0:0:0:0:
320,192,19056,1,0,0:0:0:0:
64,192,19223,128,0,19390:0:0:0:0:
192,192,19390,1,2,0:0:0:0:
448,192,19390,1,0,0:0:0:0:
320,192,19556,128,0,19723:0:0:0:0:
64,192,19723,1,8,0:0:0:0:
192,192,19723,1,0,0:0:0:0:
448,192,19723,1,0,0:0:0:0:
64,192,19890,128,0,20056:0:0:0:0:
320,192,19973,128,0,20140:0:0:0:0:
192,192,20056,1,2,0:0:0:0:
448,192,20056,128,0,20223:0:0:0:0:
64,192,20223,128,0,20390:0:0:0:0:
192,192,20390,1,8,0:0:0:0:
320,192,20390,1,0,0:0:0:0:
448,192,20390,128,0,20556:0:0:0:0:
192,192,20556,128,0,20723:0:0:0:0:
64,192,20723,128,2,20890:0:0:0:0:
320,192,20723,1,0,0:0:0:0:
448,192,20723,1,0,0:0:0:0:
192,192,20890,1,0,0:0:0:0:
64,192,21056,1,8,0:0:0:0:
320,192,21056,1,0,0:0:0:0:
448,192,21056,128,0,21223:0:0:0:0:
192,192,21223,128,0,21390:0:0:0:0:
320,192,21306,1,0,0:0:0:0:
64,192,21390,1,2,0:0:0:0:
448,192,21390,1,0,0:0:0:0:
320,192,21556,128,0,21723:0:0:0:0:
64,192,21723,1,8,0:0:0:0:
192,192,21723,1,0,0:0:0:0:
448,192,21723,1,0,0:0:0:0:
448,192,21890,128,0,22056:0:0:0:0:
192,192,22056,1,2,0:0:0:0:
320,192,22056,1,0,0:0:0:0:
64,192,22223,128,2,22390:0:0:0:0:
320,192,22223,1,0,0:0:0:0:
320,192,22556,1,2,0:0:0:0:
448,192,22556,1,0,0:0:0:0:
192,192,22640,1,0,0:0:0:0:
448,192,22723,128,2,22890:0:0:0:0:
64,192,22890,128,2,23056:0:0:0:0:
320,192,22890,1,0,0:0:0:0:
192,192,23056,1,8,0:0:0:0:
320,192,23056,1,0,0:0:0:0:
448,192,23056,1,0,0:0:0:0:
64,192,23140,1,0,0:0:0:0:
448,192,23223,1,0,0:0:0:0:
64,192,23306,1,0,0:0:0:0:
192,192,23390,1,2,0:0:0:0:
320,192,23390,1,0,0:0:0:0:
448,192,23390,1,0,0:0:0:0:
64,192,23556,1,0,0:0:0:0:
320,192,23723,1,8,0:0:0:0:
448,192,23723,1,0,0:0:0:0:
64,192,23890,1,2,0:0:0:0:
192,192,23890,1,0,0:0:0:0:
448,192,24056,1,0,0:0:0:0:
64,192,24223,1,2,0:0:0:0:
320,192,24223,1,0,0:0:0:0:
192,192,24390,1,8,0:0:0:0:
320,192,24390,1,0,0:0:0:0:
448,192,24390,1,0,0:0:0:0:
64,192,24556,1,0,0:0:0:0:
320,192,24723,1,2,0:0:0:0:
448,192,24723,1,0,0:0:0:0:
448,192,24890,1,0,0:0:0:0:
64,192,25056,1,8,0:0:0:0:
192,192,25056,1,0,0:0:0:0:
320,192,25223,1,2,0:0:0:0:
192,192,25390,1,0,0:0:0:0:
64,192,25556,1,2,0:0:0:0:
448,192,25556,1,0,0:0:0:0:
192,192,25723,1,8,0:0:0:0:
320,192,25723,1,0,0:0:0:0:
448,192,25723,1,0,0:0:0:0:
64,192,25890,1,0,0:0:0:0:
192,192,26056,1,2,0:0:0:0:
448,192,26056,1,0,0:0:0:0:
320,192,26223,1,0,0:0:0:0:
64,192,26390,1,8,0:0:0:0:
192,192,26390,1,0,0:0:0:0:
320,192,26556,1,2,0:0:0:0:
448,192,26556,1,0,0:0:0:0:
64,192,26723,1,0,0:0:0:0:
192,192,26890,1,2,0:0:0:0:
320,192,26890,1,0,0:0:0:0:
64,192,27056,1,8,0:0:0:0:
192,192,27056,1,0,0:0:0:0:
448,192,27056,1,0,0:0:0:0:
320,192,27223,1,0,0:0:0:0:
64,192,27390,1,2,0:0:0:0:
448,192,27390,1,0,0:0:0:0:
448,192,27556,1,0,0:0:0:0:
64,192,27723,1,8,0:0:0:0:
192,192,27723,1,0,0:0:0:0:
320,192,27890,1,2,0:0:0:0:
64,192,28056,1,0,0:0:0:0:
192,192,28223,1,2,0:0:0:0:
320,192,28223,1,0,0:0:0:0:
64,192,28390,1,8,0:0:0:0:
192,192,28390,1,0,0:0:0:0:
448,192,28390,1,0,0:0:0:0:
320,192,28556,1,0,0:0:0:0:
64,192,28723,1,2,0:0:0:0:
448,192,28723,1,0,0:0:0:0:
192,192,28890,1,0,0:0:0:0:
320,192,29056,1,8,0:0:0:0:
448,192,29056,1,0,0:0:0:0:
64,192,29223,1,2,0:0:0:0:
192,192,29223,1,0,0:0:0:0:
320,192,29390,1,0,0:0:0:0:
192,192,29556,1,2,0:0:0:0:
448,192,29556,1,0,0:0:0:0:
64,192,29723,1,8,0:0:0:0:
320,192,29723,1,0,0:0:0:0:
448,192,29723,1,0,0:0:0:0:
192,192,29890,1,0,0:0:0:0:
64,192,30056,1,2,0:0:0:0:
448,192,30056,1,0,0:0:0:0:
320,192,30223,1,0,0:0:0:0:
64,192,30390,1,8,0:0:0:0:
192,192,30390,1,0,0:0:0:0:
320,192,30556,1,2,0:0:0:0:
192,192,30723,1,0,0:0:0:0:
64,192,30890,1,2,0:0:0:0:
448,192,30890,1,0,0:0:0:0:
192,192,31056,1,8,0:0:0:0:
320,192,31056,1,0,0:0:0:0:
448,192,31056,1,0,0:0:0:0:
64,192,31223,1,0,0:0:0:0:
320,192,31390,1,2,0:0:0:0:
448,192,31390,1,0,0:0:0:0:
192,192,31556,1,0,0:0:0:0:
64,192,31723,1,8,0:0:0:0:
448,192,31723,1,0,0:0:0:0:
192,192,31890,1,2,0:0:0:0:
320,192,31890,1,0,0:0:0:0:
64,192,32056,1,0,0:0:0:0:
320,192,32223,1,2,0:0:0:0:
448,192,32223,1,0,0:0:0:0:
64,192,32390,1,8,0:0:0:0:
192,192,32390,1,0,0:0:0:0:
448,192,32390,1,0,0:0:0:0:
320,192,32556,1,0,0:0:0:0:
64,192,32723,1,2,0:0:0:0:
448,192,32723,1,0,0:0:0:0:
192,192,32890,1,0,0:0:0:0:
320,192,32931,1,0,0:0:0:0:
64,192,33015,1,0,0:0:0:0:
448,192,33056,1,8,0:0:0:0:
320,192,33098,1,0,0:0:0:0:
192,192,33140,1,0,0:0:0:0:
64,192,33181,1,0,0:0:0:0:
448,192,33223,1,2,0:0:0:0:
320,192,33265,1,0,0:0:0:0:
192,192,33306,1,0,0:0:0:0:
64,192,33348,1,0,0:0:0:0:
448,192,33390,1,0,0:0:0:0:
320,192,33431,1,0,0:0:0:0:
192,192,33473,1,0,0:0:0:0:
64,192,33515,1,0,0:0:0:0:
448,192,33556,1,2,0:0:0:0:
320,192,33598,1,0,0:0:0:0:
192,192,33640,1,0,0:0:0:0:
64,192,33681,1,0,0:0:0:0:
320,192,33723,1,0,0:0:0:50:soft-hitclap1.wav
448,192,33723,1,0,0:0:0:0:
192,192,33890,1,0,0:0:0:0:
320,192,33973,1,0,0:0:0:0:
64,192,34056,1,2,0:0:0:0:
192,192,34056,1,4,0:0:0:0:
448,192,34056,1,0,0:0:0:0:
320,192,34223,1,0,0:0:0:0:
64,192,34390,1,8,0:0:0:0:
448,192,34390,1,0,0:0:0:0:
192,192,34556,1,2,0:0:0:0:
320,192,34556,1,0,0:0:0:0:
64,192,34723,1,0,0:0:0:0:
192,192,34890,1,2,0:0:0:0:
448,192,34890,1,0,0:0:0:0:
320,192,34973,1,0,0:0:0:0:
64,192,35056,1,8,0:0:0:0:
192,192,35056,1,0,0:0:0:0:
448,192,35056,1,0,0:0:0:0:
320,192,35223,1,0,0:0:0:0:
64,192,35390,1,2,0:0:0:0:
448,192,35390,1,0,0:0:0:0:
192,192,35556,1,0,0:0:0:0:
320,192,35723,1,8,0:0:0:0:
448,192,35723,1,0,0:0:0:0:
64,192,35890,1,2,0:0:0:0:
192,192,35973,1,0,0:0:0:0:
448,192,36056,128,0,36140:0:0:0:0:
64,192,36223,1,2,0:0:0:0:
192,192,36223,1,0,0:0:0:0:
320,192,36306,1,0,0:0:0:0:
64,192,36390,1,8,0:0:0:0:
192,192,36390,128,0,36473:0:0:0:0:
448,192,36390,1,0,0:0:0:0:
320,192,36556,1,0,0:0:0:0:
64,192,36723,128,2,36806:0:0:0:0:
448,192,36723,1,0,0:0:0:0:
192,192,36890,1,0,0:0:0:0:
320,192,37056,1,8,0:0:0:0:
448,192,37056,1,0,0:0:0:0:
64,192,37223,1,2,0:0:0:0:
192,192,37223,1,0,0:0:0:0:
320,192,37390,1,0,0:0:0:0:
64,192,37556,1,2,0:0:0:0:
448,192,37556,1,0,0:0:0:0:
192,192,37640,1,0,0:0:0:0:
64,192,37723,1,8,0:0:0:0:
320,192,37723,1,0,0:0:0:0:
448,192,37723,1,0,0:0:0:0:
192,192,37890,1,0,0:0:0:0:
320,192,38056,1,2,0:0:0:0:
448,192,38056,1,0,0:0:0:0:
64,192,38223,1,0,0:0:0:0:
192,192,38390,1,8,0:0:0:0:
448,192,38390,128,0,38473:0:0:0:0:
320,192,38556,128,2,38640:0:0:0:0:
448,192,38640,1,0,0:0:0:0:
64,192,38723,128,0,39056:0:0:0:0:
192,192,38723,128,0,38806:0:0:0:0:
320,192,38890,128,2,38973:0:0:0:0:
448,192,38890,1,0,0:0:0:0:
192,192,39056,128,8,39140:0:0:0:0:
320,192,39056,1,0,0:0:0:0:
448,192,39056,128,0,39390:0:0:0:0:
64,192,39223,128,0,39306:0:0:0:0:
192,192,39390,1,2,0:0:0:0:
320,192,39390,1,0,0:0:0:0:
448,192,39556,1,0,0:0:0:0:
64,192,39723,1,8,0:0:0:0:
192,192,39723,1,0,0:0:0:0:
320,192,39890,1,2,0:0:0:0:
448,192,39890,1,0,0:0:0:0:
192,192,39973,1,0,0:0:0:0:
64,192,40056,128,0,40390:0:0:0:0:
320,192,40223,1,2,0:0:0:0:
448,192,40223,1,0,0:0:0:0:
192,192,40306,1,0,0:0:0:0:
320,192,40390,1,8,0:0:0:0:
448,192,40390,128,0,40723:0:0:0:0:
192,192,40556,1,0,0:0:0:0:
64,192,40723,1,2,0:0:0:0:
320,192,40723,1,0,0:0:0:0:
448,192,40890,1,0,0:0:0:0:
64,192,41056,1,8,0:0:0:0:
192,192,41056,1,0,0:0:0:0:
320,192,41223,1,2,0:0:0:0:
64,192,41306,1,0,0:0:0:0:
192,192,41390,1,0,0:0:0:0:
448,192,41390,128,0,41723:0:0:0:0:
64,192,41556,1,2,0:0:0:0:
320,192,41556,1,0,0:0:0:0:
192,192,41640,1,0,0:0:0:0:
64,192,41723,128,8,42056:0:0:0:0:
320,192,41723,1,0,0:0:0:0:
192,192,41890,1,0,0:0:0:0:
192,192,42056,1,2,0:0:0:0:
320,192,42056,1,4,0:0:0:0:
448,192,42056,1,0,0:0:0:0:
64,192,42223,128,0,42390:0:0:0:0:
448,192,42390,128,0,42556:0:0:0:0:
64,192,42556,1,2,0:0:0:0:
192,192,42556,128,4,42723:0:0:0:0:
320,192,42556,1,0,0:0:0:0:
448,192,42723,128,0,42890:0:0:0:0:
64,192,42890,1,2,0:0:0:0:
192,192,42890,1,0,0:0:0:0:
320,192,42973,1,0,0:0:0:0:
64,192,43056,128,8,43223:0:0:0:0:
448,192,43056,1,0,0:0:0:0:
320,192,43223,1,4,0:0:0:0:
448,192,43223,128,0,44056:0:0:0:0:
64,192,43390,1,2,0:0:0:0:
192,192,43390,1,0,0:0:0:0:
320,192,43556,128,0,43640:0:0:0:0:
64,192,43723,1,8,0:0:0:0:
192,192,43723,128,0,43806:0:0:0:0:
64,192,43890,128,2,43973:0:0:0:0:
320,192,43890,1,0,0:0:0:0:
192,192,43973,128,0,44056:0:0:0:0:
64,192,44056,128,0,44140:0:0:0:0:
320,192,44223,128,2,44306:0:0:0:0:
448,192,44223,1,0,0:0:0:0:
192,192,44306,128,0,44390:0:0:0:0:
64,192,44390,1,8,0:0:0:0:
448,192,44390,128,0,44473:0:0:0:0:
320,192,44556,128,0,44640:0:0:0:0:
64,192,44723,128,4,45390:0:0:0:0:
192,192,44723,1,2,0:0:0:0:
448,192,44723,1,0,0:0:0:0:
320,192,44890,1,0,0:0:0:0:
192,192,45056,1,0,0:0:0:0:
320,192,45223,1,2,0:0:0:0:
448,192,45223,1,0,0:0:0:0:
192,192,45390,1,8,0:0:0:0:
448,192,45390,1,2,0:0:0:0:
320,192,45556,1,0,0:0:0:0:
192,192,45723,1,0,0:0:0:0:
64,192,45890,1,2,0:0:0:0:
320,192,45890,1,0,0:0:0:0:
192,192,46056,1,2,0:0:0:0:
448,192,46056,1,0,0:0:0:0:
320,192,46223,1,2,0:0:0:0:
448,192,46223,1,0,0:0:0:0:
64,192,46390,1,0,0:0:0:0:
320,192,46556,1,2,0:0:0:0:
448,192,46556,1,0,0:0:0:0:
64,192,46723,1,8,0:0:0:0:
192,192,46723,1,0,0:0:0:0:
320,192,46890,1,0,0:0:0:0:
192,192,47056,1,0,0:0:0:0:
64,192,47223,1,0,0:0:0:0:
320,192,47390,1,2,0:0:0:0:
448,192,47390,128,0,48056:0:0:0:0:
192,192,47556,1,0,0:0:0:0:
64,192,47723,1,0,0:0:0:0:
192,192,47890,1,2,0:0:0:0:
320,192,47890,1,0,0:0:0:0:
64,192,48056,1,8,0:0:0:0:
320,192,48056,1,2,0:0:0:0:
192,192,48223,1,0,0:0:0:0:
448,192,48223,1,0,0:0:0:0:
320,192,48390,1,2,0:0:0:0:
448,192,48390,1,0,0:0:0:0:
64,192,48556,1,2,0:0:0:0:
192,192,48556,1,0,0:0:0:0:
64,192,48723,1,2,0:0:0:0:
320,192,48723,1,0,0:0:0:0:
448,192,48723,128,0,49806:0:0:0:0:
64,192,49390,128,0,49973:0:0:0:0:
192,192,49556,128,0,49973:0:0:0:0:
320,192,49723,128,0,49973:0:0:0:0:
448,192,49890,128,0,49973:0:0:0:0:
64,192,50056,1,2,0:0:0:0:
192,192,50056,1,4,0:0:0:0:
448,192,50056,1,0,0:0:0:0:
64,192,50223,1,2,0:0:0:0:
192,192,50223,1,4,0:0:0:0:
448,192,50223,1,0,0:0:0:0:
64,192,50390,1,8,0:0:0:0:
320,192,50390,1,0,0:0:0:0:
64,192,50723,1,8,0:0:0:0:
320,192,50723,1,0,0:0:0:0:
64,192,51056,1,8,0:0:0:0:
320,192,51056,1,0,0:0:0:0:
192,192,51390,1,2,0:0:0:0:
320,192,51390,1,0,0:0:0:0:
448,192,51390,1,0,0:0:0:0:
192,192,51556,1,2,0:0:0:0:
320,192,51556,1,0,0:0:0:0:
448,192,51556,1,0,0:0:0:0:
64,192,51723,1,8,0:0:0:0:
448,192,51723,1,0,0:0:0:0:
64,192,52056,1,8,0:0:0:0:
448,192,52056,1,0,0:0:0:0:
64,192,52223,1,2,0:0:0:0:
192,192,52223,1,0,0:0:0:0:
320,192,52390,1,8,0:0:0:0:
448,192,52390,1,0,0:0:0:0:
64,192,52473,1,2,0:0:0:0:
192,192,52473,1,0,0:0:0:0:
320,192,52556,1,2,0:0:0:0:
448,192,52556,1,0,0:0:0:0:
192,192,52640,1,2,0:0:0:0:
64,192,52723,1,8,0:0:0:0:
320,192,52723,1,2,0:0:0:0:
448,192,52723,1,0,0:0:0:0:
192,192,52890,1,0,0:0:0:0:
320,192,52890,1,0,0:0:0:0:
64,192,53056,1,8,0:0:0:0:
192,192,53056,1,2,0:0:0:0:
448,192,53056,1,0,0:0:0:0:
64,192,53223,1,0,0:0:0:0:
320,192,53223,1,0,0:0:0:0:
192,192,53390,1,8,0:0:0:0:
320,192,53390,1,2,0:0:0:0:
448,192,53390,1,0,0:0:0:0:
64,192,53556,1,0,0:0:0:0:
448,192,53556,1,0,0:0:0:0:
64,192,53723,1,2,0:0:0:0:
192,192,53723,1,8,0:0:0:0:
320,192,53723,1,0,0:0:0:0:
192,192,53890,1,0,0:0:0:0:
448,192,53890,1,0,0:0:0:0:
320,192,54056,1,8,0:0:0:0:
448,192,54056,1,2,0:0:0:0:
192,192,54140,1,2,0:0:0:0:
64,192,54223,1,2,0:0:0:0:
448,192,54223,1,0,0:0:0:0:
320,192,54306,1,2,0:0:0:0:
64,192,54390,1,2,0:0:0:0:
192,192,54390,1,8,0:0:0:0:
320,192,54473,1,2,0:0:0:0:
64,192,54556,1,2,0:0:0:0:
448,192,54556,1,0,0:0:0:0:
192,192,54640,1,2,0:0:0:0:
320,192,54723,1,2,0:0:0:0:
448,192,54723,1,8,0:0:0:0:
64,192,54806,1,2,0:0:0:0:
192,192,54806,1,0,0:0:0:0:
320,192,54890,1,2,0:0:0:0:
448,192,54890,1,0,0:0:0:0:
64,192,54973,1,2,0:0:0:0:
192,192,54973,1,0,0:0:0:0:
320,192,55056,1,8,0:0:0:0:
448,192,55056,1,2,0:0:0:0:
64,192,55140,1,2,0:0:0:0:
192,192,55140,1,0,0:0:0:0:
320,192,55223,1,2,0:0:0:0:
448,192,55223,1,0,0:0:0:0:
192,192,55306,1,2,0:0:0:0:
64,192,55390,1,2,0:0:0:0:
320,192,55390,1,4,0:0:0:0:
448,192,55390,128,0,55556:0:0:0:0:
192,192,55556,128,0,55723:0:0:0:0:
64,192,55890,128,0,56056:0:0:0:0:
320,192,56223,128,0,56306:0:0:0:0:
64,192,56390,1,0,0:0:0:50:soft-hitclap1.wav
192,192,56390,128,0,56473:0:0:0:0:
448,192,56390,1,0,0:0:0:0:
320,192,56556,128,0,56640:0:0:0:0:
64,192,56723,1,2,0:0:0:0:
192,192,56723,1,4,0:0:0:0:
448,192,56723,128,0,56890:0:0:0:0:
64,192,56890,128,0,57056:0:0:0:0:
192,192,57056,1,8,0:0:0:0:
320,192,57056,1,0,0:0:0:0:
448,192,57056,128,0,57223:0:0:0:0:
64,192,57223,128,0,57306:0:0:0:0:
192,192,57390,1,2,0:0:0:0:
320,192,57390,128,0,57473:0:0:0:0:
64,192,57556,128,0,57640:0:0:0:0:
448,192,57556,128,0,57723:0:0:0:0:
64,192,57723,128,8,57890:0:0:0:0:
192,192,57723,128,0,57806:0:0:0:0:
320,192,57723,1,0,0:0:0:0:
320,192,57890,128,0,58056:0:0:0:0:
192,192,58056,128,2,58223:0:0:0:0:
448,192,58056,1,0,0:0:0:0:
448,192,58223,128,0,58390:0:0:0:0:
64,192,58390,128,8,58556:0:0:0:0:
192,192,58390,1,0,0:0:0:0:
320,192,58390,1,0,0:0:0:0:
320,192,58556,128,0,58640:0:0:0:0:
64,192,58640,1,8,0:0:0:0:
192,192,58640,1,0,0:0:0:0:
320,192,58723,1,2,0:0:0:0:
448,192,58723,128,0,58806:0:0:0:0:
192,192,58890,128,0,58973:0:0:0:0:
64,192,59056,128,8,59223:0:0:0:0:
320,192,59056,1,0,0:0:0:0:
448,192,59056,128,0,59140:0:0:0:0:
192,192,59223,1,0,0:0:0:0:
320,192,59390,1,2,0:0:0:0:
448,192,59390,128,0,59723:0:0:0:0:
192,192,59556,1,0,0:0:0:0:
64,192,59723,128,8,59890:0:0:0:0:
320,192,59723,1,0,0:0:0:0:
320,192,59890,128,0,59973:0:0:0:0:
448,192,59890,128,0,60056:0:0:0:0:
64,192,60056,128,2,60140:0:0:0:0:
192,192,60056,128,0,60390:0:0:0:0:
320,192,60223,128,0,60390:0:0:0:0:
448,192,60223,128,0,60306:0:0:0:0:
64,192,60390,128,8,60473:0:0:0:0:
448,192,60390,128,0,60556:0:0:0:0:
64,192,60556,128,0,60723:0:0:0:0:
320,192,60723,128,2,60890:0:0:0:0:
448,192,60723,1,0,0:0:0:0:
192,192,60890,128,0,61056:0:0:0:0:
64,192,61056,128,8,61223:0:0:0:0:
320,192,61056,1,0,0:0:0:0:
448,192,61056,1,0,0:0:0:0:
320,192,61223,128,0,61390:0:0:0:0:
192,192,61306,1,8,0:0:0:0:
64,192,61390,1,2,0:0:0:0:
448,192,61390,128,0,61556:0:0:0:0:
320,192,61556,1,0,0:0:0:0:
64,192,61723,128,8,62056:0:0:0:0:
192,192,61723,128,0,61806:0:0:0:0:
448,192,61723,1,0,0:0:0:0:
320,192,61890,128,0,61973:0:0:0:0:
192,192,62056,128,2,62140:0:0:0:0:
320,192,62056,1,4,0:0:0:0:
448,192,62056,128,0,62390:0:0:0:0:
64,192,62223,1,0,0:0:0:0:
64,192,62390,1,8,0:0:0:0:
192,192,62390,1,0,0:0:0:0:
320,192,62390,1,0,0:0:0:0:
448,192,62556,1,0,0:0:0:0:
64,192,62723,1,2,0:0:0:0:
192,192,62723,128,0,62890:0:0:0:0:
320,192,62890,128,0,63056:0:0:0:0:
64,192,63056,1,8,0:0:0:0:
192,192,63056,1,0,0:0:0:0:
448,192,63056,1,0,0:0:0:0:
448,192,63223,128,0,63390:0:0:0:0:
64,192,63390,1,2,0:0:0:0:
192,192,63390,1,0,0:0:0:0:
320,192,63556,1,0,0:0:0:0:
64,192,63723,128,8,63806:0:0:0:0:
192,192,63723,1,0,0:0:0:0:
448,192,63723,1,0,0:0:0:0:
320,192,63890,128,0,63973:0:0:0:0:
64,192,63973,1,8,0:0:0:0:
192,192,63973,1,0,0:0:0:0:
320,192,64056,128,2,64140:0:0:0:0:
448,192,64056,128,0,64223:0:0:0:0:
64,192,64223,128,0,64390:0:0:0:0:
192,192,64390,1,8,0:0:0:0:
320,192,64390,128,0,64556:0:0:0:0:
448,192,64390,128,0,64473:0:0:0:0:
192,192,64556,128,0,64723:0:0:0:0:
64,192,64723,1,2,0:0:0:0:
320,192,64723,1,0,0:0:0:0:
448,192,64723,128,0,65556:0:0:0:0:
192,192,64890,1,0,0:0:0:0:
64,192,65056,1,8,0:0:0:0:
192,192,65056,1,0,0:0:0:0:
320,192,65056,1,0,0:0:0:0:
320,192,65223,1,0,0:0:0:0:
64,192,65306,1,0,0:0:0:0:
192,192,65390,128,2,65473:0:0:0:0:
320,192,65390,1,0,0:0:0:0:
64,192,65556,128,0,65640:0:0:0:0:
320,192,65640,1,0,0:0:0:0:
64,192,65723,1,8,0:0:0:0:
192,192,65723,1,0,0:0:0:0:
448,192,65723,128,0,65806:0:0:0:0:
192,192,65890,1,2,0:0:0:0:
320,192,65890,1,0,0:0:0:0:
64,192,66056,128,8,66140:0:0:0:0:
320,192,66056,128,0,66140:0:0:0:0:
448,192,66056,128,0,66140:0:0:0:0:
64,192,66223,128,8,66390:0:0:0:0:
192,192,66223,128,0,66390:0:0:0:0:
448,192,66223,128,0,66390:0:0:0:0:
192,192,66556,128,8,66723:0:0:0:0:
320,192,66556,128,0,66723:0:0:0:0:
448,192,66556,128,0,66723:0:0:0:0:
64,192,66890,128,8,66973:0:0:0:0:
320,192,66890,128,0,66973:0:0:0:0:
448,192,66890,128,0,66973:0:0:0:0:
64,192,67056,128,8,67140:0:0:0:0:
192,192,67056,128,2,67140:0:0:0:0:
448,192,67056,128,0,67140:0:0:0:0:
192,192,67223,128,8,67306:0:0:0:0:
320,192,67223,128,0,67306:0:0:0:0:
64,192,67390,1,4,0:0:0:0:
192,192,67390,1,2,0:0:0:0:
448,192,67390,128,0,67556:0:0:0:0:
64,192,67556,128,0,67723:0:0:0:0:
192,192,67723,1,8,0:0:0:0:
320,192,67723,1,0,0:0:0:0:
448,192,67723,128,0,67890:0:0:0:0:
64,192,67890,128,0,67973:0:0:0:0:
192,192,68056,1,2,0:0:0:0:
320,192,68056,128,0,68140:0:0:0:0:
64,192,68223,128,0,68306:0:0:0:0:
448,192,68223,128,0,68390:0:0:0:0:
64,192,68390,128,8,68556:0:0:0:0:
192,192,68390,128,0,68473:0:0:0:0:
320,192,68390,1,0,0:0:0:0:
320,192,68556,128,0,68723:0:0:0:0:
192,192,68723,128,2,68890:0:0:0:0:
448,192,68723,1,0,0:0:0:0:
448,192,68890,128,0,69056:0:0:0:0:
64,192,69056,128,8,69223:0:0:0:0:
192,192,69056,1,0,0:0:0:0:
320,192,69056,1,0,0:0:0:0:
320,192,69223,128,0,69306:0:0:0:0:
64,192,69306,1,8,0:0:0:0:
192,192,69306,1,0,0:0:0:0:
320,192,69390,1,2,0:0:0:0:
448,192,69390,128,0,69473:0:0:0:0:
192,192,69556,128,0,69640:0:0:0:0:
64,192,69723,128,8,69890:0:0:0:0:
320,192,69723,1,0,0:0:0:0:
448,192,69723,128,0,69806:0:0:0:0:
192,192,69890,1,0,0:0:0:0:
320,192,70056,1,2,0:0:0:0:
448,192,70056,128,0,70723:0:0:0:0:
64,192,70223,1,0,0:0:0:0:
64,192,70390,1,8,0:0:0:0:
192,192,70390,1,0,0:0:0:0:
320,192,70390,1,0,0:0:0:0:
320,192,70556,128,0,70640:0:0:0:0:
64,192,70723,128,2,70806:0:0:0:0:
192,192,70723,1,0,0:0:0:0:
320,192,70890,128,0,70973:0:0:0:0:
448,192,70890,128,0,71056:0:0:0:0:
64,192,71056,128,8,71140:0:0:0:0:
192,192,71056,1,0,0:0:0:0:
320,192,71056,128,0,71223:0:0:0:0:
192,192,71223,128,0,71390:0:0:0:0:
64,192,71390,128,2,71723:0:0:0:0:
448,192,71390,1,0,0:0:0:0:
320,192,71556,1,0,0:0:0:0:
192,192,71723,1,8,0:0:0:0:
320,192,71723,128,0,72056:0:0:0:0:
448,192,71723,1,0,0:0:0:0:
64,192,71890,1,0,0:0:0:0:
192,192,71973,1,8,0:0:0:0:
64,192,72056,1,2,0:0:0:0:
448,192,72056,128,0,72390:0:0:0:0:
320,192,72223,1,0,0:0:0:0:
64,192,72390,128,8,72723:0:0:0:0:
192,192,72390,1,0,0:0:0:0:
320,192,72390,1,0,0:0:0:0:
448,192,72556,1,0,0:0:0:0:
192,192,72723,1,2,0:0:0:0:
320,192,72723,1,4,0:0:0:0:
448,192,72723,128,0,73056:0:0:0:0:
64,192,72890,1,0,0:0:0:0:
64,192,73056,1,8,0:0:0:0:
192,192,73056,1,0,0:0:0:0:
320,192,73056,1,0,0:0:0:0:
448,192,73223,128,0,73306:0:0:0:0:
192,192,73306,1,0,0:0:0:0:
64,192,73390,128,2,73473:0:0:0:0:
320,192,73390,128,0,73473:0:0:0:0:
192,192,73556,128,0,73640:0:0:0:0:
448,192,73556,128,0,73640:0:0:0:0:
64,192,73723,1,8,0:0:0:0:
320,192,73723,128,0,73806:0:0:0:0:
448,192,73723,128,0,73806:0:0:0:0:
64,192,73890,128,0,73973:0:0:0:0:
192,192,73890,128,0,73973:0:0:0:0:
320,192,74056,1,2,0:0:0:0:
448,192,74056,1,0,0:0:0:0:
64,192,74223,1,0,0:0:0:0:
192,192,74390,1,8,0:0:0:0:
320,192,74390,1,0,0:0:0:0:
448,192,74390,1,0,0:0:0:0:
64,192,74556,128,0,74640:0:0:0:0:
320,192,74640,1,8,0:0:0:0:
448,192,74640,1,0,0:0:0:0:
64,192,74723,128,2,74806:0:0:0:0:
192,192,74723,128,0,74806:0:0:0:0:
192,192,74890,128,0,74973:0:0:0:0:
320,192,74890,128,0,74973:0:0:0:0:
64,192,75056,1,8,0:0:0:0:
320,192,75056,128,0,75140:0:0:0:0:
448,192,75056,128,0,75140:0:0:0:0:
192,192,75223,128,0,75306:0:0:0:0:
64,192,75390,128,2,75723:0:0:0:0:
448,192,75390,128,0,76056:0:0:0:0:
320,192,75556,1,0,0:0:0:0:
192,192,75723,1,8,0:0:0:0:
320,192,75723,1,0,0:0:0:0:
192,192,75890,1,0,0:0:0:0:
64,192,76056,128,2,76723:0:0:0:0:
320,192,76056,128,0,76390:0:0:0:0:
192,192,76223,1,0,0:0:0:0:
192,192,76390,1,8,0:0:0:0:
448,192,76390,1,0,0:0:0:0:
320,192,76556,1,2,0:0:0:0:
192,192,76723,128,8,76806:0:0:0:0:
320,192,76723,128,0,76806:0:0:0:0:
448,192,76723,128,0,76806:0:0:0:0:
64,192,76890,128,8,77056:0:0:0:0:
192,192,76890,128,0,77056:0:0:0:0:
448,192,76890,128,0,77056:0:0:0:0:
64,192,77223,128,8,77390:0:0:0:0:
320,192,77223,128,0,77390:0:0:0:0:
448,192,77223,128,0,77390:0:0:0:0:
64,192,77556,128,8,77640:0:0:0:0:
192,192,77556,128,0,77640:0:0:0:0:
448,192,77556,128,0,77640:0:0:0:0:
64,192,77723,128,8,77806:0:0:0:0:
320,192,77723,128,2,77806:0:0:0:0:
448,192,77723,128,0,77806:0:0:0:0:
192,192,77890,128,8,77973:0:0:0:0:
320,192,77890,128,0,77973:0:0:0:0:
64,192,78056,128,2,78223:0:0:0:0:
192,192,78056,1,4,0:0:0:0:
448,192,78056,1,0,0:0:0:0:
320,192,78223,1,0,0:0:0:0:
64,192,78390,1,8,0:0:0:0:
192,192,78390,1,0,0:0:0:0:
448,192,78390,128,0,78556:0:0:0:0:
192,192,78556,128,2,78723:0:0:0:0:
320,192,78556,1,0,0:0:0:0:
448,192,78723,128,0,78806:0:0:0:0:
64,192,78890,128,2,79056:0:0:0:0:
192,192,78890,128,0,78973:0:0:0:0:
192,192,79056,1,8,0:0:0:0:
320,192,79056,1,0,0:0:0:0:
448,192,79056,1,0,0:0:0:0:
448,192,79223,128,0,79390:0:0:0:0:
64,192,79306,1,0,0:0:0:0:
192,192,79390,1,2,0:0:0:0:
320,192,79390,1,0,0:0:0:0:
320,192,79556,128,0,79723:0:0:0:0:
64,192,79723,128,8,79890:0:0:0:0:
192,192,79723,1,0,0:0:0:0:
448,192,79723,1,0,0:0:0:0:
320,192,79890,128,2,79973:0:0:0:0:
448,192,79890,128,0,80056:0:0:0:0:
192,192,80056,128,0,80223:0:0:0:0:
64,192,80223,1,2,0:0:0:0:
320,192,80223,128,0,80306:0:0:0:0:
64,192,80390,1,8,0:0:0:0:
192,192,80390,1,0,0:0:0:0:
448,192,80390,1,0,0:0:0:0:
320,192,80556,1,0,0:0:0:0:
192,192,80640,1,0,0:0:0:0:
64,192,80723,1,2,0:0:0:0:
448,192,80723,128,0,80890:0:0:0:0:
320,192,80890,1,0,0:0:0:0:
64,192,81056,128,8,81223:0:0:0:0:
192,192,81056,1,0,0:0:0:0:
448,192,81056,1,0,0:0:0:0:
320,192,81223,1,2,0:0:0:0:
448,192,81223,128,0,81390:0:0:0:0:
192,192,81390,128,0,81473:0:0:0:0:
64,192,81556,128,2,81723:0:0:0:0:
320,192,81556,128,0,81640:0:0:0:0:
192,192,81723,1,8,0:0:0:0:
320,192,81723,1,0,0:0:0:0:
448,192,81723,128,0,81806:0:0:0:0:
64,192,81890,128,0,82056:0:0:0:0:
192,192,81973,1,0,0:0:0:0:
320,192,82056,128,2,82140:0:0:0:0:
448,192,82056,128,0,82223:0:0:0:0:
64,192,82223,128,2,82306:0:0:0:0:
192,192,82223,128,0,82390:0:0:0:0:
64,192,82390,1,8,0:0:0:0:
320,192,82390,128,0,82473:0:0:0:0:
448,192,82390,128,0,82556:0:0:0:0:
64,192,82556,128,8,82723:0:0:0:0:
192,192,82556,1,0,0:0:0:0:
320,192,82556,128,0,82640:0:0:0:0:
192,192,82723,128,2,82806:0:0:0:0:
448,192,82723,128,0,82890:0:0:0:0:
320,192,82806,1,2,0:0:0:0:
64,192,82890,1,2,0:0:0:0:
192,192,82890,128,0,82973:0:0:0:0:
320,192,82973,1,2,0:0:0:0:
64,192,83056,128,2,83223:0:0:0:0:
192,192,83056,1,8,0:0:0:0:
448,192,83056,128,0,83140:0:0:0:0:
320,192,83140,1,0,0:0:0:0:
192,192,83223,1,0,0:0:0:0:
448,192,83223,128,0,83306:0:0:0:0:
320,192,83306,1,0,0:0:0:0:
64,192,83390,128,0,83556:0:0:0:0:
192,192,83390,128,0,83556:0:0:0:0:
64,192,83723,128,2,83890:0:0:0:0:
320,192,83723,128,8,83890:0:0:0:0:
448,192,83723,128,0,83890:0:0:0:0:
192,192,83890,1,0,0:0:0:0:
64,192,84056,128,0,84223:0:0:0:0:
448,192,84056,128,0,84223:0:0:0:0:
192,192,84390,128,8,84556:0:0:0:0:
320,192,84390,128,2,84556:0:0:0:0:
448,192,84390,128,0,84556:0:0:0:0:
64,192,84556,1,0,0:0:0:0:
192,192,84723,128,0,84890:0:0:0:0:
448,192,84723,128,0,84890:0:0:0:0:
64,192,85056,128,8,85223:0:0:0:0:
192,192,85056,128,2,85223:0:0:0:0:
320,192,85056,128,0,85223:0:0:0:0:
320,192,85390,128,0,85556:0:0:0:0:
448,192,85390,128,0,85556:0:0:0:0:
64,192,85556,1,2,0:0:0:0:
192,192,85556,1,0,0:0:0:0:
320,192,85640,128,2,85806:0:0:0:0:
448,192,85640,128,0,85806:0:0:0:0:
64,192,85723,1,8,0:0:0:0:
192,192,85723,1,2,0:0:0:0:
64,192,85890,128,0,86056:0:0:0:0:
320,192,85973,1,0,0:0:0:0:
192,192,86056,1,8,0:0:0:0:
448,192,86056,128,0,86390:0:0:0:0:
192,192,86223,1,8,0:0:0:0:
320,192,86223,1,0,0:0:0:0:
64,192,86390,1,8,0:0:0:0:
320,192,86390,1,0,0:0:0:0:
192,192,86556,128,8,86723:0:0:0:0:
448,192,86556,1,0,0:0:0:0:
64,192,86723,128,8,87056:0:0:0:0:
320,192,86723,1,0,0:0:0:0:
192,192,86890,1,8,0:0:0:0:
448,192,86890,1,0,0:0:0:0:
320,192,87056,1,8,0:0:0:0:
448,192,87056,1,2,0:0:0:0:
64,192,87140,1,2,0:0:0:0:
192,192,87140,1,0,0:0:0:0:
320,192,87223,1,2,0:0:0:0:
448,192,87223,1,0,0:0:0:0:
64,192,87306,1,2,0:0:0:0:
192,192,87306,1,0,0:0:0:0:
320,192,87390,128,2,87556:0:0:0:0:
448,192,87390,128,0,87556:0:0:0:0:
64,192,87556,1,2,0:0:0:0:
192,192,87556,1,0,0:0:0:0:
192,192,87723,128,0,87890:0:0:0:0:
320,192,87723,128,0,87890:0:0:0:0:
64,192,87890,1,2,0:0:0:0:
448,192,87890,1,0,0:0:0:0:
64,192,88056,128,0,88223:0:0:0:0:
192,192,88056,128,0,88223:0:0:0:0:
320,192,88223,1,2,0:0:0:0:
448,192,88223,1,0,0:0:0:0:
192,192,88390,128,2,88556:0:0:0:0:
448,192,88390,128,0,88556:0:0:0:0:
64,192,88723,128,0,89223:0:0:0:0:
320,192,88723,128,0,89223:0:0:0:0:
