osu file format v14

[General]
AudioFilename: audio.ogg
AudioLeadIn: 0
PreviewTime: 55081
Countdown: 0
SampleSet: Soft
StackLeniency: 0.7
Mode: 3
LetterboxInBreaks: 0
SpecialStyle: 0
WidescreenStoryboard: 1

[Editor]
DistanceSpacing: 1.2
BeatDivisor: 4
GridSize: 16
TimelineZoom: 2

[Metadata]
Title:Please, please! (TV Size)
TitleUnicode:Please, please! (TV Size)
Artist:Ayaka Ohashi
ArtistUnicode:大橋彩香
Creator:Amiichii
Version:Normal
Source:政宗くんのリベンジR
Tags:masamune kun no revenge R season 2 Anime Japanese Pop J-pop Jpop OP Opening Adagaki Aki Kanata Okajima 岡嶋かな多 pw.a pwa
BeatmapID:4181852
BeatmapSetID:2008972

[Difficulty]
HPDrainRate:7
CircleSize:4
OverallDifficulty:7
ApproachRate:9.2
SliderMultiplier:1.8
SliderTickRate:1

[Events]
//Background and Video events
0,0,"NM.jpg",0,0
Video,0,"video.mp4"
//Break Periods
//Storyboard Layer 0 (Background)
//Storyboard Layer 1 (Fail)
//Storyboard Layer 2 (Pass)
//Storyboard Layer 3 (Foreground)
//Storyboard Layer 4 (Overlay)
//Storyboard Sound Samples

[TimingPoints]
2057,333.333333333333,4,2,1,50,1,0
56723,-100.0,4,2,1,50,0,1
66056,-100.0,4,2,1,50,0,0
67390,-100.0,4,2,1,50,0,1
76723,-100.0,4,2,1,50,0,0
78056,-100.0,4,2,1,50,0,1
87390,-100.0,4,2,1,50,0,0

[HitObjects]
64,192,723,1,0,0:0:0:0:
192,192,890,128,0,1223:0:0:0:0:
448,192,1223,128,0,1557:0:0:0:0:
320,192,1557,1,0,0:0:0:0:
192,192,1723,1,0,0:0:0:0:
64,192,1890,1,0,0:0:0:0:
320,192,2056,1,2,0:0:0:0:
448,192,2056,1,8,0:0:0:0:
192,192,2223,1,0,0:0:0:0:
64,192,2390,1,2,0:0:0:0:
448,192,2390,128,8,2723:0:0:0:0:
64,192,2723,1,2,0:0:0:0:
192,192,2723,1,8,0:0:0:0:
320,192,2890,1,0,0:0:0:0:
64,192,3056,1,2,0:0:0:0:
448,192,3056,1,8,0:0:0:0:
192,192,3223,1,0,0:0:0:0:
320,192,3390,1,2,0:0:0:0:
448,192,3390,1,8,0:0:0:0:
64,192,3556,1,0,0:0:0:0:
192,192,3723,1,2,0:0:0:0:
320,192,3723,128,8,4056:0:0:0:0:
64,192,4056,1,2,0:0:0:0:
448,192,4056,1,8,0:0:0:0:
64,192,4390,128,8,4723:0:0:0:0:
320,192,4390,1,2,0:0:0:0:
192,192,4723,1,2,0:0:0:0:
448,192,4723,128,8,5056:0:0:0:0:
64,192,5056,1,8,0:0:0:0:
320,192,5056,1,2,0:0:0:0:
192,192,5223,1,0,0:0:0:0:
64,192,5390,128,2,5723:0:0:0:0:
448,192,5390,1,8,0:0:0:0:
320,192,5723,1,8,0:0:0:0:
448,192,5723,1,2,0:0:0:0:
192,192,5890,1,0,0:0:0:0:
64,192,6056,1,8,0:0:0:0:
448,192,6056,1,2,0:0:0:0:
320,192,6223,1,0,0:0:0:0:
64,192,6390,1,8,0:0:0:0:
192,192,6390,1,2,0:0:0:0:
320,192,6556,1,0,0:0:0:0:
64,192,6723,1,8,0:0:0:0:
448,192,6723,128,2,7056:0:0:0:0:
192,192,7056,128,10,7390:0:0:0:0:
64,192,7390,128,8,7723:0:0:0:0:
448,192,7390,1,2,0:0:0:0:
192,192,7723,1,8,0:0:0:0:
320,192,7723,1,2,0:0:0:0:
64,192,8056,1,8,0:0:0:0:
192,192,8056,1,2,0:0:0:0:
448,192,8223,1,0,0:0:0:0:
192,192,8390,1,2,0:0:0:0:
320,192,8390,1,8,0:0:0:0:
64,192,8556,1,0,0:0:0:0:
320,192,8723,1,8,0:0:0:0:
448,192,8723,128,2,9056:0:0:0:0:
64,192,9056,1,2,0:0:0:0:
192,192,9056,1,8,0:0:0:0:
64,192,9390,1,8,0:0:0:0:
320,192,9390,1,2,0:0:0:0:
192,192,9556,1,0,0:0:0:0:
320,192,9723,1,2,0:0:0:0:
448,192,9723,1,8,0:0:0:0:
64,192,9890,1,0,0:0:0:0:
320,192,10056,1,8,0:0:0:0:
448,192,10056,1,2,0:0:0:0:
192,192,10223,1,2,0:0:0:0:
448,192,10390,1,2,0:0:0:0:
64,192,10556,1,8,0:0:0:0:
192,192,10556,1,2,0:0:0:0:
320,192,10723,1,2,0:0:0:0:
64,192,10890,1,2,0:0:0:0:
320,192,11056,1,8,0:0:0:0:
448,192,11056,1,2,0:0:0:0:
64,192,11223,1,8,0:0:0:0:
192,192,11223,1,2,0:0:0:0:
320,192,11390,1,2,0:0:0:0:
448,192,11390,1,0,0:0:0:0:
192,192,11556,1,0,0:0:0:0:
64,192,11890,1,0,0:0:0:0:
448,192,12056,1,0,0:0:0:0:
192,192,12223,1,2,0:0:0:0:
320,192,12223,1,0,0:0:0:0:
64,192,12390,1,0,0:0:0:50:soft-hitclap1.wav
448,192,12390,128,0,12723:0:0:0:0:
64,192,12723,1,2,0:0:0:0:
320,192,12723,1,4,0:0:0:0:
192,192,13056,1,8,0:0:0:0:
448,192,13056,1,0,0:0:0:0:
64,192,13223,1,8,0:0:0:0:
320,192,13223,1,0,0:0:0:0:
192,192,13390,1,2,0:0:0:0:
320,192,13723,1,8,0:0:0:0:
448,192,13723,1,0,0:0:0:0:
64,192,14056,1,2,0:0:0:0:
192,192,14390,1,8,0:0:0:0:
320,192,14390,1,0,0:0:0:0:
448,192,14723,128,2,14890:0:0:0:0:
64,192,14890,128,0,15056:0:0:0:0:
320,192,15056,128,8,15223:0:0:0:0:
448,192,15056,1,0,0:0:0:0:
64,192,15223,128,0,15390:0:0:0:0:
192,192,15390,1,2,0:0:0:0:
320,192,15390,1,0,0:0:0:0:
64,192,15723,1,8,0:0:0:0:
448,192,15723,1,0,0:0:0:0:
192,192,15890,1,8,0:0:0:0:
320,192,15890,1,0,0:0:0:0:
64,192,16056,1,2,0:0:0:0:
320,192,16390,1,8,0:0:0:0:
448,192,16390,1,0,0:0:0:0:
192,192,16723,1,2,0:0:0:0:
64,192,17056,1,8,0:0:0:0:
448,192,17056,1,0,0:0:0:0:
192,192,17390,1,2,0:0:0:0:
192,192,17556,1,0,0:0:0:0:
320,192,17723,1,8,0:0:0:0:
448,192,17723,128,0,18056:0:0:0:0:
64,192,18056,1,2,0:0:0:0:
192,192,18056,1,0,0:0:0:0:
320,192,18390,1,8,0:0:0:0:
448,192,18390,1,0,0:0:0:0:
64,192,18556,1,8,0:0:0:0:
192,192,18556,1,0,0:0:0:0:
320,192,18723,1,2,0:0:0:0:
64,192,19056,1,8,0:0:0:0:
448,192,19056,1,0,0:0:0:0:
192,192,19390,1,2,0:0:0:0:
320,192,19723,1,8,0:0:0:0:
448,192,19723,1,0,0:0:0:0:
64,192,20056,128,2,20223:0:0:0:0:
320,192,20223,128,0,20390:0:0:0:0:
64,192,20390,1,8,0:0:0:0:
192,192,20390,128,0,20556:0:0:0:0:
448,192,20556,128,0,20723:0:0:0:0:
64,192,20723,1,2,0:0:0:0:
320,192,21056,1,8,0:0:0:0:
448,192,21056,1,0,0:0:0:0:
192,192,21390,1,2,0:0:0:0:
64,192,21723,1,8,0:0:0:0:
448,192,21723,1,0,0:0:0:0:
320,192,22056,1,2,0:0:0:0:
64,192,22223,1,2,0:0:0:0:
192,192,22556,1,2,0:0:0:0:
448,192,22723,128,2,22890:0:0:0:0:
320,192,22890,128,2,23056:0:0:0:0:
64,192,23056,128,8,23390:0:0:0:0:
192,192,23056,1,0,0:0:0:0:
320,192,23390,1,2,0:0:0:0:
448,192,23390,1,0,0:0:0:0:
64,192,23723,1,8,0:0:0:0:
192,192,23723,1,0,0:0:0:0:
448,192,23890,1,2,0:0:0:0:
192,192,24223,1,2,0:0:0:0:
64,192,24390,1,8,0:0:0:0:
448,192,24390,1,0,0:0:0:0:
320,192,24723,1,2,0:0:0:0:
320,192,24890,1,0,0:0:0:0:
64,192,25056,1,8,0:0:0:0:
192,192,25056,1,0,0:0:0:0:
448,192,25223,1,2,0:0:0:0:
64,192,25556,1,2,0:0:0:0:
320,192,25723,1,8,0:0:0:0:
448,192,25723,1,0,0:0:0:0:
192,192,25890,1,0,0:0:0:0:
448,192,26056,1,2,0:0:0:0:
64,192,26390,1,8,0:0:0:0:
192,192,26390,1,0,0:0:0:0:
448,192,26556,1,2,0:0:0:0:
64,192,26890,1,2,0:0:0:0:
320,192,27056,1,8,0:0:0:0:
448,192,27056,1,0,0:0:0:0:
192,192,27390,1,2,0:0:0:0:
192,192,27556,1,0,0:0:0:0:
64,192,27723,1,8,0:0:0:0:
448,192,27723,1,0,0:0:0:0:
320,192,27890,1,2,0:0:0:0:
192,192,28223,1,2,0:0:0:0:
64,192,28390,1,8,0:0:0:0:
448,192,28390,128,0,28723:0:0:0:0:
320,192,28556,1,0,0:0:0:0:
64,192,28723,1,2,0:0:0:0:
192,192,28723,1,0,0:0:0:0:
320,192,29056,1,8,0:0:0:0:
448,192,29056,1,0,0:0:0:0:
64,192,29223,1,2,0:0:0:0:
448,192,29556,1,2,0:0:0:0:
64,192,29723,128,8,30056:0:0:0:0:
192,192,29723,1,0,0:0:0:0:
320,192,29890,1,0,0:0:0:0:
192,192,30056,1,2,0:0:0:0:
448,192,30056,1,0,0:0:0:0:
64,192,30390,1,8,0:0:0:0:
320,192,30390,1,0,0:0:0:0:
192,192,30556,1,2,0:0:0:0:
320,192,30890,1,2,0:0:0:0:
64,192,31056,1,8,0:0:0:0:
448,192,31056,128,0,31390:0:0:0:0:
192,192,31223,1,0,0:0:0:0:
64,192,31390,1,2,0:0:0:0:
320,192,31390,1,0,0:0:0:0:
192,192,31723,1,8,0:0:0:0:
448,192,31723,1,0,0:0:0:0:
320,192,31890,1,2,0:0:0:0:
64,192,32223,1,2,0:0:0:0:
192,192,32390,1,8,0:0:0:0:
320,192,32390,1,0,0:0:0:0:
448,192,32556,1,0,0:0:0:0:
64,192,32723,1,2,0:0:0:0:
192,192,32723,1,0,0:0:0:0:
320,192,33056,1,8,0:0:0:0:
448,192,33056,1,0,0:0:0:0:
192,192,33223,1,2,0:0:0:0:
320,192,33556,1,2,0:0:0:0:
64,192,33723,1,0,0:0:0:50:soft-hitclap1.wav
192,192,33723,1,0,0:0:0:0:
320,192,34056,1,2,0:0:0:0:
448,192,34056,128,4,34390:0:0:0:0:
64,192,34390,1,8,0:0:0:0:
192,192,34390,1,0,0:0:0:0:
320,192,34556,1,2,0:0:0:0:
192,192,34890,1,2,0:0:0:0:
64,192,35056,1,8,0:0:0:0:
448,192,35056,1,0,0:0:0:0:
320,192,35223,1,0,0:0:0:0:
192,192,35390,128,2,35723:0:0:0:0:
320,192,35723,1,8,0:0:0:0:
448,192,35723,1,0,0:0:0:0:
64,192,35890,1,2,0:0:0:0:
320,192,36223,1,2,0:0:0:0:
64,192,36390,1,8,0:0:0:0:
192,192,36390,1,0,0:0:0:0:
448,192,36556,1,0,0:0:0:0:
64,192,36723,128,2,37056:0:0:0:0:
320,192,37056,1,8,0:0:0:0:
448,192,37056,1,0,0:0:0:0:
192,192,37223,1,2,0:0:0:0:
320,192,37556,1,2,0:0:0:0:
64,192,37723,1,8,0:0:0:0:
448,192,37723,1,0,0:0:0:0:
192,192,37890,1,0,0:0:0:0:
448,192,38056,128,2,38390:0:0:0:0:
64,192,38390,128,8,38556:0:0:0:0:
320,192,38390,1,0,0:0:0:0:
192,192,38556,128,2,38723:0:0:0:0:
448,192,38723,128,0,38890:0:0:0:0:
64,192,38890,128,2,39056:0:0:0:0:
320,192,39056,128,8,39223:0:0:0:0:
448,192,39056,1,0,0:0:0:0:
192,192,39223,128,0,39390:0:0:0:0:
320,192,39390,128,2,39723:0:0:0:0:
64,192,39723,1,8,0:0:0:0:
192,192,39723,1,0,0:0:0:0:
448,192,39890,128,2,40056:0:0:0:0:
64,192,40056,128,0,40390:0:0:0:0:
192,192,40056,128,0,40390:0:0:0:0:
320,192,40390,128,8,40723:0:0:0:0:
448,192,40390,128,0,40723:0:0:0:0:
192,192,40723,1,2,0:0:0:0:
64,192,41056,1,8,0:0:0:0:
320,192,41056,1,0,0:0:0:0:
448,192,41223,128,2,41390:0:0:0:0:
64,192,41390,128,0,41723:0:0:0:0:
192,192,41390,128,0,41723:0:0:0:0:
320,192,41723,128,8,42056:0:0:0:0:
448,192,41723,128,0,42056:0:0:0:0:
64,192,42056,1,2,0:0:0:0:
192,192,42056,1,4,0:0:0:0:
320,192,42223,128,0,42390:0:0:0:0:
64,192,42390,128,0,42556:0:0:0:0:
320,192,42556,1,2,0:0:0:0:
448,192,42556,128,4,42723:0:0:0:0:
192,192,42723,128,0,43056:0:0:0:0:
64,192,42890,1,2,0:0:0:0:
320,192,43056,1,8,0:0:0:0:
448,192,43056,128,0,43223:0:0:0:0:
64,192,43223,128,4,44056:0:0:0:0:
320,192,43390,1,2,0:0:0:0:
192,192,43556,1,0,0:0:0:0:
320,192,43723,1,8,0:0:0:0:
448,192,43890,1,2,0:0:0:0:
192,192,44056,1,0,0:0:0:0:
320,192,44223,128,2,44390:0:0:0:0:
64,192,44390,1,8,0:0:0:0:
448,192,44390,1,0,0:0:0:0:
192,192,44556,1,0,0:0:0:0:
320,192,44723,1,4,0:0:0:0:
448,192,44723,128,2,45390:0:0:0:0:
192,192,45223,1,2,0:0:0:0:
64,192,45390,1,8,0:0:0:0:
320,192,45390,1,2,0:0:0:0:
192,192,45556,128,0,45723:0:0:0:0:
448,192,45723,128,0,45890:0:0:0:0:
64,192,45890,128,2,46056:0:0:0:0:
320,192,46056,128,2,46223:0:0:0:0:
448,192,46223,128,2,46556:0:0:0:0:
64,192,46556,128,2,46723:0:0:0:0:
192,192,46723,1,8,0:0:0:0:
320,192,46723,128,0,46890:0:0:0:0:
448,192,46890,128,0,47223:0:0:0:0:
64,192,47390,128,2,48056:0:0:0:0:
320,192,47890,1,2,0:0:0:0:
192,192,48056,1,8,0:0:0:0:
448,192,48056,1,2,0:0:0:0:
320,192,48223,128,0,48390:0:0:0:0:
192,192,48390,128,2,48556:0:0:0:0:
320,192,48556,128,2,48723:0:0:0:0:
64,192,48723,128,2,48890:0:0:0:0:
448,192,48723,128,0,48890:0:0:0:0:
64,192,49390,128,0,49556:0:0:0:0:
320,192,49390,128,0,49556:0:0:0:0:
192,192,49556,128,0,49723:0:0:0:0:
320,192,49723,128,0,49890:0:0:0:0:
448,192,49890,128,0,50056:0:0:0:0:
64,192,50056,1,2,0:0:0:0:
192,192,50056,1,4,0:0:0:0:
320,192,50223,1,2,0:0:0:0:
448,192,50223,1,4,0:0:0:0:
192,192,50390,1,8,0:0:0:0:
448,192,50723,1,8,0:0:0:0:
64,192,51056,1,8,0:0:0:0:
320,192,51390,1,2,0:0:0:0:
448,192,51390,1,0,0:0:0:0:
64,192,51556,1,2,0:0:0:0:
192,192,51556,1,0,0:0:0:0:
320,192,51723,1,8,0:0:0:0:
192,192,52056,1,8,0:0:0:0:
320,192,52223,1,2,0:0:0:0:
64,192,52390,1,8,0:0:0:0:
448,192,52556,1,2,0:0:0:0:
64,192,52723,1,8,0:0:0:0:
192,192,52723,1,2,0:0:0:0:
64,192,53056,1,8,0:0:0:0:
448,192,53056,1,2,0:0:0:0:
320,192,53390,1,8,0:0:0:0:
448,192,53390,1,2,0:0:0:0:
64,192,53723,1,2,0:0:0:0:
448,192,53723,1,8,0:0:0:0:
64,192,54056,1,8,0:0:0:0:
192,192,54056,1,2,0:0:0:0:
320,192,54223,1,2,0:0:0:0:
64,192,54390,1,10,0:0:0:0:
192,192,54556,1,2,0:0:0:0:
320,192,54723,1,2,0:0:0:0:
448,192,54723,1,8,0:0:0:0:
192,192,54890,1,2,0:0:0:0:
448,192,55056,1,10,0:0:0:0:
320,192,55223,1,2,0:0:0:0:
64,192,55390,1,2,0:0:0:0:
192,192,55390,1,4,0:0:0:0:
448,192,55556,1,0,0:0:0:0:
320,192,55890,1,0,0:0:0:0:
192,192,56223,1,0,0:0:0:0:
320,192,56390,1,0,0:0:0:50:soft-hitclap1.wav
448,192,56390,1,0,0:0:0:0:
64,192,56556,1,0,0:0:0:0:
192,192,56723,1,2,0:0:0:0:
320,192,56723,1,4,0:0:0:0:
448,192,56890,1,0,0:0:0:0:
64,192,57056,128,8,57390:0:0:0:0:
192,192,57056,1,0,0:0:0:0:
320,192,57390,1,2,0:0:0:0:
192,192,57556,1,0,0:0:0:0:
64,192,57723,1,8,0:0:0:0:
448,192,57723,1,0,0:0:0:0:
320,192,57890,1,0,0:0:0:0:
192,192,58056,1,2,0:0:0:0:
320,192,58223,1,0,0:0:0:0:
64,192,58390,1,8,0:0:0:0:
448,192,58390,128,0,58723:0:0:0:0:
192,192,58723,1,2,0:0:0:0:
320,192,59056,128,8,59390:0:0:0:0:
448,192,59056,1,0,0:0:0:0:
64,192,59390,128,2,59723:0:0:0:0:
192,192,59723,1,8,0:0:0:0:
448,192,59723,1,0,0:0:0:0:
320,192,59890,1,0,0:0:0:0:
192,192,60056,128,2,60390:0:0:0:0:
320,192,60390,1,8,0:0:0:0:
448,192,60390,1,0,0:0:0:0:
64,192,60556,1,0,0:0:0:0:
320,192,60723,1,2,0:0:0:0:
192,192,60890,1,0,0:0:0:0:
64,192,61056,1,8,0:0:0:0:
448,192,61056,1,0,0:0:0:0:
320,192,61223,1,0,0:0:0:0:
192,192,61390,128,2,61723:0:0:0:0:
64,192,61723,1,8,0:0:0:0:
448,192,61723,128,0,62056:0:0:0:0:
64,192,62056,128,2,62390:0:0:0:0:
320,192,62056,1,4,0:0:0:0:
192,192,62390,1,8,0:0:0:0:
448,192,62390,1,0,0:0:0:0:
320,192,62723,128,2,62890:0:0:0:0:
192,192,62890,128,0,63056:0:0:0:0:
64,192,63056,1,8,0:0:0:0:
448,192,63056,1,0,0:0:0:0:
320,192,63223,128,0,63390:0:0:0:0:
192,192,63390,1,2,0:0:0:0:
64,192,63723,1,8,0:0:0:0:
448,192,63723,1,0,0:0:0:0:
192,192,64056,1,2,0:0:0:0:
320,192,64223,1,0,0:0:0:0:
192,192,64390,1,8,0:0:0:0:
448,192,64390,1,0,0:0:0:0:
64,192,64556,128,0,64723:0:0:0:0:
448,192,64723,128,2,65556:0:0:0:0:
64,192,65056,1,8,0:0:0:0:
192,192,65056,1,0,0:0:0:0:
320,192,65390,1,2,0:0:0:0:
64,192,65723,1,8,0:0:0:0:
192,192,65723,1,0,0:0:0:0:
64,192,66056,1,8,0:0:0:0:
448,192,66056,1,0,0:0:0:0:
192,192,66223,1,8,0:0:0:0:
320,192,66223,1,0,0:0:0:0:
64,192,66556,1,8,0:0:0:0:
320,192,66556,1,0,0:0:0:0:
64,192,66890,1,8,0:0:0:0:
448,192,66890,1,0,0:0:0:0:
192,192,67056,1,8,0:0:0:0:
320,192,67056,1,2,0:0:0:0:
64,192,67223,1,8,0:0:0:0:
192,192,67223,1,0,0:0:0:0:
320,192,67390,1,4,0:0:0:0:
448,192,67390,1,2,0:0:0:0:
192,192,67556,1,0,0:0:0:0:
64,192,67723,128,8,68056:0:0:0:0:
448,192,67723,1,0,0:0:0:0:
320,192,68056,1,2,0:0:0:0:
64,192,68223,1,0,0:0:0:0:
320,192,68390,1,8,0:0:0:0:
448,192,68390,1,0,0:0:0:0:
192,192,68556,1,0,0:0:0:0:
448,192,68723,1,2,0:0:0:0:
64,192,68890,1,0,0:0:0:0:
192,192,69056,1,8,0:0:0:0:
320,192,69056,128,0,69390:0:0:0:0:
448,192,69390,1,2,0:0:0:0:
64,192,69723,128,8,70056:0:0:0:0:
192,192,69723,1,0,0:0:0:0:
448,192,70056,128,2,70723:0:0:0:0:
64,192,70390,1,8,0:0:0:0:
192,192,70390,1,0,0:0:0:0:
320,192,70723,1,2,0:0:0:0:
64,192,70890,1,0,0:0:0:0:
192,192,71056,1,8,0:0:0:0:
448,192,71056,1,0,0:0:0:0:
320,192,71223,1,0,0:0:0:0:
64,192,71390,128,2,71723:0:0:0:0:
320,192,71723,1,8,0:0:0:0:
448,192,71723,128,0,72056:0:0:0:0:
192,192,72056,128,2,72390:0:0:0:0:
64,192,72390,128,8,72723:0:0:0:0:
320,192,72390,1,0,0:0:0:0:
192,192,72723,1,2,0:0:0:0:
448,192,72723,128,4,73056:0:0:0:0:
64,192,73056,1,8,0:0:0:0:
320,192,73056,1,0,0:0:0:0:
192,192,73390,1,2,0:0:0:0:
320,192,73556,1,0,0:0:0:0:
64,192,73723,1,8,0:0:0:0:
448,192,73723,1,0,0:0:0:0:
192,192,73890,1,0,0:0:0:0:
320,192,74056,128,2,74390:0:0:0:0:
192,192,74390,1,8,0:0:0:0:
448,192,74390,1,0,0:0:0:0:
64,192,74723,1,2,0:0:0:0:
320,192,74890,1,0,0:0:0:0:
64,192,75056,128,8,75390:0:0:0:0:
192,192,75056,1,0,0:0:0:0:
448,192,75390,128,2,76056:0:0:0:0:
64,192,75723,1,8,0:0:0:0:
192,192,75723,1,0,0:0:0:0:
64,192,76056,128,2,76723:0:0:0:0:
320,192,76390,1,8,0:0:0:0:
448,192,76390,1,0,0:0:0:0:
192,192,76723,1,8,0:0:0:0:
448,192,76723,1,0,0:0:0:0:
64,192,76890,1,8,0:0:0:0:
320,192,76890,1,0,0:0:0:0:
64,192,77223,1,8,0:0:0:0:
448,192,77223,1,0,0:0:0:0:
320,192,77556,1,8,0:0:0:0:
448,192,77556,1,0,0:0:0:0:
64,192,77723,1,8,0:0:0:0:
192,192,77723,1,2,0:0:0:0:
320,192,77890,1,8,0:0:0:0:
64,192,78056,1,2,0:0:0:0:
448,192,78056,128,4,78390:0:0:0:0:
192,192,78390,1,8,0:0:0:0:
320,192,78390,1,0,0:0:0:0:
64,192,78556,128,2,78890:0:0:0:0:
320,192,78890,1,2,0:0:0:0:
192,192,79056,1,8,0:0:0:0:
448,192,79056,128,0,79390:0:0:0:0:
64,192,79390,128,2,79723:0:0:0:0:
192,192,79723,1,8,0:0:0:0:
320,192,79723,1,0,0:0:0:0:
448,192,79890,128,2,80223:0:0:0:0:
320,192,80223,1,2,0:0:0:0:
64,192,80390,128,8,80723:0:0:0:0:
192,192,80390,1,0,0:0:0:0:
320,192,80723,128,2,81056:0:0:0:0:
64,192,81056,1,8,0:0:0:0:
448,192,81056,1,0,0:0:0:0:
192,192,81223,128,2,81556:0:0:0:0:
320,192,81556,1,2,0:0:0:0:
192,192,81723,1,8,0:0:0:0:
448,192,81723,128,0,82056:0:0:0:0:
64,192,82056,1,2,0:0:0:0:
192,192,82223,1,2,0:0:0:0:
320,192,82390,1,8,0:0:0:0:
448,192,82390,1,0,0:0:0:0:
64,192,82556,1,8,0:0:0:0:
192,192,82556,1,0,0:0:0:0:
448,192,82723,1,2,0:0:0:0:
192,192,82890,1,2,0:0:0:0:
64,192,83056,1,2,0:0:0:0:
320,192,83056,1,8,0:0:0:0:
448,192,83223,1,0,0:0:0:0:
64,192,83390,128,0,83723:0:0:0:0:
192,192,83390,1,0,0:0:0:0:
320,192,83723,1,2,0:0:0:0:
448,192,83723,1,8,0:0:0:0:
192,192,84056,128,0,84390:0:0:0:0:
64,192,84390,1,8,0:0:0:0:
448,192,84390,1,2,0:0:0:0:
320,192,84723,128,0,85056:0:0:0:0:
64,192,85056,1,8,0:0:0:0:
192,192,85056,1,2,0:0:0:0:
448,192,85390,128,0,85556:0:0:0:0:
64,192,85556,1,2,0:0:0:0:
192,192,85640,1,2,0:0:0:0:
320,192,85723,128,8,85890:0:0:0:0:
448,192,85723,1,2,0:0:0:0:
64,192,85890,128,0,86056:0:0:0:0:
320,192,86056,1,8,0:0:0:0:
448,192,86056,1,0,0:0:0:0:
192,192,86223,1,8,0:0:0:0:
448,192,86390,1,8,0:0:0:0:
320,192,86556,1,8,0:0:0:0:
64,192,86723,1,8,0:0:0:0:
192,192,86890,1,8,0:0:0:0:
320,192,87056,1,10,0:0:0:0:
448,192,87223,1,2,0:0:0:0:
64,192,87390,128,2,87556:0:0:0:0:
320,192,87723,128,0,87890:0:0:0:0:
192,192,88056,128,0,88223:0:0:0:0:
448,192,88390,128,2,88556:0:0:0:0:
64,192,88723,128,0,89223:0:0:0:0:
