osu file format v14

[General]
AudioFilename: nya1.mp3
AudioLeadIn: 0
PreviewTime: 50848
Countdown: 0
SampleSet: Soft
StackLeniency: 0.7
Mode: 0
LetterboxInBreaks: 0
WidescreenStoryboard: 0

[Editor]
Bookmarks: 30458,51083,66083,81083
DistanceSpacing: 1.3
BeatDivisor: 4
GridSize: 4
TimelineZoom: 2.6

[Metadata]
Title:Oshiete Blue Sky
TitleUnicode:おしえてブルースカイ
Artist:Ayaka Ohashi
ArtistUnicode:大橋彩香
Creator:Kyubey
Version:Hard
Source:コメット・ルシファー
Tags:comet lucifer ending ed felia irreversible
BeatmapID:817856
BeatmapSetID:373326

[Difficulty]
HPDrainRate:6
CircleSize:4
OverallDifficulty:6
ApproachRate:7.5
SliderMultiplier:1.6
SliderTickRate:1

[Events]
//Background and Video events
0,0,"123.jpg",0,0
Video,0,"stop looking at me b-baka.avi"
//Break Periods
//Storyboard Layer 0 (Background)
//Storyboard Layer 1 (Fail)
//Storyboard Layer 2 (Pass)
//Storyboard Layer 3 (Foreground)
//Storyboard Sound Samples
Sample,36083,0,"normal-hitnormal2.wav",40
Sample,37020,0,"normal-hitnormal2.wav",40
Sample,37020,0,"soft-hitclap2.wav",40

[TimingPoints]
458,468.75,4,2,10,30,1,0
458,-133.333333333333,4,2,10,30,0,0
1395,-133.333333333333,4,2,13,30,0,0
1864,-133.333333333333,4,2,11,30,0,0
2333,-133.333333333333,4,2,12,30,0,0
3270,-133.333333333333,4,2,1,30,0,0
4676,-133.333333333333,4,2,10,30,0,0
5145,-133.333333333333,4,2,13,30,0,0
5614,-133.333333333333,4,2,11,30,0,0
6083,-133.333333333333,4,2,12,30,0,0
7020,-133.333333333333,4,2,1,30,0,0
7958,-133.333333333333,4,2,1,35,0,0
8426,-133.333333333333,4,2,10,35,0,0
8895,-133.333333333333,4,2,13,35,0,0
9364,-133.333333333333,4,2,11,35,0,0
9833,-133.333333333333,4,2,12,35,0,0
10770,-133.333333333333,4,2,1,35,0,0
11708,-133.333333333333,4,2,1,40,0,0
12176,-133.333333333333,4,2,10,40,0,0
12645,-133.333333333333,4,2,13,40,0,0
13114,-133.333333333333,4,2,11,40,0,0
13583,-133.333333333333,4,2,12,40,0,0
14520,-133.333333333333,4,2,1,40,0,0
15458,-100,4,2,1,50,0,0
30458,-133.333333333333,4,2,2,40,0,0
41708,-100,4,2,1,40,0,0
48504,-100,4,2,1,50,0,0
48622,-100,4,2,1,60,0,0
48973,-100,4,2,1,40,0,0
51083,-90.9090909090909,4,1,10,70,0,1
54598,-90.9090909090909,4,1,12,70,0,1
54833,-90.9090909090909,4,1,10,70,0,1
58348,-90.9090909090909,4,1,11,70,0,1
58583,-90.9090909090909,4,1,10,70,0,1
62098,-90.9090909090909,4,1,12,70,0,1
62333,-90.9090909090909,4,1,10,70,0,1
63504,-90.9090909090909,4,1,12,70,0,1
63739,-90.9090909090909,4,1,11,70,0,1
63973,-90.9090909090909,4,1,12,70,0,1
64208,-90.9090909090909,4,1,10,70,0,1
65379,-90.9090909090909,4,1,12,70,0,1
65614,-90.9090909090909,4,1,10,70,0,1
65965,-90.9090909090909,4,1,10,70,0,0
66083,-90.9090909090909,4,1,10,70,0,1
69598,-90.9090909090909,4,1,11,70,0,1
71942,-90.9090909090909,4,1,12,70,0,1
72176,-90.9090909090909,4,1,10,70,0,1
74989,-90.9090909090909,4,1,11,70,0,1
75223,-90.9090909090909,4,1,12,70,0,1
75458,-90.9090909090909,4,1,10,70,0,1
76395,-90.9090909090909,4,1,12,70,0,1
76864,-90.9090909090909,4,1,10,70,0,1
78739,-90.9090909090909,4,1,15,70,0,1
78973,-90.9090909090909,4,1,10,70,0,1
80379,-90.9090909090909,4,1,11,70,0,1
80614,-90.9090909090909,4,1,10,70,0,1
80848,-90.9090909090909,4,1,11,70,0,1
86708,-90.9090909090909,4,2,1,40,0,0
87645,-90.9090909090909,4,2,1,30,0,0
88114,-90.9090909090909,4,2,1,20,0,0
88583,-90.9090909090909,4,2,1,10,0,0
89051,-90.9090909090909,4,2,1,5,0,0

[Colours]
Combo1 : 133,136,254
Combo2 : 225,147,204
Combo3 : 145,220,236
Combo4 : 239,167,114

[HitObjects]
172,308,458,6,0,L|240:300,1,60.0000022888184
308,328,926,2,0,L|376:320,1,60.0000022888184,2|0,0:0|0:0,0:0:0:0:
384,324,1278,1,2,0:0:0:0:
400,328,1395,2,0,P|412:264|392:196,1,120.000004577637,2|2,0:0|0:0,0:0:0:0:
328,72,2333,1,2,0:0:0:0:
328,72,3270,6,0,L|316:152,1,60.0000022888184,0|2,0:0|0:0,0:0:0:0:
360,196,3739,2,0,L|368:255,1,60.0000022888184,0|2,0:0|0:0,0:0:0:0:
308,304,4208,6,0,P|274:300|232:304,1,60.0000022888184
172,324,4676,2,0,P|142:325|112:321,1,60.0000022888184,2|0,0:0|0:0,0:0:0:0:
96,316,5028,1,2,0:0:0:0:
80,311,5145,2,0,P|68:247|92:175,1,120.000004577637,2|2,0:0|0:0,0:0:0:0:
156,56,6083,1,2,0:0:0:0:
156,56,7020,5,0,0:0:0:0:
200,120,7254,1,2,0:0:0:0:
272,148,7489,1,0,0:0:0:0:
348,136,7723,1,2,0:0:0:0:
408,84,7958,6,0,L|400:172,1,60.0000022888184
440,212,8426,2,0,L|432:300,1,60.0000022888184,10|0,0:0|0:0,0:0:0:0:
420,308,8778,1,2,0:0:0:0:
420,308,8895,2,0,P|364:300|296:312,1,120.000004577637,2|10,0:0|0:0,0:0:0:0:
160,356,9833,1,2,0:0:0:0:
160,356,10770,6,0,L|164:272,1,60.0000022888184,0|2,0:0|0:0,0:0:0:0:
180,220,11239,2,0,L|177:160,1,60.0000022888184,0|2,0:0|0:0,0:0:0:0:
216,92,11708,6,0,P|233:119|272:156,1,60.0000022888184
328,124,12176,2,0,P|357:117|387:116,1,60.0000022888184,10|0,0:0|0:0,0:0:0:0:
424,132,12528,1,2,0:0:0:0:
424,132,12645,2,0,P|436:188|420:264,1,120.000004577637,2|10,0:0|0:0,0:0:0:0:
280,288,13583,2,0,L|308:216,1,60.0000022888184,2|0,0:0|0:0,0:0:0:0:
356,288,14051,2,0,L|334:343,1,60.0000022888184
260,364,14520,5,0,0:0:0:0:
196,312,14754,1,2,0:0:0:0:
204,228,14989,1,2,0:0:0:0:
272,180,15223,1,2,0:0:0:0:
352,208,15458,6,0,P|393:221|429:225,1,80,4|0,1:1|0:0,0:0:0:0:
468,196,15809,1,0,0:0:0:0:
468,196,15926,2,0,L|452:96,1,80,8|2,0:0|0:0,0:0:0:0:
332,36,16395,2,0,L|344:114,1,80,0|2,1:0|0:0,0:0:0:0:
364,160,16747,2,0,L|352:216,1,40,0|8,0:0|0:0,0:0:0:0:
408,304,17098,1,0,0:0:0:0:
288,300,17333,6,0,P|250:295|176:300,1,80,0|0,1:0|0:0,0:0:0:0:
168,272,17684,1,0,0:0:0:0:
168,272,17801,2,0,L|180:193,1,80,8|2,0:0|0:0,0:0:0:0:
72,88,18270,2,0,L|84:166,1,80,0|2,1:0|0:0,0:0:0:0:
84,166,18622,1,0,0:0:0:0:
84,166,18739,1,8,0:0:0:0:
36,276,18973,1,2,0:0:0:0:
128,352,19208,6,0,L|207:344,1,80,0|0,1:0|0:0,0:0:0:0:
248,368,19559,1,0,0:0:0:0:
248,368,19676,2,0,L|327:360,1,80,8|2,0:0|0:0,0:0:0:0:
440,284,20145,2,0,P|448:240|424:176,1,80,0|2,1:0|0:0,0:0:0:0:
432,160,20497,2,0,L|486:184,1,40,0|8,0:0|0:0,0:0:0:0:
368,244,20848,1,0,0:0:0:0:
264,176,21083,6,0,P|256:136|268:88,1,80,0|0,1:0|0:0,0:0:0:0:
384,48,21551,2,0,P|391:86|384:126,1,80,8|0,0:0|0:0,0:0:0:0:
263,98,22020,1,2,0:0:0:0:
136,64,22254,1,2,0:0:0:0:
64,172,22489,1,8,0:0:0:0:
191,138,22723,1,2,0:0:0:0:
40,124,22958,6,0,L|28:228,1,80,4|0,1:2|0:0,0:0:0:0:
52,244,23309,1,0,0:0:0:0:
52,244,23426,2,0,P|92:236|140:244,1,80,8|2,0:0|0:0,0:0:0:0:
236,308,23895,2,0,P|276:316|324:308,1,80,0|2,1:0|0:0,0:0:0:0:
356,284,24247,2,0,L|415:294,1,40,0|8,0:0|0:0,0:0:0:0:
492,344,24598,1,0,0:0:0:0:
460,216,24833,6,0,P|452:172|468:116,1,80,0|0,1:0|0:0,0:0:0:0:
444,92,25184,1,0,0:0:0:0:
444,92,25301,2,0,L|364:101,1,80,8|2,0:0|0:0,0:0:0:0:
284,204,25770,2,0,L|363:194,1,80,0|2,1:0|0:0,0:0:0:0:
363,194,26122,1,0,0:0:0:0:
363,194,26239,1,8,0:0:0:0:
276,112,26473,1,2,0:0:0:0:
208,236,26708,6,0,P|236:272|288:288,1,80,0|0,1:0|0:0,0:0:0:0:
292,328,27059,1,0,0:0:0:0:
292,328,27176,2,0,L|212:337,1,80,8|2,0:0|0:0,0:0:0:0:
104,260,27645,2,0,L|24:250,1,80,0|2,1:0|0:0,0:0:0:0:
8,296,27997,2,0,L|12:335,1,40,0|8,0:0|0:0,0:0:0:0:
104,260,28348,1,0,0:0:0:0:
104,164,28583,6,0,L|88:68,1,80
208,40,29051,2,0,L|194:118,1,80
317,118,29520,2,0,L|304:40,1,80
421,85,29989,5,0,0:0:0:0:
417,104,30106,1,0,0:0:0:0:
414,124,30223,1,0,0:0:0:0:
411,144,30340,1,0,0:0:0:0:
408,164,30458,6,0,L|416:240,1,60.0000022888184,4|0,1:3|0:0,0:0:0:0:
317,118,30926,2,0,L|325:194,1,60.0000022888184,0|0,1:0|0:0,0:0:0:0:
235,246,31395,6,0,L|228:186,1,60.0000022888184,8|0,1:2|0:0,0:0:0:0:
144,200,31863,2,0,L|137:140,1,60.0000022888184,0|0,1:0|0:0,0:0:0:0:
80,248,32333,6,0,P|112:272|120:272,3,30.0000011444092,0|0|0|0,1:0|0:0|0:0|0:0,0:0:0:0:
140,196,32801,2,0,P|108:172|100:172,3,30.0000011444092,0|0|0|0,1:0|0:0|0:0|0:0,0:0:0:0:
184,268,33270,6,0,L|244:264,1,60.0000022888184,8|0,1:2|0:0,0:0:0:0:
408,324,33739,2,0,L|348:328,1,60.0000022888184,0|0,1:0|0:0,0:0:0:0:
256,252,34208,5,0,1:0:0:0:
336,112,34676,1,0,1:0:0:0:
408,324,35145,2,0,L|348:328,2,60.0000022888184,8|0|0,1:2|0:0|1:0,0:0:0:0:
480,256,35848,2,0,B|456:212|456:212|472:140,1,120.000004577637
424,72,36551,1,0,1:0:0:0:
348,128,36786,2,0,P|292:148|240:124,1,120.000004577637
204,48,37489,2,0,P|244:40|268:48,1,60.0000022888184,0|0,1:0|0:0,0:0:0:0:
176,180,37958,6,0,P|136:188|112:180,1,60.0000022888184,4|0,1:2|0:0,0:0:0:0:
52,120,38426,1,0,1:0:0:0:
50,105,38543,1,0,0:0:0:0:
48,90,38660,1,0,0:0:0:0:
46,75,38777,1,0,0:0:0:0:
44,60,38894,5,8,1:2:0:0:
144,84,39129,1,0,0:0:0:0:
244,40,39364,1,0,1:0:0:0:
344,64,39599,1,0,0:0:0:0:
444,52,39833,6,0,L|364:48,1,60.0000022888184,0|0,1:0|0:0,0:0:0:0:
468,136,40301,2,0,L|408:133,1,60.0000022888184,0|0,1:0|0:0,0:0:0:0:
372,217,40770,6,0,L|432:220,1,60.0000022888184,8|0,1:2|0:0,0:0:0:0:
396,301,41238,2,0,L|456:304,1,60.0000022888184,0|0,1:0|0:0,0:0:0:0:
328,364,41708,5,4,1:0:0:0:
228,284,41942,1,0,0:0:0:0:
116,348,42176,1,8,1:0:0:0:
44,240,42411,2,0,B|64:124|64:124|72:176,1,160,4|8,1:0|1:0,0:0:0:0:
136,236,43114,1,8,1:0:0:0:
267,197,43348,2,0,P|211:250|135:235,1,160,4|8,1:0|1:0,0:0:0:0:
70,165,44051,1,8,1:0:0:0:
244,48,44286,1,0,0:0:0:0:
189,174,44520,6,0,L|200:48,2,120,0|0|0,1:0|0:0|0:0,0:0:0:0:
236,260,45458,2,4,P|268:288|352:172,1,240,4|4,1:1|0:1,0:1:0:0:
299,221,46395,2,0,L|308:132,2,80,0|0|8,1:0|0:0|1:0,0:0:0:0:
366,244,47098,6,0,L|197:232,1,160,2|8,1:0|1:0,0:0:0:0:
44,288,47801,1,8,1:0:0:0:
140,156,48036,2,0,L|147:40,1,80,2|0,1:0|0:0,0:0:0:0:
148,64,48348,2,0,L|168:36,5,26.6666666666667,0|0|0|0|0|0,3:0|3:0|3:0|3:0|3:0|3:0,3:0:0:0:
256,152,48973,2,0,P|332:168|380:104,1,160,2|8,1:0|1:0,0:0:0:0:
307,96,49676,1,8,1:0:0:0:
424,288,49911,5,0,0:0:0:0:
422,297,50145,5,0,0:0:0:0:
421,304,50379,5,0,0:0:0:0:
420,312,50614,5,0,0:0:0:0:
420,320,51083,6,0,L|320:308,1,88.000002685547,4|0,0:0|0:0,0:0:0:0:
268,256,51434,1,0,0:0:0:0:
268,256,51551,2,0,P|260:208|280:144,1,88.000002685547,8|0,0:0|0:0,0:0:0:0:
389,136,52020,2,0,L|337:224,1,88.000002685547,0|0,0:0|0:2,0:0:0:0:
344,211,52372,1,0,0:0:0:0:
344,211,52489,1,8,0:0:0:0:
267,169,52723,1,0,0:0:0:0:
183,272,52958,6,0,P|231:268|299:244,1,88.000002685547,4|0,0:0|0:0,0:0:0:0:
343,299,53309,1,0,0:0:0:0:
343,299,53426,2,0,L|430:309,1,88.000002685547,8|0,0:0|0:0,0:0:0:0:
308,376,53895,2,0,P|262:372|196:376,1,88.000002685547
88,376,54364,1,10,0:0:0:0:
152,256,54598,1,2,0:2:0:0:
99,128,54833,6,0,P|59:176|91:256,1,132.00000402832,4|0,0:0|2:0,0:0:0:0:
152,256,55301,2,0,L|204:248,1,44.0000013427735,8|0,0:0|2:0,0:0:0:0:
272,288,55536,2,0,L|408:300,1,132.00000402832,0|0,0:0|2:0,0:0:0:0:
460,364,56004,1,2,0:2:0:0:
336,364,56239,1,10,0:0:0:0:
396,216,56473,1,0,0:0:0:0:
254,204,56708,6,0,P|262:272|299:316,1,88.000002685547
140,324,57176,2,0,L|52:312,1,88.000002685547,8|0,0:0|0:0,0:0:0:0:
8,184,57645,1,0,0:0:0:0:
124,120,57879,1,0,0:0:0:0:
236,192,58114,1,10,0:0:0:0:
180,72,58348,1,2,0:2:0:0:
176,252,58583,6,0,P|216:272|276:268,1,88.000002685547,4|0,0:0|0:0,0:0:0:0:
328,224,58934,1,0,0:0:0:0:
328,224,59051,2,0,L|312:132,1,88.000002685547,8|0,0:0|0:0,0:0:0:0:
440,80,59520,2,0,L|424:172,1,88.000002685547
424,166,59872,1,0,0:0:0:0:
424,166,59989,1,8,0:0:0:0:
312,137,60223,1,0,0:0:0:0:
344,302,60458,6,0,P|355:259|352:216,1,88.000002685547,4|0,0:0|0:0,0:0:0:0:
316,140,60809,1,0,0:0:0:0:
316,140,60926,2,0,L|196:159,1,88.000002685547,8|0,0:0|0:0,0:0:0:0:
164,268,61395,2,0,L|250:254,1,88.000002685547
200,376,61864,1,10,0:0:0:0:
80,344,62098,1,2,0:2:0:0:
64,212,62333,6,0,P|80:160|48:80,1,132.00000402832,4|0,0:0|2:0,0:0:0:0:
112,28,62801,2,0,L|168:40,1,44.0000013427735,8|0,0:0|2:0,0:0:0:0:
220,96,63036,2,0,L|352:76,1,132.00000402832,0|0,0:0|2:0,0:0:0:0:
416,128,63504,1,2,0:2:0:0:
444,256,63739,1,10,0:0:0:0:
320,208,63973,1,2,0:2:0:0:
304,340,64208,6,0,P|340:312|368:268,1,88.000002685547,4|0,0:0|0:0,0:0:0:0:
232,284,64676,2,0,L|120:304,1,88.000002685547,8|0,0:0|0:0,0:0:0:0:
52,376,65145,1,0,0:0:0:0:
72,236,65379,1,2,0:2:0:0:
72,236,65497,1,0,0:0:0:0:
72,236,65614,1,10,0:0:0:0:
145,299,65848,1,0,0:0:0:0:
165,159,66083,6,0,P|320:152|264:360,1,440.000013427735,4|0,0:0|0:0,0:0:0:0:
145,299,67489,1,8,0:0:0:0:
48,360,67723,1,0,0:0:0:0:
0,240,67958,6,0,L|8:152,1,88.000002685547,4|0,0:0|0:0,0:0:0:0:
172,71,68426,2,0,L|164:159,1,88.000002685547,8|0,0:0|0:0,0:0:0:0:
3,209,68895,2,0,L|11:121,1,88.000002685547
175,40,69364,2,0,L|167:128,1,88.000002685547,10|2,0:0|0:2,0:0:0:0:
256,248,69833,6,0,P|320:264|373:204,1,132.00000402832,4|0,0:0|2:0,0:0:0:0:
303,193,70301,1,8,0:0:0:0:
372,104,70536,2,0,L|467:109,1,88.000002685547
288,60,71004,2,0,L|200:65,1,88.000002685547,0|8,0:0|0:0,0:0:0:0:
108,48,71473,2,0,B|112:27|128:12|128:12|86:23|75:90|108:129,1,176.000005371094,4|2,0:0|0:2,0:0:0:0:
80,216,72176,2,0,P|32:240|0:236,1,88.000002685547,10|0,0:0|0:0,0:0:0:0:
148,380,72645,5,0,0:0:0:0:
164,288,72879,5,0,0:0:0:0:
180,196,73114,5,8,0:0:0:0:
180,196,73583,6,0,P|228:172|260:176,1,88.000002685547,4|0,0:0|0:0,0:0:0:0:
324,120,74051,2,0,P|348:168|344:200,1,88.000002685547
400,260,74520,2,0,P|352:284|320:280,1,88.000002685547
256,336,74989,1,10,0:0:0:0:
343,200,75223,1,2,0:2:0:0:
200,128,75458,6,0,L|112:136,1,88.000002685547,4|0,0:0|0:0,0:0:0:0:
212,112,75926,2,0,L|124:120,1,88.000002685547
312,128,76395,6,0,L|400:136,1,88.000002685547,2|0,0:2|0:0,0:0:0:0:
300,112,76864,2,0,L|388:120,1,88.000002685547,10|0,0:0|0:0,0:0:0:0:
480,212,77333,6,0,B|484:236|468:256|468:256|416:240|372:272|372:272|328:248|264:248|232:292|220:328|220:328|180:276|116:296,1,440.000013427735,4|0,0:0|0:0,0:0:0:0:
148,372,78739,1,10,0:0:0:0:
44,232,78973,2,0,P|44:160|132:184,1,176.000005371094,2|0,0:0|0:0,0:0:0:0:
126,170,79676,2,0,P|151:118|191:113,1,88.000002685547,8|0,0:0|0:0,0:0:0:0:
176,111,80028,1,0,0:0:0:0:
176,111,80145,5,0,0:0:0:0:
309,252,80379,1,2,0:0:0:0:
285,60,80614,1,10,0:0:0:0:
191,228,80848,1,2,0:0:0:0:
365,148,81083,6,0,L|464:160,1,88.000002685547,4|0,0:0|0:0,0:0:0:0:
488,236,81434,1,0,0:0:0:0:
488,236,81551,2,0,P|444:227|396:236,1,88.000002685547,8|0,0:0|0:0,0:0:0:0:
296,336,82020,2,0,L|208:325,1,88.000002685547
132,360,82372,1,0,0:0:0:0:
132,360,82489,2,0,P|126:316|152:256,1,88.000002685547,8|0,0:0|0:0,0:0:0:0:
220,152,82958,6,0,P|224:104|204:52,1,88.000002685547,4|0,0:0|0:0,0:0:0:0:
152,204,83426,1,8,0:0:0:0:
300,156,83661,1,0,0:0:0:0:
140,120,83895,2,0,P|100:136|72:180,1,88.000002685547
84,256,84247,1,0,0:0:0:0:
84,256,84364,2,0,L|184:248,1,88.000002685547,8|0,0:0|0:0,0:0:0:0:
268,140,84833,5,4,0:0:0:0:
244,244,85067,1,8,0:0:0:0:
224,124,85301,5,8,0:0:0:0:
288,260,85536,1,8,0:0:0:0:
180,136,85770,6,0,P|164:184|176:236,1,88.000002685547,4|8,0:0|0:0,0:0:0:0:
342,163,86239,1,0,0:0:0:0:
356,136,86356,1,0,0:0:0:0:
360,104,86473,1,0,0:0:0:0:
352,76,86590,1,0,0:0:0:0:
336,48,86708,1,4,0:1:0:0:
256,192,86825,12,0,89051,0:0:0:0:
