osu file format v14

[General]
AudioFilename: audio.mp3
AudioLeadIn: 0
PreviewTime: 56279
Countdown: 1
SampleSet: Soft
StackLeniency: 0.7
Mode: 0
LetterboxInBreaks: 0
WidescreenStoryboard: 0

[Editor]
DistanceSpacing: 0.8
BeatDivisor: 4
GridSize: 8
TimelineZoom: 2.5

[Metadata]
Title:Daisuki. (TV Size)
TitleUnicode:ダイスキ。(TV Size)
Artist:Ayaka Ohashi
ArtistUnicode:大橋彩香
Creator:lililing
Version:Normal
Source:可愛ければ変態でも好きになってくれますか?
Tags:Kawaikereba Hentai demo Suki ni Natte Kuremasu ka? OP opening anime Kanata Okajima
BeatmapID:2110284
BeatmapSetID:1008299

[Difficulty]
HPDrainRate:3
CircleSize:3.5
OverallDifficulty:4
ApproachRate:5
SliderMultiplier:1.4
SliderTickRate:1

[Events]
//Background and Video events
0,0,"677_pgi01_l.jpg",0,0
Video,0,"mv.mp4"
//Break Periods
//Storyboard Layer 0 (Background)
//Storyboard Layer 1 (Fail)
//Storyboard Layer 2 (Pass)
//Storyboard Layer 3 (Foreground)
//Storyboard Sound Samples

[TimingPoints]
-460,434.782608695652,4,2,2,80,1,0
6496,-100,4,2,1,60,0,0
8235,-100,4,2,1,80,0,0
15192,-100,4,2,1,40,0,0
27583,-100,4,2,1,60,0,0
29105,-100,4,2,1,80,0,0
43018,-100,4,2,1,40,0,0
49974,-100,4,2,1,60,0,0
54974,-100,4,2,1,40,0,0
55409,-100,4,2,1,60,0,0
56931,-100,4,2,1,80,0,1
69105,-100,4,2,1,80,0,0
70844,-100,4,2,1,80,0,1
83018,-100,4,2,1,60,0,0
84757,-100,4,2,1,40,0,0
86496,-100,4,2,1,20,0,0
88235,-100,4,2,1,10,0,0

[Colours]
Combo1 : 255,0,255
Combo2 : 255,128,64
Combo3 : 0,0,255
Combo4 : 255,0,0
Combo5 : 0,255,0

[HitObjects]
147,97,626,6,0,L|93:12,2,70,0|0|0,2:2|2:2|2:2,2:2:0:0:
139,152,1279,2,0,P|224:111|323:161,1,210,2|0,2:2|2:2,2:2:0:0:
369,259,2366,2,0,L|197:244,1,140,0|0,2:2|2:2,2:2:0:0:
213,357,3235,2,0,L|282:363,2,70,0|0|0,2:2|2:2|2:2,2:2:0:0:
156,354,3887,1,0,2:2:0:0:
100,348,4105,2,0,P|52:308|39:232,1,140,0|0,2:2|2:2,2:2:0:0:
58,181,4757,5,2,2:2:0:0:
139,253,5192,1,0,2:2:0:0:
214,170,5626,1,0,2:2:0:0:
249,276,6061,1,0,2:2:0:0:
353,234,6496,6,0,L|355:330,2,70,8|0|8,2:2|3:2|2:2,2:2:0:0:
346,178,7148,1,0,3:2:0:0:
329,126,7366,2,0,P|291:75|220:48,1,140,0|8,3:2|2:2,2:2:0:0:
165,51,8018,1,8,2:2:0:0:
165,51,8235,5,6,2:2:0:0:
152,162,8670,2,0,L|234:149,2,70,8|0|2,2:2|2:2|2:2,2:2:0:0:
41,181,9539,1,8,2:2:0:0:
112,267,9974,2,0,P|142:313|140:369,2,105,2|0|0,2:2|2:2|2:2,2:2:0:0:
55,263,10844,2,0,L|219:237,1,140,2|8,2:2|2:2,2:2:0:0:
305,202,11713,6,0,P|290:275|327:335,1,140,2|8,2:2|2:2,2:2:0:0:
375,339,12366,1,0,3:2:0:0:
426,317,12583,2,0,P|441:244|404:184,1,140,2|8,3:2|2:2,2:2:0:0:
345,98,13453,2,0,P|397:80|453:87,2,105,6|0|0,2:2|3:2|2:2,2:2:0:0:
303,201,14539,1,0,3:2:0:0:
303,201,14757,2,0,L|215:216,1,70,8|0,2:2|2:2,2:2:0:0:
190,177,15192,6,0,P|130:211|63:199,1,140,6|0,2:2|2:2,2:2:0:0:
20,163,15844,1,0,2:2:0:0:
68,62,16279,2,0,P|44:38|-3:19,2,70,0|0|0,2:2|2:2|2:2,2:2:0:0:
112,99,16931,6,0,P|155:72|214:69,2,105,2|2|2,2:3|2:3|2:3,2:2:0:0:
190,177,18018,1,0,2:2:0:0:
190,177,18235,1,0,2:2:0:0:
176,288,18670,2,0,L|314:264,1,140,2|0,2:2|2:2,2:2:0:0:
360,232,19322,2,0,P|354:266|353:301,1,70,0|0,2:2|2:2,2:2:0:0:
464,314,19974,2,0,P|469:279|470:244,1,70,0|0,2:2|2:2,2:2:0:0:
470,188,20409,6,0,L|467:78,2,105,2|2|2,2:3|2:3|2:3,2:2:0:0:
377,125,21496,2,0,L|357:58,2,70,0|0|0,2:2|2:2|2:2,2:2:0:0:
324,105,22148,2,0,P|263:74|204:105,1,140,2|0,2:2|2:2,2:2:0:0:
179,154,22800,2,0,P|88:107|0:154,1,210,0|0,2:2|1:2,2:2:0:0:
90,219,23887,6,0,P|146:279|146:333,1,140,2|0,2:2|2:2,2:2:0:0:
117,381,24539,1,0,2:2:0:0:
229,377,24974,2,0,P|273:324|270:256,1,140,0|0,2:2|2:2,2:2:0:0:
231,215,25626,6,0,L|370:224,1,140,2|0,2:2|2:2,2:2:0:0:
426,229,26278,1,0,2:2:0:0:
381,126,26713,2,0,L|213:114,1,140,0|0,2:2|2:2,2:2:0:0:
129,109,27583,1,8,2:2:0:0:
129,109,27800,1,8,2:2:0:0:
28,157,28235,2,0,P|17:104|40:42,2,105,2|0|0,2:2|3:2|3:2,2:2:0:0:
66,197,29105,6,0,P|46:263|48:333,1,140,6|8,2:2|2:2,2:2:0:0:
158,353,29974,2,0,P|178:286|176:216,1,140,2|8,2:2|2:2,2:2:0:0:
137,111,30844,1,2,2:2:0:0:
241,151,31279,2,0,P|274:161|309:160,1,70,8|0,2:2|2:2,2:2:0:0:
356,130,31713,2,0,P|390:129|424:139,2,70,2|0|8,2:2|3:2|2:2,2:2:0:0:
377,240,32583,6,0,P|356:306|358:376,1,140,2|8,2:2|2:2,2:2:0:0:
246,379,33453,2,0,P|247:309|227:242,1,140,2|8,2:2|2:2,2:2:0:0:
132,312,34322,2,0,L|1:259,1,140,2|8,2:2|2:2,2:2:0:0:
98,200,35192,2,0,L|33:173,2,70,2|0|8,2:2|3:2|2:2,2:2:0:0:
63,93,36061,2,0,P|117:102|168:78,2,105,2|2|2,2:3|2:3|2:3,2:2:0:0:
11,69,36931,1,2,2:2:0:0:
103,5,37366,1,8,2:2:0:0:
207,45,37800,6,0,P|255:25|306:35,2,105,2|2|2,2:3|2:3|2:3,2:2:0:0:
162,83,38670,1,2,2:2:0:0:
162,83,38887,2,0,L|162:174,1,70,0|8,3:2|2:2,2:2:0:0:
265,109,39539,5,2,2:2:0:0:
283,219,39974,1,8,2:2:0:0:
386,175,40409,1,2,2:2:0:0:
431,276,40844,1,8,2:2:0:0:
328,322,41279,2,0,L|254:356,2,70,2|0|8,3:2|2:2|2:2,2:2:0:0:
221,286,42148,2,0,L|139:278,2,70,2|0|8,2:2|2:2|2:2,2:2:0:0:
145,202,43018,6,0,P|78:182|29:133,1,140,6|0,2:2|2:2,2:2:0:0:
15,79,43670,2,0,P|88:92|158:79,1,140,0|0,2:2|2:2,2:2:0:0:
205,63,44322,1,8,1:2:0:0:
317,65,44757,2,0,P|369:55|436:69,2,105,0|0|0,3:2|3:2|3:2,2:2:0:0:
372,223,46061,1,8,1:2:0:0:
445,307,46496,6,0,P|384:333|312:316,1,140,2|0,2:2|2:2,2:2:0:0:
271,281,47148,2,0,P|203:265|140:291,1,140,0|0,2:2|2:2,2:2:0:0:
98,329,47800,1,8,1:2:0:0:
67,221,48235,2,0,L|32:95,2,105,0|0|0,3:2|3:2|3:2,2:2:0:0:
229,177,49539,1,8,1:2:0:0:
332,134,49974,6,0,P|391:164|464:138,1,140,2|8,2:2|2:2,2:2:0:0:
461,30,50844,2,0,P|402:0|329:25,1,140,2|8,2:2|2:2,2:2:0:0:
236,74,51713,2,0,L|96:69,1,140,2|8,2:2|2:2,2:2:0:0:
95,181,52583,2,0,L|235:176,1,140,2|8,2:2|2:2,2:2:0:0:
230,288,53453,2,0,L|159:285,2,70,0|0|0,3:2|2:2|3:2,2:2:0:0:
330,338,54322,2,0,L|400:335,2,70,0|0|0,3:2|3:2|3:2,2:2:0:0:
336,282,54974,2,0,P|438:213|330:112,1,280,0|0,3:2|1:2,2:2:0:0:
250,113,56279,2,0,L|298:32,2,70,0|8|0,3:2|2:2|2:2,2:2:0:0:
248,169,56931,6,0,P|180:143|101:151,1,140,6|8,2:2|2:2,2:2:0:0:
63,171,57583,1,0,2:2:0:0:
90,279,58018,2,0,P|158:305|237:297,1,140,0|0,2:2|2:2,2:2:0:0:
323,248,58887,1,0,2:2:0:0:
293,199,59105,2,0,P|258:201|223:194,1,70,8|0,2:2|2:2,2:2:0:0:
173,170,59539,2,0,P|138:163|103:164,2,70,2|0|8,2:2|1:2|2:2,2:2:0:0:
267,109,60409,5,2,2:2:0:0:
376,132,60844,1,8,2:2:0:0:
486,149,61279,2,0,L|493:69,2,70,2|0|8,2:2|2:2|2:2,2:2:0:0:
478,204,61931,1,0,2:2:0:0:
478,204,62148,2,0,P|459:273|472:341,1,140,2|8,2:2|2:2,2:2:0:0:
358,340,63018,2,0,L|351:260,2,70,2|0|8,2:2|1:2|2:2,2:2:0:0:
245,339,63887,5,2,2:2:0:0:
245,339,64105,2,0,P|186:311|117:339,1,140,0|0,2:2|2:2,2:2:0:0:
79,374,64757,2,0,P|51:354|0:350,2,70,2|0|8,2:2|2:2|2:2,2:2:0:0:
93,262,65626,5,2,2:2:0:0:
78,207,65844,2,0,P|142:227|222:212,1,140,0|0,2:2|2:2,2:2:0:0:
254,178,66496,2,0,P|288:176|340:183,2,70,2|0|8,3:2|1:2|2:2,2:2:0:0:
153,127,67366,5,2,2:2:0:0:
204,27,67800,1,8,2:2:0:0:
302,80,68235,1,2,2:2:0:0:
399,25,68670,2,0,P|412:60|415:99,1,70,8|0,2:2|2:2,2:2:0:0:
412,148,69105,2,0,P|399:180|395:215,2,70,2|0|0,2:2|1:2|1:2,2:2:0:0:
480,236,69974,1,0,3:2:0:0:
480,236,70192,2,0,P|492:203|496:168,2,70,0|8|8,3:2|2:2|2:2,2:2:0:0:
493,290,70844,6,0,P|430:258|361:256,1,140,6|8,2:2|2:2,2:2:0:0:
311,281,71496,1,0,2:2:0:0:
221,348,71931,2,0,P|151:345|89:314,1,140,0|0,2:2|2:2,2:2:0:0:
176,243,72800,1,0,2:2:0:0:
176,243,73018,2,0,P|166:214|166:173,1,70,8|0,2:2|2:2,2:2:0:0:
133,129,73453,2,0,P|96:130|63:119,2,70,2|0|8,2:2|1:2|2:2,2:2:0:0:
117,17,74322,5,2,2:2:0:0:
222,56,74757,1,8,2:2:0:0:
325,13,75192,2,0,P|395:1|477:15,1,140,2|8,2:2|2:2,2:2:0:0:
494,56,75844,1,0,2:2:0:0:
494,56,76061,2,0,L|477:141,2,70,2|0|8,2:2|2:2|2:2,2:2:0:0:
391,101,76931,2,0,L|359:181,2,70,2|0|8,2:2|1:2|2:2,2:2:0:0:
280,120,77800,5,2,2:2:0:0:
280,120,78018,2,0,L|202:247,1,140,0|0,2:2|2:2,2:2:0:0:
200,295,78670,2,0,P|164:288|111:299,2,70,2|0|8,2:2|1:2|2:2,2:2:0:0:
296,352,79539,5,2,2:2:0:0:
296,352,79757,2,0,P|351:362|432:345,1,140,0|0,2:2|2:2,2:2:0:0:
473,307,80409,2,0,L|464:384,2,70,2|0|8,2:2|1:2|2:2,2:2:0:0:
482,195,81279,5,2,2:2:0:0:
381,243,81713,1,8,2:2:0:0:
340,138,82148,1,2,2:2:0:0:
227,140,82583,2,0,P|189:148|146:143,1,70,8|0,2:2|1:2,2:2:0:0:
110,116,83018,6,0,P|75:114|41:121,2,70,2|0|0,2:2|1:2|1:2,2:2:0:0:
122,227,83887,2,0,P|87:234|53:232,2,70,0|0|8,3:2|3:2|2:2,2:2:0:0:
256,192,84757,12,0,88235,2:2:0:0:
