osu file format v14

[General]
AudioFilename: audio.mp3
AudioLeadIn: 0
PreviewTime: 56279
Countdown: 1
SampleSet: Soft
StackLeniency: 0.7
Mode: 0
LetterboxInBreaks: 0
WidescreenStoryboard: 1

[Editor]
DistanceSpacing: 1.4
BeatDivisor: 4
GridSize: 8
TimelineZoom: 2.5

[Metadata]
Title:Daisuki. (TV Size)
TitleUnicode:ダイスキ。(TV Size)
Artist:Ayaka Ohashi
ArtistUnicode:大橋彩香
Creator:lililing
Version:Insane
Source:可愛ければ変態でも好きになってくれますか?
Tags:Kawaikereba Hentai demo Suki ni Natte Kuremasu ka? OP opening anime Kanata Okajima
BeatmapID:2113137
BeatmapSetID:1008299

[Difficulty]
HPDrainRate:5
CircleSize:4.2
OverallDifficulty:8
ApproachRate:9
SliderMultiplier:1.8
SliderTickRate:1

[Events]
//Background and Video events
0,0,"677_pgi01_l.jpg",0,0
Video,0,"mv.mp4"
//Break Periods
//Storyboard Layer 0 (Background)
//Storyboard Layer 1 (Fail)
//Storyboard Layer 2 (Pass)
//Storyboard Layer 3 (Foreground)
//Storyboard Sound Samples

[TimingPoints]
-460,434.782608695652,4,2,2,80,1,0
1279,-100,4,2,2,60,0,0
6496,-100,4,2,1,60,0,0
8235,-83.3333333333333,4,2,1,80,0,0
15192,-100,4,2,1,40,0,0
17583,-200,4,2,1,40,0,0
17800,-100,4,2,1,40,0,0
21061,-200,4,2,1,40,0,0
21279,-100,4,2,1,40,0,0
27583,-100,4,2,1,60,0,0
29105,-83.3333333333333,4,2,1,80,0,0
43018,-100,4,2,1,40,0,0
49974,-83.3333333333333,4,2,1,60,0,0
53453,-83.3333333333333,4,2,1,60,0,0
54974,-166.666666666667,4,2,1,40,0,0
55409,-83.3333333333333,4,2,1,60,0,0
56931,-66.6666666666667,4,2,1,80,0,1
69105,-55.5555555555556,4,2,1,80,0,0
70844,-66.6666666666667,4,2,1,80,0,1
83018,-100,4,2,1,60,0,0
84757,-133.333333333333,4,2,1,40,0,0
86496,-200,4,2,1,20,0,0
88235,-400,4,2,1,10,0,0

[Colours]
Combo1 : 255,0,255
Combo2 : 255,128,64
Combo3 : 0,0,255
Combo4 : 255,0,0
Combo5 : 0,255,0

[HitObjects]
59,117,626,6,0,P|92:88|136:70,2,90,0|0|0,2:2|2:2|2:2,2:2:0:0:
115,209,1279,2,0,P|196:171|282:213,1,180,2|0,2:2|2:2,2:2:0:0:
197,280,1931,1,0,2:2:0:0:
282,345,2148,2,0,P|280:322|286:292,2,45,0|0|0,2:2|2:2|2:2,2:2:0:0:
390,350,2583,2,0,P|393:327|391:305,1,45,0|0,2:2|2:2,2:2:0:0:
388,251,2800,2,0,P|380:229|379:207,1,45,0|0,2:2|2:2,2:2:0:0:
407,160,3018,6,0,P|361:161|313:136,1,90,2|0,2:2|2:2,2:2:0:0:
343,37,3453,2,0,P|388:36|436:61,1,90,0|0,2:2|2:2,2:2:0:0:
244,67,3887,2,0,L|157:45,1,90,0|0,2:2|2:2,2:2:0:0:
52,15,4322,1,0,2:2:0:0:
80,118,4539,1,0,2:2:0:0:
80,118,4648,1,0,2:2:0:0:
80,118,4757,6,0,P|119:172|91:233,1,135,2|0,2:2|2:2,2:2:0:0:
46,253,5192,2,0,P|109:232|158:278,1,135,0|0,2:2|2:2,2:2:0:0:
163,326,5626,2,0,P|163:259|221:226,1,135,0|0,2:2|2:2,2:2:0:0:
269,236,6061,2,0,P|205:215|192:149,1,135,0|0,2:2|2:2,2:2:0:0:
217,108,6496,5,8,2:2:0:0:
322,85,6713,2,0,L|287:42,2,45,0|0|8,3:2|3:2|2:2,2:2:0:0:
393,166,7148,5,0,3:2:0:0:
406,199,7257,1,0,3:2:0:0:
412,239,7366,1,0,3:2:0:0:
403,282,7474,1,0,3:2:0:0:
379,325,7583,1,0,3:2:0:0:
337,360,7692,1,0,3:2:0:0:
284,371,7800,2,0,L|243:344,1,45,8|0,2:2|2:2,2:2:0:0:
269,236,8018,2,0,L|306:260,1,45,8|0,2:2|2:2,2:2:0:0:
144,279,8235,6,0,P|150:173|242:107,1,215.999993408203,6|8,2:2|2:2,2:2:0:0:
393,166,8887,1,0,2:2:0:0:
477,341,9105,2,0,P|490:288|480:236,1,107.999996704102,2|0,3:2|2:2,2:2:0:0:
315,337,9539,2,0,P|301:284|311:232,1,107.999996704102,8|0,2:2|2:2,2:2:0:0:
497,142,9974,6,0,L|392:165,1,107.999996704102,2|0,2:2|2:2,2:2:0:0:
287,138,10300,1,0,2:2:0:0:
287,138,10409,1,8,2:2:0:0:
398,299,10626,1,0,2:2:0:0:
197,279,10844,1,2,2:2:0:0:
197,279,10953,2,0,L|142:278,1,53.9999983520508,0|0,2:2|2:2,2:2:0:0:
158,83,11279,2,0,P|136:131|144:184,1,107.999996704102,8|0,2:2|2:2,2:2:0:0:
23,336,11713,6,0,P|44:287|36:234,1,107.999996704102,2|0,2:2|2:2,2:2:0:0:
239,144,12148,1,8,2:2:0:0:
143,278,12366,1,0,1:2:0:0:
143,278,12474,1,0,1:2:0:0:
143,278,12583,2,0,L|261:280,1,107.999996704102,2|0,3:2|2:2,2:2:0:0:
402,285,13018,1,8,2:2:0:0:
210,135,13235,1,0,2:2:0:0:
455,146,13453,5,6,2:2:0:0:
334,51,13670,1,0,1:2:0:0:
334,51,13779,1,0,1:2:0:0:
334,51,13887,1,8,2:2:0:0:
250,279,14105,2,0,L|143:278,1,107.999996704102,0|2,2:2|2:2,2:2:0:0:
283,197,14539,1,0,3:2:0:0:
139,120,14757,2,0,L|246:121,1,107.999996704102,8|0,2:2|2:2,2:2:0:0:
357,240,15192,6,0,P|368:199|355:151,1,90,6|0,2:2|2:2,2:2:0:0:
250,279,15626,1,0,2:2:0:0:
208,154,15844,2,0,P|238:184|286:196,1,90,0|0,2:2|2:2,2:2:0:0:
357,68,16279,2,0,P|315:78|280:114,2,90,0|0|0,2:2|2:2|2:2,2:2:0:0:
149,68,16931,6,0,L|194:66,1,45,2|0,2:3|2:2,2:2:0:0:
98,174,17257,2,0,L|135:149,1,45,2|0,2:3|2:2,2:2:0:0:
107,292,17583,2,0,L|126:251,1,45,2|0,2:3|2:2,2:2:0:0:
210,318,18018,5,0,2:2:0:0:
211,340,18126,1,0,2:2:0:0:
212,362,18235,2,0,P|260:354|300:362,1,90,0|0,1:2|2:2,2:2:0:0:
439,300,18670,6,0,P|394:308|350:299,2,90,2|0|0,2:2|2:2|2:2,2:2:0:0:
398,199,19322,1,0,2:2:0:0:
440,34,19539,2,0,P|448:79|439:123,1,90,0|0,2:2|2:2,2:2:0:0:
356,123,19866,1,0,2:2:0:0:
357,122,19974,2,0,P|348:78|357:34,1,90,0|0,2:2|2:2,2:2:0:0:
258,80,20409,6,0,L|208:102,1,45,2|0,2:3|2:2,2:2:0:0:
103,65,20735,2,0,L|147:97,1,45,2|0,2:3|2:2,2:2:0:0:
168,207,21061,2,0,L|173:152,1,45,2|0,2:3|2:2,2:2:0:0:
107,272,21496,2,0,P|94:314|105:361,2,90,0|0|0,2:2|1:2|2:2,2:2:0:0:
233,272,22148,6,0,P|242:315|229:358,1,90,2|0,2:2|2:2,2:2:0:0:
168,207,22583,1,0,2:2:0:0:
270,174,22800,2,0,P|329:240|349:326,1,180,0|0,2:2|2:2,2:2:0:0:
458,329,23453,2,0,P|463:283|481:238,1,90,0|0,1:2|2:2,2:2:0:0:
406,162,23887,6,0,P|421:120|426:75,1,90,2|0,2:2|2:2,2:2:0:0:
319,94,24322,1,0,2:2:0:0:
212,111,24539,2,0,L|26:82,1,180,0|0,2:2|2:2,2:2:0:0:
120,199,25192,2,0,L|208:185,1,90,0|0,1:2|2:2,2:2:0:0:
75,276,25626,6,0,P|41:241|30:195,1,90,2|0,2:2|2:2,2:2:0:0:
164,276,26061,1,0,2:2:0:0:
22,356,26279,2,0,L|199:383,1,180,0|0,2:2|2:2,2:2:0:0:
341,248,26931,2,0,L|164:276,1,180,0|2,1:2|2:2,2:2:0:0:
163,276,27583,5,8,2:2:0:0:
443,281,27800,2,0,P|449:236|432:190,1,90,8|0,2:2|2:2,2:2:0:0:
364,353,28235,1,2,2:2:0:0:
322,116,28561,1,0,3:2:0:0:
326,138,28670,1,8,2:2:0:0:
170,320,28887,1,0,3:2:0:0:
167,298,28995,1,0,3:2:0:0:
163,276,29105,6,0,L|144:169,1,107.999996704102,6|0,2:2|2:2,2:2:0:0:
307,31,29539,2,0,L|326:138,1,107.999996704102,8|0,2:2|2:2,2:2:0:0:
70,88,29974,2,0,P|115:61|173:62,1,107.999996704102,2|0,2:2|2:2,2:2:0:0:
396,212,30409,2,0,P|345:239|292:236,1,107.999996704102,8|0,2:2|2:2,2:2:0:0:
428,110,30844,6,0,P|476:140|501:187,1,107.999996704102,2|0,2:2|2:2,2:2:0:0:
326,138,31279,2,0,L|307:31,1,107.999996704102,8|0,2:2|2:2,2:2:0:0:
396,212,31713,1,2,2:2:0:0:
226,161,31931,1,0,3:2:0:0:
366,311,32148,2,0,P|420:313|471:284,1,107.999996704102,8|0,2:2|2:2,2:2:0:0:
266,335,32583,6,0,P|212:333|161:362,1,107.999996704102,2|0,2:2|2:2,2:2:0:0:
226,161,33018,2,0,P|250:208|248:261,1,107.999996704102,8|0,2:2|2:2,2:2:0:0:
112,193,33453,2,0,P|110:247|139:298,1,107.999996704102,2|0,2:2|2:2,2:2:0:0:
325,125,33887,1,8,2:2:0:0:
145,94,34105,1,0,2:2:0:0:
344,22,34322,6,0,L|453:38,1,107.999996704102,2|0,2:2|2:2,2:2:0:0:
325,125,34757,2,0,L|434:141,1,107.999996704102,8|0,2:2|2:2,2:2:0:0:
244,58,35192,1,2,2:2:0:0:
112,193,35409,5,0,3:2:0:0:
112,193,35518,1,0,3:2:0:0:
112,193,35626,2,0,P|110:247|139:298,1,107.999996704102,8|0,2:2|2:2,2:2:0:0:
226,161,36061,6,0,P|250:208|248:261,1,107.999996704102,2|0,2:3|2:2,2:2:0:0:
216,354,36387,2,0,P|263:330|316:332,1,107.999996704102,2|0,2:3|2:2,2:2:0:0:
409,361,36713,2,0,P|385:314|387:261,2,107.999996704102,2|2|0,2:3|2:2|2:2,2:2:0:0:
481,239,37366,2,0,P|505:286|503:339,1,107.999996704102,8|0,2:2|2:2,2:2:0:0:
416,166,37800,6,0,P|392:119|394:66,1,107.999996704102,2|0,2:3|2:2,2:2:0:0:
328,38,38126,2,0,P|299:82|252:107,1,107.999996704102,2|0,2:3|2:2,2:2:0:0:
260,177,38453,2,0,P|312:179|357:207,1,107.999996704102,2|2,2:3|2:2,2:2:0:0:
230,266,38887,1,0,3:2:0:0:
230,266,38996,1,0,3:2:0:0:
231,266,39105,2,0,P|275:294|329:297,1,107.999996704102,8|0,2:2|2:2,2:2:0:0:
167,195,39539,6,0,P|123:167|69:164,1,107.999996704102,2|0,2:2|2:2,2:2:0:0:
196,104,39974,2,0,P|198:51|173:3,1,107.999996704102,8|0,2:2|2:2,2:2:0:0:
289,83,40409,2,0,P|335:58|364:13,1,107.999996704102,2|0,2:2|2:2,2:2:0:0:
353,153,40844,2,0,P|397:181|451:184,1,107.999996704102,8|0,2:2|2:2,2:2:0:0:
324,243,41279,6,0,L|307:294,3,53.9999983520508,2|0|0|0,3:2|2:2|2:2|2:2,3:2:0:0:
231,262,41713,2,0,L|190:298,3,53.9999983520508,0|0|0|0,3:2|2:2|2:2|2:2,3:2:0:0:
140,232,42148,2,0,P|85:229|37:198,1,107.999996704102,2|0,2:2|2:2,2:2:0:0:
81,78,42583,2,0,P|135:80|183:111,1,107.999996704102,8|0,2:2|2:2,2:2:0:0:
231,262,43018,6,0,P|166:326|78:305,1,180,6|0,2:2|2:2,2:2:0:0:
295,191,43670,2,0,P|256:170|212:169,2,90,0|0|0,2:2|2:2|2:2,2:2:0:0:
140,232,44322,2,0,P|118:190|119:140,1,90,8|0,1:2|2:2,2:2:0:0:
231,262,44757,5,0,3:2:0:0:
192,75,45083,1,0,3:2:0:0:
389,211,45409,2,0,P|387:312|344:378,1,180,0|0,3:2|2:2,2:2:0:0:
352,132,46061,2,0,P|395:124|438:139,1,90,8|0,1:2|2:2,2:2:0:0:
303,204,46496,6,0,P|265:121|312:55,1,180,2|0,2:2|2:2,2:2:0:0:
185,60,47148,2,0,P|138:51|93:60,2,90,0|0|0,2:2|2:2|2:2,2:2:0:0:
98,184,47800,2,0,P|141:193|186:186,1,90,8|0,1:2|2:2,2:2:0:0:
97,58,48235,1,0,3:2:0:0:
352,132,48561,1,0,3:2:0:0:
54,272,48887,2,0,P|141:289|229:275,1,180,0|0,3:2|2:2,2:2:0:0:
98,184,49539,2,0,P|54:174|10:181,1,90,8|0,1:2|2:2,2:2:0:0:
263,369,49974,5,6,2:2:0:0:
239,123,50192,1,0,1:2:0:0:
113,336,50409,1,8,2:2:0:0:
98,184,50626,1,0,1:2:0:0:
341,238,50844,2,0,L|464:233,1,107.999996704102,2|0,2:2|2:2,2:2:0:0:
448,136,51170,1,0,3:2:0:0:
448,136,51279,2,0,L|340:131,1,107.999996704102,8|0,2:2|2:2,2:2:0:0:
113,336,51713,5,6,2:2:0:0:
239,123,51931,1,0,1:2:0:0:
263,369,52148,1,8,2:2:0:0:
98,184,52365,1,0,1:2:0:0:
341,238,52583,2,0,P|391:237|438:200,1,107.999996704102,2|0,2:2|2:2,2:2:0:0:
250,245,53018,2,0,P|200:245|153:283,1,107.999996704102,8|0,2:2|2:2,2:2:0:0:
362,149,53453,6,0,L|389:84,3,53.9999983520508,4|0|0|0,3:2|2:2|2:2|2:2,2:2:0:0:
283,101,53887,2,0,L|274:31,3,53.9999983520508,4|0|0|0,3:2|2:2|2:2|2:2,2:2:0:0:
193,98,54322,1,4,3:2:0:0:
145,71,54431,1,0,3:2:0:0:
86,74,54539,1,0,3:2:0:0:
35,115,54648,1,0,3:2:0:0:
22,184,54757,1,0,3:2:0:0:
60,249,54866,1,0,3:2:0:0:
138,266,54974,6,0,P|193:259|245:265,1,107.999996704102,0|0,3:2|2:2,2:2:0:0:
331,362,55626,1,0,1:2:0:0:
348,167,55844,1,0,1:2:0:0:
348,167,55953,1,0,1:2:0:0:
348,167,56061,1,0,1:2:0:0:
435,265,56279,1,0,3:2:0:0:
435,265,56387,1,0,3:2:0:0:
435,265,56496,2,0,P|465:223|476:162,1,107.999996704102,8|0,2:2|2:2,2:2:0:0:
213,172,56931,6,0,L|349:166,1,135.000005149842,6|0,2:2|2:2,2:2:0:0:
152,73,57366,2,0,P|85:88|17:78,1,135.000005149842,8|0,2:2|2:2,2:2:0:0:
233,52,57800,1,2,2:2:0:0:
262,305,58018,2,0,P|267:272|259:237,1,67.5000025749208,0|0,2:2|2:2,2:2:0:0:
179,245,58235,1,8,2:2:0:0:
179,245,58344,2,0,P|174:278|182:313,1,67.5000025749208,0|0,2:2|2:2,2:2:0:0:
435,265,58670,5,2,2:2:0:0:
264,132,58887,2,0,P|327:158|362:220,1,135.000005149842,0|8,2:2|2:2,2:2:0:0:
172,74,59322,2,0,P|226:32|297:33,1,135.000005149842,0|2,2:2|2:2,2:2:0:0:
76,125,59757,1,0,1:2:0:0:
76,125,59866,1,0,1:2:0:0:
76,125,59974,2,0,P|66:59|93:-1,1,135.000005149842,8|0,2:2|2:2,2:2:0:0:
68,232,60409,6,0,P|136:213|177:162,1,135.000005149842,2|0,2:2|2:2,2:2:0:0:
185,381,60844,2,0,P|138:333|73:321,1,135.000005149842,8|0,2:2|2:2,2:2:0:0:
348,271,61279,1,2,2:2:0:0:
185,381,61496,1,0,2:2:0:0:
259,210,61713,2,0,P|241:274|263:336,1,135.000005149842,8|0,2:2|2:2,2:2:0:0:
345,107,62148,5,2,2:2:0:0:
437,332,62366,2,0,P|454:267|432:205,1,135.000005149842,0|8,2:2|2:2,2:2:0:0:
211,85,62800,2,0,L|345:107,1,135.000005149842,0|2,2:2|2:2,2:2:0:0:
132,257,63235,1,0,1:2:0:0:
132,257,63344,1,0,1:2:0:0:
132,257,63453,2,0,L|259:209,1,135.000005149842,8|0,2:2|2:2,2:2:0:0:
121,8,63887,5,2,2:2:0:0:
101,133,64105,2,0,P|92:67|121:8,1,135.000005149842,0|8,2:2|2:2,2:2:0:0:
3,220,64539,1,0,2:2:0:0:
188,326,64757,1,2,2:2:0:0:
57,340,64974,1,0,2:2:0:0:
214,199,65192,2,0,P|161:248|98:264,1,135.000005149842,8|0,2:2|2:2,2:2:0:0:
214,68,65626,5,2,2:2:0:0:
325,264,65844,2,0,P|342:200|328:135,1,135.000005149842,0|8,2:2|2:2,2:2:0:0:
214,68,66279,1,0,2:2:0:0:
437,201,66496,1,2,3:2:0:0:
327,2,66713,1,0,1:2:0:0:
214,199,66931,2,0,P|197:263|211:328,1,135.000005149842,8|0,2:2|2:2,2:2:0:0:
454,266,67366,6,0,P|390:249|325:263,1,135.000005149842,2|0,2:2|2:2,2:2:0:0:
438,80,67800,2,0,P|455:144|500:193,1,135.000005149842,8|0,2:2|2:2,2:2:0:0:
284,187,68235,2,0,P|331:139|351:75,1,135.000005149842,2|0,2:2|2:2,2:2:0:0:
109,116,68670,1,8,2:2:0:0:
135,304,68887,1,0,2:2:0:0:
217,101,69105,1,2,2:2:0:0:
68,218,69322,5,0,1:2:0:0:
68,218,69431,1,0,1:2:0:0:
68,218,69539,1,0,1:2:0:0:
243,289,69757,5,0,3:2:0:0:
299,296,69866,1,0,3:2:0:0:
357,270,69974,1,0,3:2:0:0:
392,206,70083,1,0,3:2:0:0:
375,126,70192,1,0,3:2:0:0:
299,79,70300,1,0,3:2:0:0:
217,101,70409,2,0,L|160:159,1,80.9999975280763,8|0,2:2|2:2,2:2:0:0:
223,221,70626,2,0,L|280:163,1,80.9999975280763,8|0,2:2|2:2,2:2:0:0:
299,79,70844,6,0,P|264:30|191:19,1,135.000005149842,6|0,2:2|2:2,2:2:0:0:
279,163,71279,2,0,P|341:155|382:97,1,135.000005149842,8|0,2:2|2:2,2:2:0:0:
217,101,71713,1,2,2:2:0:0:
343,309,71931,2,0,P|348:276|340:241,1,67.5000025749208,0|0,2:2|2:2,2:2:0:0:
218,243,72148,1,8,2:2:0:0:
218,243,72257,2,0,P|213:276|221:311,1,67.5000025749208,0|0,2:2|2:2,2:2:0:0:
462,233,72583,5,2,2:2:0:0:
217,101,72800,2,0,P|153:115|104:162,1,135.000005149842,0|8,2:2|2:2,2:2:0:0:
307,88,73235,2,0,P|270:29|205:12,1,135.000005149842,0|2,2:2|2:2,2:2:0:0:
370,157,73670,1,0,1:2:0:0:
370,157,73779,1,0,1:2:0:0:
371,158,73887,2,0,P|403:96|385:31,1,135.000005149842,8|0,2:2|2:2,2:2:0:0:
340,243,74322,6,0,P|409:240|456:192,1,135.000005149842,2|0,2:2|2:2,2:2:0:0:
250,260,74757,2,0,P|181:262|134:311,1,135.000005149842,8|0,2:2|2:2,2:2:0:0:
121,104,75192,1,2,2:2:0:0:
250,260,75409,1,0,2:2:0:0:
55,209,75626,2,0,P|18:265|16:339,1,135.000005149842,8|0,2:2|2:2,2:2:0:0:
241,134,76061,5,2,2:2:0:0:
320,335,76279,2,0,P|351:273|333:209,1,135.000005149842,0|8,2:2|2:2,2:2:0:0:
110,101,76713,2,0,L|241:134,1,135.000005149842,0|2,2:2|2:2,2:2:0:0:
6,236,77148,1,0,1:2:0:0:
6,236,77257,1,0,1:2:0:0:
6,236,77366,2,0,L|135:199,1,135.000005149842,8|0,2:2|2:2,2:2:0:0:
78,309,77800,5,2,2:2:0:0:
63,11,78018,2,0,L|29:142,1,135.000005149842,0|8,2:2|2:2,2:2:0:0:
247,128,78453,1,0,2:2:0:0:
63,11,78670,1,2,2:2:0:0:
143,214,78887,1,0,1:2:0:0:
197,2,79105,2,0,L|130:119,1,135.000005149842,8|0,2:2|2:2,2:2:0:0:
374,176,79539,5,2,2:2:0:0:
371,305,79757,2,0,P|388:241|374:176,1,135.000005149842,0|8,2:2|2:2,2:2:0:0:
260,109,80192,1,0,2:2:0:0:
483,242,80409,1,2,2:2:0:0:
373,43,80626,1,0,1:2:0:0:
260,240,80844,1,8,2:2:0:0:
483,111,81061,1,0,2:2:0:0:
150,173,81279,6,0,P|133:236|147:302,1,135.000005149842,2|0,2:2|2:2,2:2:0:0:
260,109,81713,2,0,P|213:62|149:41,1,135.000005149842,8|0,2:2|2:2,2:2:0:0:
260,240,82148,2,0,P|323:222|373:178,1,135.000005149842,2|0,2:2|2:2,2:2:0:0:
149,41,82583,5,8,2:2:0:0:
147,302,82800,1,0,1:2:0:0:
373,177,83018,1,2,2:2:0:0:
72,169,83235,5,0,1:2:0:0:
72,169,83344,1,0,1:2:0:0:
72,169,83452,1,0,1:2:0:0:
297,302,83670,5,0,3:2:0:0:
368,263,83779,1,0,3:2:0:0:
378,192,83887,1,0,3:2:0:0:
339,141,83996,1,0,3:2:0:0:
285,131,84105,1,0,3:2:0:0:
243,147,84213,1,0,3:2:0:0:
220,173,84322,2,0,L|206:232,1,45,8|0,2:2|2:2,2:2:0:0:
285,259,84539,2,0,L|296:216,1,45,8|0,2:2|2:2,2:2:0:0:
256,192,84757,12,0,88235,2:2:0:0:
