osu file format v14

[General]
AudioFilename: audio.mp3
AudioLeadIn: 0
PreviewTime: 56279
Countdown: 1
SampleSet: Soft
StackLeniency: 0.7
Mode: 0
LetterboxInBreaks: 0
WidescreenStoryboard: 1

[Editor]
DistanceSpacing: 1.4
BeatDivisor: 4
GridSize: 8
TimelineZoom: 2.5

[Metadata]
Title:Daisuki. (TV Size)
TitleUnicode:ダイスキ。(TV Size)
Artist:Ayaka Ohashi
ArtistUnicode:大橋彩香
Creator:lililing
Version:Hard
Source:可愛ければ変態でも好きになってくれますか?
Tags:Kawaikereba Hentai demo Suki ni Natte Kuremasu ka? OP opening anime Kanata Okajima
BeatmapID:2117049
BeatmapSetID:1008299

[Difficulty]
HPDrainRate:4
CircleSize:4
OverallDifficulty:6
ApproachRate:8
SliderMultiplier:1.6
SliderTickRate:1

[Events]
//Background and Video events
0,0,"677_pgi01_l.jpg",0,0
Video,0,"mv.mp4"
//Break Periods
//Storyboard Layer 0 (Background)
//Storyboard Layer 1 (Fail)
//Storyboard Layer 2 (Pass)
//Storyboard Layer 3 (Foreground)
//Storyboard Sound Samples

[TimingPoints]
-460,434.782608695652,4,2,2,80,1,0
6496,-100,4,2,1,60,0,0
8235,-100,4,2,1,80,0,0
15192,-100,4,2,1,40,0,0
27583,-100,4,2,1,60,0,0
29105,-100,4,2,1,80,0,0
43018,-100,4,2,1,40,0,0
49974,-100,4,2,1,60,0,0
54974,-100,4,2,1,40,0,0
55409,-100,4,2,1,60,0,0
56931,-100,4,2,1,80,0,1
69105,-100,4,2,1,80,0,0
70844,-100,4,2,1,80,0,1
83018,-100,4,2,1,60,0,0
84757,-100,4,2,1,40,0,0
86496,-100,4,2,1,20,0,0
88235,-100,4,2,1,10,0,0

[Colours]
Combo1 : 255,0,255
Combo2 : 255,128,64
Combo3 : 0,0,255
Combo4 : 255,0,0
Combo5 : 0,255,0

[HitObjects]
130,271,626,6,0,P|92:258|54:267,2,80,0|0|0,2:2|2:2|2:2,0:0:0:0:
230,322,1279,2,0,P|286:340|343:327,2,120,2|0|0,2:2|0:0|2:2,0:0:0:0:
291,228,2148,1,0,2:2:0:0:
403,234,2366,2,0,P|453:297|445:378,1,160,0|0,2:2|2:2,0:0:0:0:
343,327,3018,5,2,2:2:0:0:
291,228,3235,2,0,P|299:190|323:154,1,80,0|0,2:2|2:2,0:0:0:0:
420,103,3670,2,0,L|503:114,1,80,0|0,2:2|2:2,0:0:0:0:
398,10,4105,2,0,L|232:32,1,160,0|0,2:2|2:2,0:0:0:0:
130,2,4757,6,0,P|124:41|137:81,1,80,2|0,2:2|0:0,0:0:0:0:
219,153,5192,2,0,P|230:190|224:230,1,80,0|0,2:2|0:0,0:0:0:0:
129,267,5626,2,0,L|50:274,1,80,0|0,2:2|0:0,0:0:0:0:
200,326,6061,2,0,L|279:333,1,80,0|0,2:2|0:0,0:0:0:0:
391,346,6496,5,8,2:2:0:0:
380,234,6713,2,0,L|384:287,2,40,0|0|8,3:2|3:2|2:2,0:0:0:0:
403,124,7148,1,0,3:2:0:0:
403,124,7257,1,0,3:2:0:0:
403,124,7366,2,0,L|399:84,3,40,0|0|0|0,3:2|3:2|3:2|3:2,0:0:0:0:
390,29,7800,1,8,2:2:0:0:
295,89,8018,1,8,2:2:0:0:
201,28,8235,6,0,P|117:19|53:66,1,160,6|8,2:2|2:2,0:0:0:0:
147,127,8887,1,0,2:2:0:0:
101,229,9105,2,0,L|5:210,1,80,2|0,3:2|2:2,0:0:0:0:
120,318,9539,2,0,P|154:303|184:265,1,80,8|0,2:2|2:2,0:0:0:0:
250,359,9974,6,0,P|280:317|289:251,1,120,2|0,2:2|2:2,0:0:0:0:
272,197,10409,1,8,2:2:0:0:
173,143,10626,1,0,2:2:0:0:
101,229,10844,2,0,L|39:218,2,40,2|0|0,2:2|2:2|2:2,0:0:0:0:
26,313,11279,2,0,L|104:326,1,80,8|0,2:2|2:2,0:0:0:0:
212,298,11713,6,0,P|252:306|292:298,1,80,2|0,2:2|2:2,0:0:0:0:
373,223,12148,1,8,2:2:0:0:
301,136,12366,1,0,1:2:0:0:
301,136,12474,1,0,1:2:0:0:
301,136,12583,2,0,P|274:166|261:205,1,80,2|0,3:2|2:2,0:0:0:0:
373,223,13018,1,8,2:2:0:0:
413,118,13235,1,0,2:2:0:0:
341,31,13453,5,6,2:2:0:0:
232,46,13670,1,0,1:2:0:0:
232,46,13779,1,0,1:2:0:0:
232,46,13887,1,8,2:2:0:0:
120,33,14105,2,0,P|81:42|41:34,1,80,0|2,2:2|2:2,0:0:0:0:
102,147,14539,1,0,3:2:0:0:
214,160,14757,2,0,P|188:190|176:228,1,80,8|2,2:2|2:2,0:0:0:0:
273,285,15192,6,0,P|298:254|310:216,1,80,6|2,2:2|2:2,0:0:0:0:
370,347,15626,1,0,2:2:0:0:
406,240,15844,1,0,0:0:0:0:
406,240,16279,2,0,L|515:238,2,80,0|0|0,2:2|2:2|2:2,0:0:0:0:
389,131,16931,2,0,P|448:138|509:131,2,120,2|2|2,2:3|2:3|2:3,0:0:0:0:
393,19,17800,1,0,2:2:0:0:
292,74,18018,1,0,0:0:0:0:
292,74,18126,1,0,0:0:0:0:
292,74,18235,2,0,P|253:69|212:74,1,80,0|0,1:2|2:2,0:0:0:0:
213,186,18670,6,0,P|252:190|292:185,1,80,2|0,2:2|2:2,0:0:0:0:
226,275,19105,2,0,P|203:306|187:343,1,80,0|0,2:2|2:2,0:0:0:0:
139,242,19539,2,0,P|125:158|170:102,1,160,0|0,2:2|2:2,0:0:0:0:
276,72,20192,1,0,2:2:0:0:
384,98,20409,2,0,P|429:56|485:35,2,120,2|2|2,2:3|2:3|2:3,0:0:0:0:
310,182,21279,1,0,2:2:0:0:
234,264,21496,2,0,L|237:343,2,80,0|0|0,2:2|1:2|0:0,0:0:0:0:
392,341,22148,6,0,L|398:181,1,160,2|0,2:2|2:2,0:0:0:0:
353,78,22800,2,0,P|263:79|210:130,1,160,0|0,2:2|2:2,0:0:0:0:
310,182,23453,1,0,1:2:0:0:
171,357,23887,6,0,P|89:358|15:316,1,160,2|0,2:2|2:2,0:0:0:0:
49,212,24540,2,0,P|131:211|205:253,1,160,0|0,2:2|2:2,0:0:0:0:
280,323,25192,2,0,P|301:290|309:236,1,80,0|0,1:2|2:2,0:0:0:0:
248,156,25626,6,0,P|330:157|404:115,1,160,2|0,2:2|2:2,0:0:0:0:
370,13,26279,2,0,P|288:12|214:54,1,160,0|0,2:2|2:2,0:0:0:0:
141,127,26931,2,0,P|117:96|106:49,1,80,0|0,1:2|0:0,0:0:0:0:
106,57,27583,5,8,2:2:0:0:
77,214,27800,1,8,2:2:0:0:
77,214,28235,2,0,P|133:206|197:214,1,120,2|0,2:2|3:2,0:0:0:0:
249,229,28670,1,8,2:2:0:0:
197,328,28887,1,0,3:2:0:0:
309,324,29105,6,0,P|354:324|406:344,1,80,6|0,2:2|2:2,0:0:0:0:
479,271,29539,2,0,P|479:226|499:174,1,80,8|0,2:2|2:2,0:0:0:0:
418,105,29974,2,0,P|373:105|321:85,1,80,2|0,2:2|2:2,0:0:0:0:
257,171,30409,2,0,P|234:132|225:76,1,80,8|0,2:2|2:2,0:0:0:0:
343,183,30844,6,0,P|288:252|219:250,1,160,2|8,2:2|2:2,0:0:0:0:
124,196,31496,2,0,P|114:234|93:268,1,80,0|2,2:2|2:2,0:0:0:0:
10,344,31931,1,0,3:2:0:0:
3,232,32148,2,0,P|12:193|33:159,1,80,8|0,2:2|2:2,0:0:0:0:
129,102,32583,6,0,P|101:74|82:39,1,80,2|0,2:2|2:2,0:0:0:0:
194,35,33018,2,0,P|231:24|271:25,1,80,8|0,2:2|2:2,0:0:0:0:
222,126,33453,2,0,P|212:164|191:198,1,80,2|0,2:2|2:2,0:0:0:0:
99,262,33887,1,8,2:2:0:0:
199,311,34105,1,0,2:2:0:0:
300,264,34322,6,0,P|292:303|300:342,1,80,2|0,2:2|2:2,0:0:0:0:
413,341,34757,2,0,P|420:301|412:262,1,80,8|0,2:2|2:2,0:0:0:0:
358,164,35192,1,2,2:2:0:0:
469,160,35409,1,0,3:2:0:0:
410,64,35626,2,0,P|372:52|319:58,1,80,8|0,2:2|2:2,0:0:0:0:
245,125,36061,6,0,L|114:125,1,120,2|2,2:3|2:3,0:0:0:0:
68,128,36496,1,0,0:0:0:0:
12,225,36713,2,0,P|41:290|18:382,1,160,2|0,2:3|2:2,0:0:0:0:
138,317,37366,2,0,P|178:309|218:317,1,80,8|0,2:2|2:2,0:0:0:0:
314,369,37800,6,0,L|444:363,1,120,2|2,2:3|2:3,0:0:0:0:
489,360,38235,1,0,0:0:0:0:
451,253,38453,6,0,P|370:265|291:260,1,160,2|0,2:3|3:2,0:0:0:0:
188,217,39105,1,8,2:2:0:0:
188,217,39539,6,0,P|209:184|245:158,1,80,2|0,2:2|2:2,0:0:0:0:
329,89,39974,2,0,P|347:123|351:167,1,80,8|0,2:2|2:2,0:0:0:0:
368,278,40409,2,0,P|328:276|288:258,1,80,2|0,2:2|2:2,0:0:0:0:
241,159,40844,1,8,2:2:0:0:
351,163,41061,1,0,2:2:0:0:
291,260,41279,6,0,L|263:311,2,40,2|0|0,3:2|2:2|2:2,0:0:0:0:
179,255,41713,2,0,L|129:285,2,40,0|0|0,3:2|2:2|2:2,0:0:0:0:
86,191,42148,2,0,L|27:192,2,40,2|0|0,2:2|0:0|2:2,0:0:0:0:
41,87,42583,2,0,L|-10:58,2,40,8|0|0,2:2|0:0|2:2,0:0:0:0:
152,96,43018,6,0,P|232:88|312:96,1,160,6|0,2:2|2:2,0:0:0:0:
388,177,43670,2,0,P|422:104|401:28,1,160,0|0,2:2|2:2,0:0:0:0:
310,95,44322,1,8,1:2:0:0:
311,319,44757,6,0,L|277:203,2,120,0|0|0,3:2|3:2|3:2,0:0:0:0:
202,294,45626,2,0,P|161:286|119:293,1,80,0|0,0:0|2:2,0:0:0:0:
17,329,46061,1,8,1:2:0:0:
192,189,46496,6,0,P|109:185|44:226,1,160,2|0,2:2|2:2,0:0:0:0:
11,117,47148,2,0,L|166:78,1,160,0|0,2:2|2:2,0:0:0:0:
274,49,47800,1,8,1:2:0:0:
274,49,48235,6,0,P|271:110|301:158,2,120,0|0|0,3:2|3:2|3:2,0:0:0:0:
381,80,49104,2,0,L|472:55,1,80,0|0,0:0|2:2,0:0:0:0:
426,166,49539,1,8,1:2:0:0:
426,166,49974,6,0,P|418:206|426:246,1,80,6|0,2:2|1:2,0:0:0:0:
453,352,50409,2,0,P|422:325|383:312,1,80,8|0,2:2|1:2,0:0:0:0:
279,349,50844,2,0,P|287:285|279:221,1,120,2|0,2:2|3:2,0:0:0:0:
264,176,51279,2,0,P|304:184|344:176,1,80,8|0,2:2|2:2,0:0:0:0:
341,64,51713,6,0,P|301:56|260:64,1,80,6|0,2:2|1:2,0:0:0:0:
165,119,52148,2,0,P|151:80|124:49,1,80,8|0,2:2|1:2,0:0:0:0:
31,110,52583,2,0,P|44:148|71:179,1,80,2|0,2:2|2:2,0:0:0:0:
168,231,53018,2,0,P|142:261|129:298,1,80,8|0,2:2|2:2,0:0:0:0:
239,316,53453,6,0,L|286:315,3,40,4|0|0|0,3:2|2:2|2:2|2:2,0:0:0:0:
346,339,53887,2,0,L|386:314,3,40,4|0|0|0,3:2|2:2|2:2|2:2,0:0:0:0:
448,295,54322,2,0,L|470:253,3,40,4|0|0|0,3:2|3:2|3:2|3:2,0:0:0:0:
507,199,54757,5,0,3:2:0:0:
507,199,54866,1,0,3:2:0:0:
507,199,54974,2,0,P|491:119|507:39,1,160,0|0,3:2|2:2,0:0:0:0:
394,62,55626,1,0,0:0:0:0:
281,58,55844,1,0,1:2:0:0:
281,58,55953,1,0,1:2:0:0:
281,58,56061,1,0,1:2:0:0:
233,159,56279,2,0,L|312:151,2,80,0|8|0,3:2|2:2|2:2,0:0:0:0:
132,109,56931,6,0,P|124:168|149:229,1,120,6|0,2:2|0:0,0:0:0:0:
187,259,57366,1,8,2:2:0:0:
295,285,57583,2,0,P|310:321|313:361,1,80,0|2,2:2|2:2,0:0:0:0:
436,286,58018,2,0,P|420:322|417:362,2,80,0|8|0,2:2|2:2|2:2,0:0:0:0:
373,192,58670,5,2,2:2:0:0:
436,98,58887,2,0,P|420:61|417:21,2,80,0|8|0,2:2|2:2|2:2,0:0:0:0:
324,88,59539,1,2,2:2:0:0:
257,178,59757,1,0,1:2:0:0:
145,168,59974,2,0,L|66:158,1,80,8|0,2:2|2:2,0:0:0:0:
105,262,60409,6,0,P|142:272|191:259,1,80,2|0,2:2|2:2,0:0:0:0:
250,353,60844,2,0,P|277:325|290:277,1,80,8|0,2:2|2:2,0:0:0:0:
265,176,61279,1,2,2:2:0:0:
370,211,61496,1,0,2:2:0:0:
475,247,61713,2,0,P|465:205|474:162,1,80,8|0,2:2|2:2,0:0:0:0:
506,62,62148,5,2,2:2:0:0:
396,84,62366,2,0,P|354:94|311:85,1,80,0|8,2:2|2:2,0:0:0:0:
212,52,62800,2,0,P|172:46|134:55,1,80,0|2,2:2|2:2,0:0:0:0:
84,156,63235,1,0,1:2:0:0:
177,217,63453,2,0,L|176:126,1,80,8|0,2:2|2:2,0:0:0:0:
282,171,63887,5,2,2:2:0:0:
268,282,64105,2,0,P|194:330|122:317,1,160,0|0,2:2|2:2,0:0:0:0:
177,217,64757,1,2,2:2:0:0:
282,171,64974,1,0,2:2:0:0:
372,237,65192,2,0,P|379:279|370:330,1,80,8|0,2:2|2:2,0:0:0:0:
268,282,65626,5,2,2:2:0:0:
282,171,65844,2,0,P|352:129|426:140,1,160,0|0,2:2|2:2,0:0:0:0:
372,237,66496,1,2,3:2:0:0:
268,282,66713,1,0,1:2:0:0:
177,217,66931,2,0,P|169:180|181:117,1,80,8|0,2:2|2:2,0:0:0:0:
186,26,67366,6,0,L|97:72,1,80,2|0,2:2|2:2,0:0:0:0:
18,119,67800,2,0,L|102:172,1,80,8|0,2:2|2:2,0:0:0:0:
177,217,68235,2,0,L|181:117,1,80,2|0,2:2|2:2,0:0:0:0:
269,205,68670,1,8,2:2:0:0:
213,301,68887,1,0,2:2:0:0:
313,350,69105,5,2,2:2:0:0:
371,254,69322,2,0,L|391:216,2,40,0|0|0,1:2|1:2|1:2,0:0:0:0:
359,142,69757,1,0,3:2:0:0:
359,142,69866,1,0,3:2:0:0:
359,142,69974,2,0,L|357:99,3,40,0|0|0|0,3:2|3:2|3:2|3:2,0:0:0:0:
355,45,70409,1,8,2:2:0:0:
244,62,70626,1,8,2:2:0:0:
132,73,70844,6,0,L|119:197,1,120,6|0,2:2|0:0,0:0:0:0:
111,247,71279,1,8,2:2:0:0:
217,213,71496,2,0,P|219:252|234:289,1,80,0|2,2:2|2:2,0:0:0:0:
343,262,71931,2,0,P|340:222|325:185,2,80,0|8|0,2:2|2:2|2:2,0:0:0:0:
311,371,72583,5,2,2:2:0:0:
420,348,72800,2,0,P|453:325|477:294,2,80,0|8|0,2:2|2:2|2:2,0:0:0:0:
343,262,73452,1,2,2:2:0:0:
431,192,73670,1,0,1:2:0:0:
358,106,73887,2,0,P|318:100|282:83,1,80,8|0,2:2|2:2,0:0:0:0:
185,27,74322,6,0,P|200:63|202:103,1,80,2|0,2:2|2:2,0:0:0:0:
201,215,74757,2,0,P|225:183|258:161,1,80,8|0,2:2|2:2,0:0:0:0:
302,264,75192,1,2,2:2:0:0:
209,327,75409,1,0,2:2:0:0:
106,282,75626,2,0,P|90:245|88:205,1,80,8|0,2:2|2:2,0:0:0:0:
152,113,76061,5,2,2:2:0:0:
85,22,76279,2,0,L|1:18,1,80,0|8,2:2|2:2,0:0:0:0:
72,109,76713,2,0,L|151:112,1,80,0|2,2:2|2:2,0:0:0:0:
264,115,77148,1,0,1:2:0:0:
376,118,77366,2,0,P|371:77|387:26,1,80,8|0,2:2|2:2,0:0:0:0:
475,84,77800,5,2,2:2:0:0:
447,192,78018,2,0,P|378:223|295:182,1,160,0|0,2:2|2:2,0:0:0:0:
268,86,78670,1,2,2:2:0:0:
207,180,78887,1,0,1:2:0:0:
147,275,79105,2,0,P|154:317|145:368,1,80,8|0,2:2|2:2,0:0:0:0:
44,315,79539,5,2,2:2:0:0:
57,203,79757,2,0,P|114:165|206:178,1,160,0|0,2:2|2:2,0:0:0:0:
244,279,80409,1,2,2:2:0:0:
352,306,80626,1,0,1:2:0:0:
460,334,80844,2,0,P|452:297|464:234,1,80,8|0,2:2|2:2,0:0:0:0:
476,144,81279,6,0,P|439:132|391:90,1,80,2|0,2:2|2:2,0:0:0:0:
324,31,81713,2,0,P|295:56|235:77,1,80,8|0,2:2|2:2,0:0:0:0:
149,105,82148,2,0,P|156:141|144:204,1,80,2|0,2:2|2:2,0:0:0:0:
115,289,82583,1,8,2:2:0:0:
225,272,82800,1,0,1:2:0:0:
288,364,83018,5,2,2:2:0:0:
398,347,83235,2,0,L|445:338,2,40,0|0|0,1:2|1:2|1:2,0:0:0:0:
328,258,83670,1,0,3:2:0:0:
328,258,83779,1,0,3:2:0:0:
328,258,83887,2,0,L|300:215,3,40,0|0|0|0,3:2|3:2|3:2|3:2,0:0:0:0:
275,177,84322,1,8,2:2:0:0:
225,272,84539,1,8,2:2:0:0:
256,192,84757,12,0,88235,2:2:0:0:
