osu file format v14

[General]
AudioFilename: audio.mp3
AudioLeadIn: 0
PreviewTime: 44072
Countdown: 0
SampleSet: Soft
StackLeniency: 0.7
Mode: 0
LetterboxInBreaks: 0
WidescreenStoryboard: 1

[Editor]
Bookmarks: 44158
DistanceSpacing: 1
BeatDivisor: 4
GridSize: 32
TimelineZoom: 2.699999

[Metadata]
Title:Invincible (Cut Ver.)
TitleUnicode:Invincible (Cut Ver.)
Artist:Ayah Marar & Blue Marble
ArtistUnicode:Ayah Marar & Blue Marble
Creator:Lasse
Version:Normal
Source:
Tags:mbc featured artist english electronic mir and bass drum dnb Monthly Beatmapping Contest June 2020 mappers' guild Marble Recordings
BeatmapID:2627737
BeatmapSetID:1221214

[Difficulty]
HPDrainRate:4
CircleSize:3.4
OverallDifficulty:5
ApproachRate:6
SliderMultiplier:0.999999999999999
SliderTickRate:1

[Events]
//Background and Video events
0,0,"b.jpg",0,0
//Break Periods
2,22289,32074
//Storyboard Layer 0 (Background)
//Storyboard Layer 1 (Fail)
//Storyboard Layer 2 (Pass)
//Storyboard Layer 3 (Foreground)
//Storyboard Layer 4 (Overlay)
//Storyboard Sound Samples

[TimingPoints]
21,344.827586206897,4,2,1,40,1,0
21,-111.111111111111,4,2,1,40,0,0
5538,-111.111111111111,4,2,1,45,0,0
11055,-111.111111111111,4,2,1,50,0,0
16572,-105.263157894737,4,2,1,54,0,0
17952,-105.263157894737,4,2,1,56,0,0
19331,-105.263157894737,4,2,1,58,0,0
20710,-100,4,2,1,60,0,0
22089,-100,4,2,1,60,0,0
33124,-100,4,2,1,50,0,0
34503,-100,4,2,1,52,0,0
35883,-100,4,2,1,54,0,0
37262,-100,4,2,1,56,0,0
38641,-100,4,2,1,58,0,0
39331,-100,4,2,1,60,0,0
40021,-100,4,2,1,62,0,0
40710,-100,4,2,1,64,0,0
41400,-100,4,2,1,66,0,0
41745,-100,4,2,1,68,0,0
42089,-100,4,2,1,70,0,0
42434,-100,4,2,1,72,0,0
42779,-100,4,2,1,74,0,0
43469,-100,4,2,1,76,0,0
44158,-90.9090909090909,4,2,1,80,0,0
66227,-100,4,2,1,75,0,0
68986,-100,4,2,1,75,0,0
71745,-100,4,2,1,75,0,0
74503,-100,4,2,1,75,0,0
77262,-100,4,2,1,75,0,0
80021,-100,4,2,1,75,0,0
82779,-100,4,2,1,75,0,0
85538,-100,4,2,1,75,0,0
88167,-100,4,2,1,70,0,0
88210,-100,4,2,1,65,0,0
88296,-100,4,2,1,70,0,0
107952,-100,4,2,1,65,0,0
108296,-100,4,2,1,55,0,0
108469,-100,4,2,1,58,0,0
108641,-100,4,2,1,56,0,0
108814,-100,4,2,1,54,0,0
108986,-100,4,2,1,50,0,0
109158,-100,4,2,1,20,0,0
109503,-100,4,2,1,40,0,0
109676,-100,4,2,1,30,0,0
110021,-100,4,2,1,20,0,0
110365,-100,4,2,1,15,0,0

[Colours]
Combo1 : 205,230,250
Combo2 : 180,201,241
Combo3 : 200,190,240
Combo4 : 255,120,120
Combo5 : 255,185,120
Combo6 : 220,220,220
Combo7 : 160,160,160
Combo8 : 225,225,255

[HitObjects]
0,320,21,70,0,L|94:314,1,89.999997253418,10|8,0:1|0:3,0:0:0:0:
224,306,883,1,8,0:1:0:0:
224,306,1055,1,8,0:3:0:0:
305,362,1400,2,0,L|311:268,1,89.999997253418,10|8,0:1|0:3,0:0:0:0:
328,141,2262,1,8,0:1:0:0:
328,141,2434,1,8,0:3:0:0:
246,193,2779,6,0,P|202:204|147:184,1,89.999997253418,10|8,0:1|0:3,0:0:0:0:
36,150,3641,1,8,0:1:0:0:
36,150,3814,1,8,0:3:0:0:
113,93,4158,2,0,P|156:81|199:92,1,89.999997253418,10|8,0:1|0:3,0:0:0:0:
305,185,5021,1,8,0:1:0:0:
305,185,5193,1,8,0:3:0:0:
399,157,5538,102,0,B|416:135|416:135|400:71,1,89.999997253418,10|8,0:1|0:3,0:0:0:0:
288,9,6400,1,8,0:1:0:0:
288,9,6572,1,8,0:3:0:0:
218,65,6917,2,0,B|201:87|201:87|216:147,1,89.999997253418,10|8,0:1|0:3,0:0:0:0:
257,281,7779,1,8,0:1:0:0:
257,281,7952,1,8,0:3:0:0:
325,350,8296,6,0,B|367:362|367:362|422:340,1,89.999997253418,10|8,0:1|0:3,0:0:0:0:
506,250,9158,1,8,0:1:0:0:
506,250,9331,1,8,0:3:0:0:
425,198,9676,2,0,B|383:186|383:186|328:208,1,89.999997253418,10|8,0:1|0:3,0:0:0:0:
224,271,10538,1,8,0:1:0:0:
224,271,10710,1,8,0:3:0:0:
159,198,11055,6,0,P|153:152|160:103,1,89.999997253418,10|8,0:1|0:3,0:0:0:0:
185,72,11572,2,0,L|291:59,1,89.999997253418,2|8,0:0|0:1,0:0:0:0:
306,29,12089,1,10,0:3:0:0:
370,91,12434,2,0,L|468:102,1,89.999997253418,10|8,0:1|0:3,0:0:0:0:
501,82,12952,1,2,0:0:0:0:
512,175,13296,1,8,0:1:0:0:
512,175,13469,1,10,0:3:0:0:
440,240,13814,6,0,B|396:249|396:249|343:223,1,89.999997253418,10|8,0:1|0:3,0:0:0:0:
319,255,14331,2,0,B|278:235|278:235|234:244,1,89.999997253418,2|8,0:0|0:1,0:0:0:0:
199,273,14848,1,10,0:3:0:0:
134,210,15193,2,0,L|144:103,1,89.999997253418,10|8,0:1|0:3,0:0:0:0:
132,76,15710,1,2,0:0:0:0:
53,44,16055,1,8,0:1:0:0:
53,44,16227,1,10,0:3:0:0:
0,124,16572,102,0,L|6:221,1,94.9999974632263,10|8,0:1|0:3,0:0:0:0:
47,242,17089,2,0,L|54:340,1,94.9999974632263,2|8,0:0|0:1,0:0:0:0:
94,361,17607,1,10,0:3:0:0:
182,319,17952,2,0,P|226:302|282:308,1,94.9999974632263,10|8,0:1|0:3,0:0:0:0:
316,324,18469,1,2,0:0:0:0:
404,372,18814,1,8,0:1:0:0:
404,372,18986,1,10,0:3:0:0:
477,302,19331,22,0,B|496:273|496:273|476:205,1,94.9999974632263,10|8,0:1|0:3,0:0:0:0:
459,171,19848,2,0,L|358:165,1,94.9999974632263,2|8,0:0|0:1,0:0:0:0:
317,154,20365,1,10,0:3:0:0:
271,242,20710,2,0,L|169:247,1,99.9999999999999,10|8,0:1|0:3,0:0:0:0:
130,276,21227,1,2,0:0:0:0:
39,233,21572,1,8,0:1:0:0:
39,233,21745,1,10,0:3:0:0:
91,136,22089,53,6,0:3:0:0:
0,193,33124,118,0,P|-5:143|15:91,1,99.9999999999999,10|8,0:1|0:1,0:0:0:0:
87,31,33814,2,0,L|206:22,1,99.9999999999999,8|8,0:1|0:1,0:0:0:0:
277,65,34503,1,10,0:1:0:0:
371,32,34848,1,8,0:1:0:0:
404,126,35193,1,8,0:1:0:0:
310,159,35538,1,8,0:1:0:0:
245,243,35883,6,0,P|236:291|261:341,1,99.9999999999999,10|8,0:1|0:1,0:0:0:0:
348,377,36572,2,0,L|462:366,1,99.9999999999999,8|8,0:1|0:1,0:0:0:0:
506,286,37262,1,10,0:1:0:0:
451,201,37607,1,8,0:1:0:0:
504,116,37952,1,8,0:1:0:0:
445,35,38296,1,8,0:1:0:0:
372,113,38641,6,0,B|327:134|327:134|277:118,1,99.9999999999999,10|8,0:1|0:1,0:0:0:0:
237,102,39158,1,8,0:1:0:0:
237,102,39331,1,10,0:1:0:0:
163,33,39676,1,8,0:1:0:0:
79,88,40021,2,0,B|61:124|61:124|76:189,1,99.9999999999999,10|8,0:1|0:1,0:0:0:0:
91,234,40538,1,8,0:1:0:0:
91,234,40710,1,10,0:1:0:0:
187,206,41055,1,8,0:1:0:0:
248,293,41400,22,0,B|274:307|285:320|285:320|293:317|308:317|308:317|323:331|323:331|337:330|345:341|345:341|357:332|372:329|372:329|382:331|391:332|391:332|393:320|409:306|409:306|420:307|428:298|428:298|429:287|438:276|438:276|451:273|461:263|461:263|449:248|448:222|448:222|452:216|452:206|452:206|435:174|442:129,1,400,10|10,0:1|0:1,0:0:0:0:
490,50,43124,1,8,0:1:0:0:
397,11,43469,1,10,0:1:0:0:
347,98,43814,1,8,0:3:0:0:
239,49,44158,22,0,B|188:28|188:28|135:45,1,110.000003356934,14|8,0:1|0:0,0:0:0:0:
95,83,44676,2,0,L|84:195,1,110.000003356934,2|8,0:0|0:1,0:0:0:0:
120,234,45193,2,0,B|171:255|171:255|223:237,1,110.000003356934,10|8,0:0|0:1,0:0:0:0:
270,208,45710,1,2,0:0:0:0:
309,105,46055,1,2,0:0:0:0:
422,106,46400,1,8,0:1:0:0:
422,106,46572,1,10,0:0:0:0:
478,206,46917,6,0,P|492:261|475:314,1,110.000003356934,10|8,0:1|0:0,0:0:0:0:
428,338,47434,2,0,P|386:319|308:332,1,110.000003356934,2|8,0:0|0:1,0:0:0:0:
286,365,47952,2,0,P|231:371|181:351,1,110.000003356934,10|8,0:0|0:1,0:0:0:0:
131,327,48469,1,2,0:0:0:0:
171,224,48814,1,2,0:0:0:0:
292,242,49158,101,10,0:1:0:0:
292,242,49331,1,8,0:0:0:0:
292,242,49503,2,0,L|408:230,1,110.000003356934,2|0,0:0|0:0,0:0:0:0:
455,242,50021,1,10,0:0:0:0:
500,86,50538,1,8,0:1:0:0:
500,86,50710,1,10,0:0:0:0:
407,26,51055,2,0,L|291:14,1,110.000003356934,10|8,0:1|0:0,0:0:0:0:
255,50,51572,1,2,0:0:0:0:
303,160,51917,5,10,0:1:0:0:
303,160,52089,1,8,0:0:0:0:
303,160,52262,2,0,P|318:212|293:265,1,110.000003356934,2|0,0:0|0:0,0:0:0:0:
259,302,52779,1,10,0:0:0:0:
113,376,53296,1,8,0:1:0:0:
113,376,53469,1,10,0:0:0:0:
21,314,53814,2,0,P|6:262|31:209,1,110.000003356934,10|8,0:1|0:0,0:0:0:0:
75,186,54331,2,0,B|112:176|112:176|132:183|132:183|194:169,1,110.000003356934,2|8,0:0|0:1,0:0:0:0:
227,141,54848,1,8,0:0:0:0:
325,209,55193,102,0,B|377:229|377:229|446:206,1,110.000003356934,10|8,0:1|0:0,0:0:0:0:
474,181,55710,2,0,L|481:71,1,110.000003356934,2|8,0:0|0:1,0:0:0:0:
438,36,56227,2,0,B|386:16|386:16|317:39,1,110.000003356934,10|8,0:0|0:1,0:0:0:0:
288,63,56745,1,2,0:0:0:0:
303,172,57089,1,2,0:0:0:0:
416,167,57434,1,8,0:1:0:0:
416,167,57607,1,10,0:0:0:0:
495,254,57952,6,0,P|509:316|481:361,1,110.000003356934,10|8,0:1|0:0,0:0:0:0:
435,373,58469,2,0,L|313:360,1,110.000003356934,2|8,0:0|0:1,0:0:0:0:
274,381,58986,2,0,L|264:261,1,110.000003356934,10|8,0:2|0:1,0:0:0:0:
225,232,59503,1,2,0:0:0:0:
273,133,59848,1,2,0:0:0:0:
193,59,60193,101,10,0:1:0:0:
193,59,60365,1,8,0:0:0:0:
193,59,60538,2,0,P|148:38|82:55,1,110.000003356934,2|0,0:0|0:0,0:0:0:0:
42,75,61055,1,10,0:0:0:0:
4,238,61572,1,10,0:1:0:0:
4,238,61745,1,10,0:0:0:0:
53,335,62089,2,0,P|105:346|155:325,1,110.000003356934,10|8,0:1|0:0,0:0:0:0:
194,286,62607,1,2,0:0:0:0:
308,347,62952,5,10,0:1:0:0:
308,347,63124,1,8,0:0:0:0:
308,347,63296,2,0,P|357:368|410:356,1,110.000003356934,2|0,0:0|0:0,0:0:0:0:
457,326,63814,1,10,0:0:0:0:
500,169,64331,1,8,0:1:0:0:
500,169,64503,1,10,0:0:0:0:
436,79,64848,2,0,P|387:58|334:70,1,110.000003356934,10|8,0:1|0:0,0:0:0:0:
309,120,65365,2,0,L|298:240,1,110.000003356934,2|8,0:0|0:1,0:0:0:0:
269,276,65883,1,10,0:0:0:0:
173,334,66227,70,0,P|123:340|78:319,1,99.9999999999999,14|8,0:1|0:0,0:0:0:0:
38,289,66745,2,0,L|30:185,1,99.9999999999999,2|8,0:0|0:1,0:0:0:0:
61,150,67262,2,0,L|69:46,1,99.9999999999999,10|8,0:0|0:1,0:0:0:0:
117,38,67779,1,2,0:0:0:0:
206,83,68124,1,2,0:0:0:0:
298,40,68469,1,8,0:1:0:0:
298,40,68641,1,8,0:0:0:0:
397,92,68986,6,0,P|408:145|388:196,1,99.9999999999999,10|8,0:1|0:0,0:0:0:0:
362,226,69503,1,2,0:0:0:0:
266,195,69848,1,10,0:1:0:0:
199,270,70193,1,2,0:0:0:0:
199,270,70365,1,10,0:1:0:0:
253,353,70710,1,10,0:0:0:0:
349,325,71055,1,2,0:0:0:0:
362,226,71400,1,8,0:0:0:0:
260,182,71745,102,0,P|239:136|252:83,1,99.9999999999999,10|8,0:1|0:0,0:0:0:0:
280,50,72262,2,0,L|396:31,1,99.9999999999999,2|8,0:0|0:1,0:0:0:0:
423,55,72779,2,0,P|444:101|431:154,1,99.9999999999999,10|8,0:0|0:1,0:0:0:0:
413,193,73296,1,2,0:0:0:0:
313,205,73641,1,2,0:0:0:0:
293,303,73986,1,8,0:1:0:0:
293,303,74158,1,8,0:0:0:0:
195,350,74503,6,0,B|155:345|155:345|137:353|137:353|89:346,1,99.9999999999999,10|8,0:1|0:0,0:0:0:0:
47,356,75021,1,2,0:0:0:0:
6,264,75365,1,10,0:1:0:0:
76,193,75710,1,2,0:0:0:0:
76,193,75883,1,10,0:1:0:0:
159,248,76227,1,10,0:0:0:0:
246,199,76572,1,2,0:0:0:0:
339,233,76917,1,8,0:0:0:0:
436,184,77262,102,0,P|453:137|438:90,1,99.9999999999999,10|8,0:1|0:0,0:0:0:0:
405,52,77779,2,0,L|306:37,1,99.9999999999999,2|8,0:0|0:1,0:0:0:0:
258,52,78296,2,0,L|159:37,1,99.9999999999999,10|8,0:0|0:1,0:0:0:0:
111,19,78814,1,2,0:0:0:0:
24,69,79158,1,2,0:0:0:0:
13,171,79503,1,8,0:1:0:0:
13,171,79676,1,8,0:0:0:0:
96,235,80021,6,0,P|144:244|189:224,1,99.9999999999999,10|8,0:1|0:0,0:0:0:0:
233,200,80538,1,2,0:0:0:0:
261,104,80883,1,10,0:1:0:0:
359,74,81227,1,2,0:0:0:0:
359,74,81400,1,10,0:1:0:0:
440,132,81745,1,10,0:0:0:0:
435,231,82089,1,2,0:0:0:0:
349,282,82434,1,8,0:0:0:0:
258,227,82779,102,0,L|248:123,1,99.9999999999999,10|8,0:1|0:0,0:0:0:0:
213,90,83296,2,0,P|165:75|118:88,1,99.9999999999999,2|8,0:0|0:1,0:0:0:0:
83,125,83814,2,0,L|72:232,1,99.9999999999999,10|8,0:0|0:1,0:0:0:0:
72,274,84331,1,2,0:0:0:0:
131,354,84676,1,2,0:0:0:0:
224,317,85021,1,8,0:1:0:0:
224,317,85193,1,8,0:0:0:0:
318,371,85538,6,0,P|368:373|415:356,1,99.9999999999999,10|8,0:1|0:0,0:0:0:0:
457,328,86055,1,2,0:0:0:0:
401,245,86400,1,10,0:1:0:0:
457,162,86745,1,2,0:2:0:0:
457,162,86917,1,8,0:1:0:0:
396,82,87262,1,10,0:0:0:0:
300,112,87607,1,10,0:1:0:0:
303,211,87952,1,8,0:0:0:0:
226,288,88296,86,0,P|179:300|133:283,1,99.9999999999999,14|8,0:1|0:0,0:0:0:0:
89,258,88814,2,0,L|76:155,1,99.9999999999999,2|8,0:0|0:1,0:0:0:0:
34,130,89331,1,10,0:0:0:0:
88,46,89676,2,0,L|188:34,1,99.9999999999999,10|8,0:1|0:0,0:0:0:0:
234,15,90193,1,2,0:0:0:0:
297,98,90538,1,8,0:1:0:0:
297,98,90710,1,10,0:0:0:0:
237,187,91055,102,0,P|224:238|249:280,1,99.9999999999999,10|8,0:1|0:0,0:0:0:0:
281,312,91572,2,0,L|392:320,1,99.9999999999999,2|8,0:0|0:1,0:0:0:0:
424,344,92089,1,10,0:0:0:0:
489,268,92434,2,0,P|494:218|475:172,1,99.9999999999999,10|8,0:1|0:0,0:0:0:0:
441,135,92952,1,2,0:0:0:0:
345,128,93296,1,8,0:1:0:0:
345,128,93469,1,10,0:0:0:0:
276,211,93814,6,0,L|261:315,1,99.9999999999999,10|8,0:1|0:0,0:0:0:0:
234,352,94331,2,0,B|195:348|195:348|179:358|179:358|126:355,1,99.9999999999999,2|8,0:0|0:1,0:0:0:0:
90,374,94848,1,10,0:0:0:0:
9,315,95193,2,0,L|1:205,1,99.9999999999999,10|8,0:1|0:0,0:0:0:0:
15,167,95710,1,2,0:0:0:0:
111,208,96055,1,8,0:1:0:0:
111,208,96227,1,10,0:0:0:0:
209,158,96572,102,0,L|217:48,1,99.9999999999999,10|8,0:1|0:0,0:0:0:0:
253,24,97089,2,0,P|307:19|369:44,1,99.9999999999999,2|8,0:0|0:1,0:0:0:0:
372,77,97607,1,10,0:0:0:0:
323,164,97952,2,0,B|304:208|304:208|315:274,1,99.9999999999999,10|10,0:1|0:0,0:0:0:0:
332,305,98469,1,2,0:0:0:0:
406,371,98814,1,8,0:1:0:0:
406,371,98986,1,10,0:0:0:0:
490,303,99331,6,0,L|493:191,1,99.9999999999999,10|8,0:1|0:0,0:0:0:0:
454,170,99848,2,0,P|416:181|355:153,1,99.9999999999999,2|8,0:0|0:1,0:0:0:0:
325,125,100365,1,10,0:0:0:0:
275,212,100710,2,0,L|264:314,1,99.9999999999999,10|8,0:1|0:0,0:0:0:0:
233,350,101227,1,2,0:0:0:0:
136,375,101572,1,8,0:1:0:0:
136,375,101745,1,10,0:0:0:0:
40,321,102089,102,0,L|29:219,1,99.9999999999999,10|8,0:1|0:0,0:0:0:0:
2,178,102607,2,0,L|13:76,1,99.9999999999999,2|8,0:0|0:1,0:0:0:0:
54,50,103124,1,10,0:0:0:0:
126,119,103469,2,0,P|175:129|226:105,1,99.9999999999999,10|8,0:1|0:0,0:0:0:0:
262,84,103986,1,2,0:0:0:0:
332,163,104331,69,10,0:1:0:0:
332,163,104503,1,8,0:0:0:0:
332,163,104676,2,0,L|325:265,1,99.9999999999999,2|0,0:0|0:0,0:0:0:0:
319,312,105193,1,10,0:0:0:0:
454,384,105710,1,8,0:1:0:0:
454,384,105883,1,10,0:0:0:0:
493,292,106227,2,0,L|486:190,1,99.9999999999999,10|8,0:1|0:0,0:0:0:0:
479,142,106745,1,2,0:0:0:0:
404,81,107089,101,10,0:1:0:0:
404,81,107262,1,8,0:0:0:0:
404,81,107434,2,0,B|360:105|360:105|312:92,1,99.9999999999999,2|0,0:0|0:0,0:0:0:0:
265,71,107952,1,8,0:0:0:0:
256,192,108038,12,6,110365,0:3:0:0:
