osu file format v14

[General]
AudioFilename: audio.mp3
AudioLeadIn: 0
PreviewTime: 68859
Countdown: 0
SampleSet: Soft
StackLeniency: 0.4
Mode: 0
LetterboxInBreaks: 0
EpilepsyWarning: 1
WidescreenStoryboard: 1

[Editor]
Bookmarks: 6544,12125,23288,45614,56776,70730,81893,95124,109800,110323,111021,251403
DistanceSpacing: 2
BeatDivisor: 4
GridSize: 32
TimelineZoom: 2.2

[Metadata]
Title:sweet treasure (Short Ver.)
TitleUnicode:sweet treasure (Short Ver.)
Artist:Ayachi Nene (CV: Kiritani Hana)
ArtistUnicode:綾地寧々 (CV: 桐谷 華)
Creator:Riana
Version:Light Insane
Source:サノバウィッチ
Tags:sanoba witch sabbat of the eroge visual novel vn ゆず ゆずソフト yuzusoft 綾地 寧々 桐谷華 japanese video game seonah asuka_- jval93700
BeatmapID:2342179
BeatmapSetID:942292

[Difficulty]
HPDrainRate:6
CircleSize:3.5
OverallDifficulty:7.5
ApproachRate:8.6
SliderMultiplier:1.6
SliderTickRate:1

[Events]
//Background and Video events
0,0,"3.png",0,0
//Break Periods
//Storyboard Layer 0 (Background)
//Storyboard Layer 1 (Fail)
//Storyboard Layer 2 (Pass)
//Storyboard Layer 3 (Foreground)
//Storyboard Layer 4 (Overlay)
//Storyboard Sound Samples

[TimingPoints]
585,348.837209302326,4,2,1,55,1,0
11747,-100,4,2,1,70,0,0
16980,-100,4,2,1,70,0,0
20817,-86.9565217391304,4,2,1,70,0,0
21166,-76.9230769230769,4,2,1,70,0,0
21515,-100,4,2,1,70,0,0
22910,-83.3333333333333,4,2,1,60,0,0
23259,-125,4,2,1,60,0,0
27096,-125,4,2,1,60,0,0
28491,-83.3333333333333,4,2,1,60,0,0
28840,-125,4,2,1,60,0,0
33375,-125,4,2,1,60,0,0
34073,-83.3333333333333,4,2,1,60,0,0
34422,-125,4,2,1,60,0,0
38259,-125,4,2,1,60,0,0
39654,-83.3333333333333,4,2,1,60,0,0
40003,-125,4,2,1,60,0,0
42445,-100,4,2,1,60,0,0
43840,-125,4,2,1,60,0,0
44538,-125,4,2,1,60,0,0
44887,-83.3333333333333,4,2,1,60,0,0
45236,-90.9090909090909,4,2,1,80,0,0
51689,-90.9090909090909,4,2,1,80,0,0
52910,-90.9090909090909,4,2,1,80,0,0
60061,-90.9090909090909,4,2,1,80,0,0
60585,-90.9090909090909,4,2,1,80,0,0
68957,-100,4,2,1,80,0,0
70003,-100,4,2,1,80,0,0
70352,-86.9565217391304,4,2,1,90,0,1
74887,-86.9565217391304,4,2,1,90,0,1
75236,-86.9565217391304,4,2,1,90,0,1
75585,-86.9565217391304,4,2,1,90,0,1
75933,-76.9230769230769,4,2,1,90,0,1
76282,-86.9565217391304,4,2,1,90,0,1
78724,-66.6666666666667,4,2,1,90,0,1
79945,-66.6666666666667,4,2,1,90,0,1
80119,-66.6666666666667,4,2,1,90,0,1
80468,-86.9565217391304,4,2,1,90,0,1
80817,-86.9565217391304,4,2,1,90,0,1
81515,-86.9565217391304,4,2,1,90,0,1
84305,-66.6666666666667,4,2,1,90,0,1
84829,-200,4,2,1,70,0,0
85352,-50,4,2,1,90,0,1
85701,-86.9565217391304,4,2,1,90,0,1
86398,-86.9565217391304,4,2,1,90,0,1
87096,-66.6666666666667,4,2,1,90,0,1
87968,-66.6666666666667,4,2,1,90,0,1
88491,-83.3333333333333,4,2,1,90,0,1
89538,-66.6666666666667,4,2,1,90,0,1
89887,-83.3333333333333,4,2,1,90,0,1
91282,-66.6666666666667,4,2,1,75,0,0
91457,-66.6666666666667,4,2,1,75,0,0
91805,-100,4,2,1,75,0,0
91980,-100,4,2,1,75,0,0
92678,-83.3333333333333,4,2,1,80,0,0
98259,-74.0740740740741,4,2,1,80,0,0
103143,-83.3333333333333,4,2,1,80,0,0
103491,-74.0740740740741,4,2,1,80,0,0
103840,-66.6666666666667,4,2,1,100,0,1
109422,-66.6666666666667,4,2,1,100,0,0
109945,-66.6666666666667,4,2,1,100,0,1
110032,-66.6666666666667,4,2,1,100,0,0
110294,-66.6666666666667,4,2,1,100,0,0
110643,-66.6666666666667,4,2,1,100,0,1
110730,-66.6666666666667,4,2,1,60,0,0
111951,-66.6666666666667,4,2,1,5,0,0
112125,-66.6666666666667,4,2,1,90,0,0

[Colours]
Combo1 : 227,227,227
Combo2 : 197,117,255
Combo3 : 255,166,255
Combo4 : 225,215,251

[HitObjects]
118,204,11747,5,6,3:2:0:0:
172,327,11922,1,0,3:2:0:0:
118,204,12096,2,0,L|129:107,1,80,8|0,3:2|3:2,0:0:0:0:
170,106,12358,1,0,3:2:0:0:
170,106,12445,2,0,P|221:146|253:148,1,80,2|2,3:2|2:2,0:0:0:0:
352,115,12794,1,10,2:2:0:0:
423,5,12968,6,0,L|442:180,1,160,2|2,2:2|3:2,0:0:0:0:
416,200,13404,1,0,3:0:0:0:
416,200,13491,2,0,L|406:285,1,80,10|0,3:2|3:2,0:0:0:0:
341,372,13840,1,2,3:2:0:0:
341,372,13928,1,2,2:2:0:0:
341,372,14015,1,2,2:2:0:0:
239,321,14189,2,0,P|189:313|151:331,1,80,10|0,2:2|0:0,0:0:0:0:
236,190,14538,6,0,L|245:138,2,40,2|0|0,3:2|0:0|0:0,0:0:0:0:
53,210,14887,2,0,L|64:307,1,80,8|0,3:2|3:2,0:0:0:0:
105,308,15149,1,0,3:2:0:0:
105,308,15236,2,0,P|156:268|188:266,1,80,6|2,3:2|2:2,0:0:0:0:
290,278,15585,1,10,2:2:0:0:
361,383,15759,6,0,L|377:215,1,160,2|0,2:2|3:2,0:0:0:0:
348,200,16195,1,0,3:0:0:0:
348,200,16282,2,0,L|338:114,1,80,8|0,3:2|3:2,0:0:0:0:
276,42,16631,1,2,3:2:0:0:
276,42,16719,1,2,2:2:0:0:
276,42,16806,1,2,2:2:0:0:
164,65,16980,2,0,P|128:64|82:37,1,80,10|0,2:2|0:0,0:0:0:0:
71,187,17329,6,0,P|128:165|207:194,1,120,6|0,3:2|2:2,0:0:0:0:
212,215,17678,1,10,3:2:0:0:
332,121,17852,2,0,L|345:212,1,80,0|2,3:2|3:2,0:0:0:0:
342,340,18201,1,2,2:2:0:0:
261,309,18375,1,10,2:2:0:0:
261,309,18462,1,2,2:2:0:0:
261,309,18550,1,2,2:2:0:0:
343,200,18724,6,0,P|397:231|410:275,1,80,2|0,3:2|3:2,0:0:0:0:
419,287,18986,1,0,3:2:0:0:
419,287,19073,2,0,L|433:185,1,80,8|0,3:2|3:2,0:0:0:0:
468,175,19335,1,0,3:2:0:0:
468,175,19422,2,0,L|454:73,1,80,2|0,3:2|2:2,0:0:0:0:
373,11,19771,2,0,P|316:14|283:46,1,80,8|0,2:2|0:0,0:0:0:0:
139,20,20119,6,0,L|152:171,1,120,2|0,3:2|2:2,0:0:0:0:
119,179,20468,1,10,2:2:0:0:
64,291,20643,2,0,L|158:304,1,80,2|2,2:2|3:2,0:0:0:0:
184,287,20904,1,2,2:2:0:0:
184,287,20991,1,2,2:2:0:0:
241,178,21166,1,10,2:2:0:0:
241,178,21253,1,2,2:2:0:0:
241,178,21340,1,2,2:2:0:0:
357,150,21515,6,0,P|425:182|437:217,1,80,6|2,3:2|2:2,0:0:0:0:
482,294,21864,2,0,L|413:302,1,40,10|0,2:2|2:2,0:0:0:0:
405,323,22038,2,0,L|336:317,1,40,2|0,2:2|2:2,0:0:0:0:
335,358,22212,2,0,P|297:305|256:302,1,80,6|10,3:2|2:2,0:0:0:0:
184,287,22561,1,10,2:2:0:0:
179,257,22648,1,2,3:2:0:0:
174,227,22735,1,2,3:2:0:0:
171,197,22822,1,2,3:2:0:0:
166,168,22910,6,0,P|184:118|277:77,1,143.999995605469,4|0,3:2|2:2,0:0:0:0:
303,57,23259,2,0,P|347:93|356:121,1,64,8|0,2:2|2:2,0:0:0:0:
427,148,23608,2,0,P|417:204|398:225,1,64,0|0,3:2|2:2,0:3:0:0:
420,301,23957,2,0,P|366:321|338:314,1,64,8|0,0:2|2:2,0:3:0:0:
248,278,24305,6,0,L|128:300,1,96,2|0,3:2|0:0,0:0:0:0:
115,271,24654,1,10,2:2:0:0:
115,271,24829,2,0,P|61:231|60:155,1,128,2|0,3:2|2:2,0:0:0:0:
104,95,25352,2,0,L|223:74,1,96,8|0,2:2|2:2,0:0:0:0:
238,46,25701,6,0,P|290:55|308:77,1,64,4|0,3:2|0:0,0:0:0:0:
391,66,26050,2,0,P|409:115|399:142,1,64,8|0,2:2|2:2,0:0:0:0:
433,213,26398,2,0,P|399:253|371:258,1,64,0|0,3:2|2:2,0:0:0:0:
297,242,26747,1,10,2:2:0:0:
205,227,26922,1,2,3:2:0:0:
129,280,27096,6,0,P|106:238|129:171,1,96,6|0,3:2|2:2,0:0:0:0:
140,156,27445,2,0,L|131:102,2,32,8|0|0,2:2|2:2|2:2,0:0:0:0:
274,174,27794,2,0,P|297:216|274:283,1,96,6|0,3:2|2:2,0:0:0:0:
263,298,28143,2,0,L|272:352,2,32,8|0|0,2:2|2:2|2:2,0:0:0:0:
382,168,28491,6,0,P|364:118|271:77,1,143.999995605469,4|0,3:2|2:2,0:0:0:0:
245,57,28840,2,0,P|201:93|192:121,1,64,8|0,2:2|2:2,0:0:0:0:
121,148,29189,2,0,P|131:204|150:225,1,64,0|0,3:2|2:2,0:3:0:0:
128,301,29538,2,0,P|182:321|210:314,1,64,8|0,2:2|2:2,0:3:0:0:
294,203,29886,6,0,L|272:323,1,96,2|0,3:2|0:0,0:0:0:0:
300,346,30235,1,10,2:2:0:0:
300,346,30410,2,0,P|361:372|427:335,1,128,2|0,3:2|2:2,0:0:0:0:
485,214,30933,2,0,L|366:235,1,96,8|0,2:2|2:2,0:0:0:0:
351,263,31282,6,0,P|299:254|281:232,1,64,4|0,3:2|0:0,0:0:0:0:
198,243,31631,2,0,P|179:193|189:166,1,64,8|0,2:2|2:2,0:0:0:0:
156,96,31979,2,0,P|189:55|217:50,1,64,0|0,3:2|2:2,0:0:0:0:
291,67,32328,1,8,2:2:0:0:
366,4,32503,1,0,2:2:0:0:
460,30,32677,6,0,P|483:72|460:138,1,96,4|0,3:2|2:2,0:0:0:0:
449,153,33026,1,10,3:2:0:0:
361,193,33201,1,2,3:2:0:0:
360,285,33375,1,2,3:2:0:0:
360,285,33462,1,2,2:2:0:0:
360,285,33550,1,2,2:2:0:0:
272,234,33724,2,0,L|263:180,2,32,10|2|2,2:2|2:2|2:2,0:0:0:0:
361,193,34073,6,0,P|343:143|250:102,1,143.999995605469,4|0,3:2|2:2,0:0:0:0:
224,82,34422,2,0,P|180:118|171:146,1,64,8|0,2:2|2:2,0:0:0:0:
100,173,34771,2,0,P|110:229|129:250,1,64,0|0,3:2|2:2,0:3:0:0:
107,326,35120,2,0,P|161:346|189:339,1,64,8|0,2:2|2:2,0:3:0:0:
279,303,35468,6,0,L|399:325,1,96,2|0,3:2|0:0,0:0:0:0:
412,296,35817,1,10,2:2:0:0:
412,296,35992,2,0,P|466:256|467:180,1,128,2|0,3:2|2:2,0:0:0:0:
423,120,36515,2,0,L|304:99,1,96,8|0,2:2|2:2,0:0:0:0:
289,71,36864,6,0,P|237:80|219:102,1,64,4|0,3:2|0:0,0:0:0:0:
136,91,37213,2,0,P|117:140|127:167,1,64,8|0,2:2|2:2,0:0:0:0:
94,238,37561,2,0,P|127:278|155:283,1,64,0|0,3:2|2:2,0:0:0:0:
230,267,37910,1,10,3:2:0:0:
322,252,38085,1,2,3:2:0:0:
398,305,38259,6,0,P|421:263|398:196,1,96,6|0,3:2|2:2,0:0:0:0:
387,181,38608,2,0,L|396:127,2,32,8|0|0,2:2|2:2|2:2,0:0:0:0:
253,199,38957,2,0,P|230:241|253:308,1,96,6|0,3:2|2:2,0:0:0:0:
264,323,39306,2,0,L|255:377,2,32,8|0|0,2:2|2:2|2:2,0:0:0:0:
145,193,39654,6,0,P|163:143|256:102,1,143.999995605469,4|0,3:2|2:2,0:0:0:0:
282,82,40003,2,0,P|326:118|335:146,1,64,8|0,2:2|2:2,0:0:0:0:
406,173,40352,2,0,P|396:229|377:250,1,64,0|0,3:2|2:2,0:3:0:0:
399,326,40701,2,0,P|345:346|317:339,1,64,8|0,2:2|2:2,0:3:0:0:
233,228,41049,6,0,L|255:348,1,96,2|0,3:2|0:0,0:0:0:0:
232,352,41398,1,10,2:2:0:0:
232,352,41573,2,0,P|170:378|104:341,1,128,2|0,3:2|2:2,0:0:0:0:
42,239,42096,2,0,L|161:260,1,96,8|0,2:2|2:2,0:0:0:0:
185,290,42445,6,0,P|237:281|257:249,1,80,6|0,3:2|0:0,0:0:0:0:
353,286,42794,2,0,P|371:236|352:199,1,80,10|0,2:2|2:2,0:0:0:0:
363,93,43143,6,0,P|400:104|421:137,1,80,2|0,3:2|2:2,0:0:0:0:
362,212,43492,2,0,P|370:249|352:284,1,80,10|0,2:2|2:2,0:0:0:0:
252,261,43840,6,0,P|229:219|252:153,1,96,6|0,3:2|2:2,0:0:0:0:
263,138,44189,2,0,L|260:87,3,32,10|2|2|0,2:2|2:2|2:2|2:2,0:0:0:0:
241,81,44538,2,0,L|244:30,3,32,6|2|2|0,3:2|2:2|2:2|2:2,0:0:0:0:
226,10,44887,2,0,L|328:24,1,95.9999970703126,10|2,2:2|2:2,0:0:0:0:
361,0,45148,5,2,2:2:0:0:
361,0,45236,2,0,P|422:64|527:40,1,176.000005371094,4|0,3:2|2:2,0:0:0:0:
415,99,45759,1,0,3:2:0:0:
500,224,45933,2,0,L|384:242,1,88.000002685547,8|0,2:2|2:2,0:0:0:0:
270,188,46282,1,2,3:2:0:0:
321,272,46457,6,0,L|300:79,1,176.000005371094,2|0,3:2|3:2,0:0:0:0:
177,36,46980,2,0,P|104:38|80:62,1,88.000002685547,2|0,3:2|3:2,0:0:0:0:
74,89,47241,1,2,2:2:0:0:
74,89,47329,2,0,L|83:198,1,88.000002685547,10|0,2:2|2:2,0:0:0:0:
153,243,47678,2,0,L|144:352,1,88.000002685547,2|0,3:2|2:2,0:0:0:0:
296,360,48026,6,0,P|346:301|469:322,1,176.000005371094,6|2,3:2|2:2,0:0:0:0:
367,193,48550,1,2,3:2:0:0:
367,193,48637,1,0,3:2:0:0:
367,193,48724,2,0,L|357:81,1,88.000002685547,8|2,3:2|3:2,0:0:0:0:
506,0,49073,1,2,3:2:0:0:
465,95,49247,1,6,3:2:0:0:
465,95,49596,1,4,3:2:0:0:
504,190,49945,5,0,3:2:0:0:
504,190,50032,1,0,3:2:0:0:
504,190,50119,1,0,3:2:0:0:
386,141,50294,1,0,3:2:0:0:
301,230,50468,1,8,2:2:0:0:
301,230,50817,6,0,P|312:158|272:86,1,132.00000402832,4|0,3:2|2:2,0:0:0:0:
249,83,51166,1,8,2:2:0:0:
352,9,51340,1,0,2:2:0:0:
249,83,51515,1,0,3:2:0:0:
377,190,51689,6,0,L|265:166,2,88.000002685547,2|2|10,2:2|2:2|2:2,0:0:0:0:
377,190,52387,1,2,2:2:0:0:
283,285,52561,1,10,2:2:0:0:
283,285,52910,5,0,3:2:0:0:
281,307,53085,1,0,3:2:0:0:
279,329,53259,1,8,2:2:0:0:
279,329,53608,6,0,P|247:286|123:272,1,176.000005371094,4|8,3:2|2:2,0:0:0:0:
5,221,54131,1,0,3:2:0:0:
5,221,54218,1,0,3:2:0:0:
5,221,54305,2,0,L|16:119,1,88.000002685547,0|0,3:2|3:2,0:0:0:0:
73,53,54654,1,0,3:2:0:0:
142,158,54829,1,4,2:2:0:0:
208,84,55003,5,0,3:2:0:0:
142,158,55178,1,0,3:2:0:0:
289,124,55352,2,0,L|355:135,3,44.0000013427735,10|0|0|0,3:2|0:0|2:2|2:2,0:0:0:0:
377,116,55701,5,0,3:2:0:0:
277,217,55875,1,0,3:2:0:0:
232,32,56050,1,8,3:2:0:0:
232,32,56398,6,0,P|171:96|66:72,1,176.000005371094,4|0,3:2|0:0,0:0:0:0:
178,131,56921,1,0,3:2:0:0:
93,256,57096,2,0,L|209:274,1,88.000002685547,8|2,2:2|3:2,0:0:0:0:
323,220,57444,1,2,3:2:0:0:
272,304,57619,6,0,L|293:111,1,176.000005371094,2|8,3:2|2:2,0:0:0:0:
408,60,58142,2,0,P|481:62|505:86,1,88.000002685547,2|0,3:2|3:2,0:0:0:0:
511,113,58403,1,0,3:2:0:0:
511,113,58491,2,0,L|502:222,1,88.000002685547,10|0,3:2|2:2,0:0:0:0:
432,267,58840,2,0,L|441:376,1,88.000002685547,2|0,3:2|2:2,0:0:0:0:
289,384,59189,6,0,P|239:325|116:346,1,176.000005371094,6|2,3:2|3:2,0:0:0:0:
218,217,59712,1,2,3:2:0:0:
218,217,59799,1,0,3:2:0:0:
218,217,59887,1,8,3:2:0:0:
112,206,60061,1,2,2:2:0:0:
184,118,60235,1,2,2:2:0:0:
112,206,60409,1,6,2:2:0:0:
112,206,60759,6,0,L|-7:228,1,88.000002685547,4|0,3:2|3:2,0:0:0:0:
6,317,61108,1,0,3:2:0:0:
6,317,61195,1,0,3:2:0:0:
6,317,61282,2,0,L|108:331,1,88.000002685547,8|0,3:2|3:2,0:0:0:0:
190,260,61631,2,0,L|292:246,1,88.000002685547,0|0,3:2|0:0,0:0:0:0:
398,138,61980,6,0,P|318:203|335:291,1,176.000005371094,4|8,3:2|2:2,0:0:0:0:
416,373,62503,1,2,2:2:0:0:
416,373,62590,1,2,2:2:0:0:
416,373,62678,2,0,L|306:362,1,88.000002685547,2|0,3:2|2:2,0:0:0:0:
229,226,63026,1,0,3:2:0:0:
164,302,63201,1,8,2:2:0:0:
226,140,63375,6,0,P|237:182|229:224,1,88.000002685547,0|0,3:2|3:2,0:0:0:0:
88,236,63724,2,0,P|77:194|85:152,1,88.000002685547,8|0,2:2|0:0,0:0:0:0:
118,118,63986,1,0,3:2:0:0:
118,118,64073,2,0,L|13:98,1,88.000002685547,4|0,3:2|3:2,0:0:0:0:
184,59,64422,1,8,2:2:0:0:
184,59,64771,6,0,P|262:41|329:128,1,176.000005371094,4|8,3:2|2:2,0:0:0:0:
310,219,65294,1,0,3:2:0:0:
310,219,65381,1,0,3:0:0:0:
310,219,65468,2,0,L|297:105,1,88.000002685547,0|0,3:2|3:2,0:0:0:0:
390,12,65817,1,0,3:2:0:0:
325,102,65991,1,8,2:2:0:0:
184,59,66166,5,0,3:2:0:0:
168,225,66340,1,0,3:2:0:0:
244,139,66515,2,0,L|202:150,2,44.0000013427735,8|0|0,3:2|2:2|3:2,0:0:0:0:
281,251,66864,5,4,3:2:0:0:
406,132,67038,2,0,L|394:188,1,44.0000013427735,0|0,3:2|3:2,0:0:0:0:
367,193,67212,1,0,3:2:0:0:
371,225,67299,1,0,3:2:0:0:
376,258,67386,1,0,3:2:0:0:
381,290,67473,1,0,3:2:0:0:
385,323,67560,5,10,3:2:0:0:
281,251,67736,2,0,L|161:270,1,88.000002685547,14|0,2:2|0:0,0:0:0:0:
267,80,68085,5,10,3:2:0:0:
152,134,68259,2,0,L|108:247,1,88.000002685547,14|0,2:2|0:0,0:0:0:0:
12,85,68608,5,10,3:2:0:0:
0,209,68782,1,14,2:2:0:0:
120,216,68957,6,0,L|109:177,1,40,2|2,2:2|2:2,0:0:0:0:
138,133,69131,2,0,L|149:95,1,40,2|2,2:2|2:2,0:0:0:0:
190,72,69305,1,6,2:2:0:0:
229,69,69392,1,2,2:2:0:0:
267,80,69479,1,2,2:2:0:0:
298,105,69566,1,2,2:2:0:0:
316,141,69654,6,0,P|315:66|296:42,1,80,2|2,2:2|2:2,0:0:0:0:
329,236,70003,2,0,P|393:197|404:169,1,80,12|0,2:2|2:2,0:0:0:0:
220,276,70352,6,0,P|318:290|343:353,1,138.000002632141,4|0,3:2|2:2,0:0:0:0:
349,358,70701,1,8,2:2:0:0:
125,323,70875,2,0,P|118:255|200:171,1,184.000003509522,0|0,3:2|2:2,0:0:0:0:
329,236,71398,1,8,2:2:0:0:
329,236,71573,1,0,2:2:0:0:
255,96,71747,6,0,L|128:87,1,92.0000017547608,0|0,3:2|0:0,0:0:0:0:
56,186,72096,2,0,L|183:177,1,92.0000017547608,8|0,2:2|2:2,0:0:0:0:
186,200,72358,1,0,3:2:0:0:
186,200,72445,2,0,P|213:249|201:296,1,92.0000017547608,0|0,3:2|2:2,0:0:0:0:
314,335,72794,2,0,L|378:342,3,46.0000008773804,8|0|0|0,2:2|0:0|0:0|2:2,0:0:0:0:
399,345,73143,6,0,P|368:281|414:216,1,138.000002632141,6|0,3:2|0:0,0:0:0:0:
426,208,73491,1,8,2:2:0:0:
304,123,73666,2,0,L|321:0,2,92.0000017547608,4|0|0,3:2|2:2|2:2,0:0:0:0:
277,251,74189,1,10,2:2:0:0:
277,251,74364,1,2,3:2:0:0:
119,175,74538,6,0,P|115:105|170:58,1,138.000002632141,4|0,3:2|0:0,0:0:0:0:
203,64,74887,1,10,2:2:0:0:
203,64,74974,1,2,0:0:0:0:
203,64,75061,1,2,0:0:0:0:
119,175,75236,2,0,P|73:141|65:97,1,92.0000017547608,2|0,3:2|0:0,0:0:0:0:
21,281,75585,2,0,P|72:261|115:273,1,92.0000017547608,10|2,2:2|2:2,0:0:0:0:
291,236,75933,6,0,P|305:334|372:357,1,155.999992858887,4|0,3:2|2:2,0:0:0:0:
386,358,76282,1,8,2:2:0:0:
338,141,76456,2,0,P|270:134|186:216,1,184.000003509522,0|0,3:2|2:2,0:0:0:0:
251,345,76979,1,8,2:2:0:0:
251,345,77154,1,0,3:2:0:0:
101,272,77328,6,0,L|92:145,1,92.0000017547608,0|0,3:2|2:2,0:0:0:0:
218,78,77677,2,0,L|209:205,1,92.0000017547608,8|0,2:2|2:2,0:0:0:0:
232,208,77939,1,0,3:2:0:0:
232,208,78026,2,0,P|281:235|328:223,1,92.0000017547608,0|0,3:2|2:2,0:0:0:0:
419,100,78375,1,8,2:2:0:0:
419,100,78724,6,0,L|401:292,1,180.000006866455,6|0,3:2|2:2,0:0:0:0:
418,312,79073,1,2,3:2:0:0:
301,174,79247,2,0,L|283:366,1,180.000006866455,6|0,3:2|2:2,0:0:0:0:
311,384,79596,1,0,3:2:0:0:
248,262,79771,1,0,3:2:0:0:
126,314,79945,1,2,2:2:0:0:
126,314,80032,1,2,2:2:0:0:
126,314,80119,6,0,L|123:240,1,60.0000022888184,4|0,3:2|0:0,0:0:0:0:
90,217,80294,2,0,L|93:143,1,60.0000022888184,4|0,3:2|0:0,0:0:0:0:
69,119,80468,1,8,3:2:0:0:
69,119,80555,1,8,0:0:0:0:
69,119,80642,1,8,3:2:0:0:
128,46,80817,6,0,L|198:29,2,46.0000008773804,2|0|2,2:2|0:0|2:2,0:0:0:0:
240,134,81166,1,10,2:2:0:0:
270,157,81253,1,2,2:2:0:0:
308,164,81340,1,2,3:2:0:0:
346,152,81427,1,2,3:2:0:0:
369,127,81515,6,0,P|418:139|456:228,1,138.000002632141,4|0,3:2|2:2,0:0:0:0:
438,249,81864,1,8,2:2:0:0:
512,110,82038,1,0,2:2:0:0:
407,40,82212,6,0,P|344:35|295:62,1,92.0000017547608,0|0,3:2|2:2,0:0:0:0:
229,15,82561,2,0,P|193:67|192:122,1,92.0000017547608,8|0,2:2|2:2,0:0:0:0:
124,220,82910,6,0,P|187:215|236:242,1,92.0000017547608,0|0,3:2|0:0,0:0:0:0:
302,195,83259,2,0,P|337:247|338:302,1,92.0000017547608,10|0,3:2|3:2,0:0:0:0:
369,127,83608,5,0,2:2:0:0:
455,72,83782,1,0,3:2:0:0:
457,170,83957,1,8,2:2:0:0:
457,170,84305,6,0,L|424:363,1,180.000006866455,6|0,3:2|2:2,0:0:0:0:
392,378,84654,1,2,3:2:0:0:
392,378,84829,1,6,3:2:0:0:
294,320,85178,5,2,3:2:0:0:
298,214,85352,2,0,P|258:303|114:273,1,240,6|0,3:2|2:2,0:0:0:0:
102,262,85701,1,0,3:2:0:0:
179,159,85875,2,0,L|100:139,1,46.0000008773804,0|0,3:2|3:2,0:0:0:0:
82,161,86050,2,0,P|137:91|119:37,1,138.000002632141,8|0,3:2|3:2,0:0:0:0:
99,19,86398,6,0,L|255:9,1,138.000002632141,2|2,3:2|2:2,0:0:0:0:
276,7,86747,1,10,2:2:0:0:
260,39,86834,1,2,2:2:0:0:
263,75,86921,1,2,2:2:0:0:
284,104,87008,1,2,2:2:0:0:
313,110,87096,6,0,P|360:177|323:260,1,180.000006866455,4|0,3:2|2:2,0:0:0:0:
286,275,87445,1,8,0:2:0:0:
208,226,87619,2,0,P|155:202|70:236,2,120.000004577637,0|2|2,3:2|3:2|2:2,0:0:0:0:
78,303,88143,2,0,L|61:132,1,120.000004577637,8|0,2:2|0:0,0:0:0:0:
14,57,88491,6,0,P|90:94|140:77,1,95.9999970703126,4|0,3:2|0:0,0:0:0:0:
135,75,88753,1,0,3:2:0:0:
135,75,88840,2,0,P|211:38|261:55,1,95.9999970703126,8|8,2:2|2:2,0:0:0:0:
256,57,89102,1,8,2:2:0:0:
256,57,89189,2,0,L|268:177,1,95.9999970703126,0|0,3:2|3:2,0:0:0:0:
404,59,89538,2,0,L|391:185,1,120.000004577637,8|0,2:2|2:2,0:0:0:0:
418,302,89887,6,0,L|348:292,3,47.9999985351563,6|2|2|2,2:2|2:2|2:2|2:2,0:0:0:0:
331,318,90236,1,10,2:2:0:0:
257,243,90410,1,2,2:2:0:0:
186,311,90585,1,6,2:2:0:0:
152,324,90672,1,2,2:2:0:0:
117,323,90759,1,2,2:2:0:0:
84,308,90846,1,2,2:2:0:0:
59,282,90933,2,0,L|50:200,3,47.9999985351563,10|2|2|2,2:2|2:2|2:2|2:2,0:0:0:0:
28,194,91282,6,0,P|102:200|162:128,1,120.000004577637,4|2,3:2|2:2,0:0:0:0:
156,132,91544,1,2,2:2:0:0:
156,132,91631,1,2,2:2:0:0:
256,177,91805,2,0,L|251:77,1,80,0|2,3:2|2:2,0:0:0:0:
354,26,92154,2,0,P|282:79|199:29,1,160,2|2,2:2|2:2,0:0:0:0:
78,55,92678,6,0,L|102:193,1,95.9999970703126,6|0,2:2|0:0,0:0:0:0:
138,176,92939,1,2,3:2:0:0:
138,176,93026,2,0,L|142:311,1,95.9999970703126,10|0,2:2|2:2,0:0:0:0:
307,247,93375,2,0,P|332:176|310:130,1,95.9999970703126,2|2,2:2|2:2,0:0:0:0:
261,92,93724,1,10,2:2:0:0:
238,181,93898,1,2,2:2:0:0:
353,305,94073,6,0,L|225:321,1,95.9999970703126,6|2,2:2|2:2,0:0:0:0:
225,289,94335,1,2,3:2:0:0:
225,289,94422,2,0,L|97:273,1,95.9999970703126,10|0,2:2|2:2,0:0:0:0:
31,168,94771,2,0,L|15:97,2,47.9999985351563,2|0|2,3:2|0:0|2:2,0:0:0:0:
107,78,95119,2,0,P|159:49|263:91,1,143.999995605469,8|0,2:2|0:0,0:0:0:0:
267,106,95468,6,0,L|280:22,2,47.9999985351563,6|0|0,2:2|2:2|2:2,0:0:0:0:
306,233,95817,2,0,L|287:372,1,95.9999970703126,8|0,2:2|2:2,0:0:0:0:
142,315,96166,2,0,P|117:244|139:198,1,95.9999970703126,2|2,2:2|2:2,0:0:0:0:
188,160,96515,1,10,2:2:0:0:
211,249,96689,1,2,2:2:0:0:
96,373,96864,6,0,L|224:389,1,95.9999970703126,6|2,2:2|2:2,0:0:0:0:
224,357,97126,1,2,3:2:0:0:
224,357,97212,2,0,L|352:341,1,95.9999970703126,10|0,2:2|2:2,0:0:0:0:
418,236,97562,2,0,L|439:122,1,95.9999970703126,2|0,2:2|2:2,0:0:0:0:
301,80,97910,2,0,P|249:51|145:93,1,143.999995605469,8|0,2:2|0:0,0:0:0:0:
141,92,98259,6,0,L|127:206,1,108.000000411987,6|0,2:2|0:0,0:0:0:0:
33,277,98608,1,10,2:2:0:0:
33,277,98782,2,0,L|47:391,1,108.000000411987,2|0,3:2|2:2,0:0:0:0:
188,298,99131,2,0,P|249:287|302:312,1,108.000000411987,2|10,3:2|2:2,0:0:0:0:
317,332,99393,1,2,0:0:0:0:
317,332,99480,1,2,0:0:0:0:
474,215,99654,6,0,L|352:201,1,108.000000411987,6|0,2:2|2:2,0:0:0:0:
347,157,99916,1,2,0:2:0:0:
347,157,100003,2,0,L|211:170,1,108.000000411987,10|0,2:2|2:2,0:0:0:0:
218,204,100265,1,2,2:2:0:0:
218,204,100352,2,0,L|82:191,1,108.000000411987,2|0,2:2|2:2,0:0:0:0:
107,153,100614,1,2,0:0:0:0:
107,153,100701,2,0,L|-29:166,1,108.000000411987,10|0,2:2|0:0,0:0:0:0:
26,342,101050,6,0,P|121:253|171:276,1,162.000000617981,6|0,2:2|2:2,0:0:0:0:
176,278,101398,1,10,2:2:0:0:
327,364,101573,2,0,L|310:228,1,108.000000411987,2|2,3:2|2:2,0:0:0:0:
235,195,101922,1,2,3:2:0:0:
341,83,102096,1,8,3:2:0:0:
341,83,102183,1,0,3:2:0:0:
341,83,102271,1,0,3:2:0:0:
341,83,102358,1,0,3:2:0:0:
341,83,102445,6,0,L|214:100,1,108.000000411987,6|2,3:2|3:2,0:0:0:0:
119,37,102794,1,8,2:2:0:0:
211,12,102968,1,2,2:2:0:0:
145,123,103143,6,0,L|135:200,1,47.9999985351563,2|0,2:2|0:0,0:0:0:0:
103,207,103317,2,0,L|113:284,1,47.9999985351563,2|0,3:2|0:0,0:0:0:0:
88,302,103491,1,0,3:2:0:0:
121,280,103578,1,0,3:2:0:0:
161,276,103665,1,0,3:2:0:0:
199,290,103752,1,0,3:2:0:0:
225,315,103840,6,0,L|250:184,1,120.000004577637,6|2,3:2|2:2,0:0:0:0:
248,197,104189,1,2,2:2:0:0:
338,275,104364,2,0,L|236:187,1,120.000004577637,6|2,2:2|2:2,0:0:0:0:
247,196,104712,1,2,2:2:0:0:
360,157,104887,2,0,L|233:200,1,120.000004577637,6|2,2:2|2:2,0:0:0:0:
246,195,105236,1,2,2:2:0:0:
338,275,105410,2,0,L|236:187,1,120.000004577637,6|2,2:2|2:2,0:0:0:0:
247,196,105759,1,2,2:2:0:0:
116,262,105933,5,6,2:2:0:0:
149,164,106108,1,2,2:2:0:0:
247,196,106282,1,2,2:2:0:0:
116,262,106457,5,6,2:2:0:0:
164,350,106631,1,2,2:2:0:0:
164,350,106718,1,2,2:2:0:0:
164,350,106805,2,0,L|240:342,1,60.0000022888184,2|2,2:2|2:2,0:0:0:0:
250,308,106980,2,0,L|326:315,3,60.0000022888184,2|2|2|2,2:2|2:2|2:2|2:2,0:0:0:0:
340,286,107329,2,0,L|416:278,3,60.0000022888184,2|2|2|2,2:2|2:2|2:2|2:2,0:0:0:0:
424,246,107678,2,0,L|489:255,3,60.0000022888184,2|2|2|2,2:2|2:2|0:0|0:0,0:0:0:0:
496,226,108026,5,2,2:2:0:0:
480,203,108113,1,2,2:2:0:0:
480,177,108200,1,2,2:2:0:0:
493,154,108287,1,2,2:2:0:0:
512,142,108375,2,0,L|422:130,3,60.0000022888184,2|2|2|2,2:2|2:2|2:2|2:2,0:0:0:0:
431,103,108724,1,2,2:2:0:0:
396,108,108811,1,2,2:2:0:0:
362,113,108898,1,2,2:2:0:0:
241,26,109073,5,2,3:2:0:0:
202,31,109160,1,2,3:2:0:0:
175,59,109247,1,2,3:2:0:0:
171,98,109334,1,2,3:2:0:0:
192,131,109421,1,6,3:2:0:0:
192,131,109771,5,0,0:0:0:0:
325,154,109945,1,6,2:2:0:0:
325,154,110294,5,0,0:0:0:0:
325,154,110468,1,0,3:0:0:0:
444,172,110642,1,6,2:2:0:0:
256,192,110730,12,2,112125,2:2:0:0:
