osu file format v14

[General]
AudioFilename: audio.mp3
AudioLeadIn: 0
PreviewTime: 68859
Countdown: 0
SampleSet: Soft
StackLeniency: 0.4
Mode: 0
LetterboxInBreaks: 0
EpilepsyWarning: 1
WidescreenStoryboard: 1

[Editor]
Bookmarks: 6554,12135,23298,45624,56786,70740,81903,95159,109810,110333,111031,251403
DistanceSpacing: 2
BeatDivisor: 8
GridSize: 32
TimelineZoom: 2.2

[Metadata]
Title:sweet treasure (Short Ver.)
TitleUnicode:sweet treasure (Short Ver.)
Artist:Ayachi Nene (CV: Kiritani Hana)
ArtistUnicode:綾地寧々 (CV: 桐谷 華)
Creator:Riana
Version:Asuka_-'s Hard
Source:サノバウィッチ
Tags:sanoba witch sabbat of the eroge visual novel vn ゆず ゆずソフト yuzusoft 綾地 寧々 桐谷華 japanese video game seonah asuka_- jval93700
BeatmapID:2027288
BeatmapSetID:942292

[Difficulty]
HPDrainRate:5
CircleSize:4
OverallDifficulty:6
ApproachRate:7.5
SliderMultiplier:1.3
SliderTickRate:1

[Events]
//Background and Video events
0,0,"3.png",0,0
//Break Periods
//Storyboard Layer 0 (Background)
//Storyboard Layer 1 (Fail)
//Storyboard Layer 2 (Pass)
//Storyboard Layer 3 (Foreground)
//Storyboard Layer 4 (Overlay)
//Storyboard Sound Samples

[TimingPoints]
585,348.837209302326,4,2,1,55,1,0
11747,-100,4,2,1,70,0,0
22910,-125,4,2,1,60,0,0
27096,-125,4,2,1,60,0,0
27270,-125,4,2,1,60,0,0
28491,-125,4,2,1,60,0,0
33375,-125,4,2,1,60,0,0
33549,-125,4,2,1,60,0,0
34073,-125,4,2,1,60,0,0
38259,-125,4,2,1,60,0,0
38433,-125,4,2,1,60,0,0
39654,-125,4,2,1,60,0,0
44538,-125,4,2,1,60,0,0
44887,-125,4,2,1,60,0,0
45236,-125,4,2,1,80,0,0
51689,-125,4,2,1,80,0,0
51863,-125,4,2,1,80,0,0
52910,-125,4,2,1,80,0,0
60061,-125,4,2,1,80,0,0
60235,-125,4,2,1,80,0,0
60585,-125,4,2,1,80,0,0
68957,-125,4,2,1,80,0,0
70003,-125,4,2,1,80,0,0
70352,-100,4,2,1,90,0,1
74887,-100,4,2,1,90,0,1
75236,-100,4,2,1,90,0,1
75585,-100,4,2,1,90,0,1
75933,-100,4,2,1,90,0,1
79945,-100,4,2,1,90,0,1
80119,-100,4,2,1,90,0,1
80817,-100,4,2,1,90,0,1
81515,-100,4,2,1,90,0,1
84829,-100,4,2,1,70,0,1
85352,-100,4,2,1,90,0,1
86398,-100,4,2,1,90,0,1
87096,-100,4,2,1,90,0,1
87968,-100,4,2,1,90,0,1
88491,-100,4,2,1,90,0,1
89887,-100,4,2,1,90,0,1
91282,-100,4,2,1,75,0,1
91457,-100,4,2,1,75,0,1
91630,-100,4,2,1,75,0,1
91805,-100,4,2,1,75,0,1
91980,-100,4,2,1,75,0,1
92678,-100,4,2,1,80,0,1
103840,-100,4,2,1,100,0,1
109422,-83.3333333333333,4,2,1,100,0,0
110643,-100,4,2,1,100,0,0
110730,-100,4,2,1,60,0,0
110817,-100,4,2,1,60,0,0
111951,-100,4,2,1,5,0,0
112125,-100,4,2,1,90,0,0

[Colours]
Combo1 : 227,227,227
Combo2 : 197,117,255
Combo3 : 255,166,255
Combo4 : 225,215,251

[HitObjects]
69,334,11747,6,0,L|65:259,1,65,6|0,3:2|3:2,0:0:0:0:
89,187,12096,2,0,P|123:185|151:206,1,65,8|0,3:2|3:2,0:0:0:0:
202,265,12445,1,2,3:2:0:0:
202,265,12619,2,0,L|276:256,1,65,2|10,2:2|2:2,0:0:0:0:
329,313,12968,6,0,P|348:260|309:191,1,130,2|2,2:2|3:2,0:0:0:0:
239,163,13491,2,0,L|250:96,1,65,10|0,3:2|3:2,0:0:0:0:
318,49,13840,1,2,3:2:0:0:
394,101,14015,1,2,2:2:0:0:
394,101,14102,1,0,2:2:0:0:
394,101,14189,1,10,2:2:0:0:
485,243,14538,6,0,P|445:226|407:230,1,65,2|2,3:2|3:2,0:0:0:0:
342,248,14887,2,0,L|352:326,1,65,8|0,3:2|3:2,0:0:0:0:
273,347,15236,1,6,3:2:0:0:
273,347,15410,2,0,P|239:355|193:331,1,65,2|10,2:2|2:2,0:0:0:0:
126,356,15759,6,0,L|142:214,1,130,2|0,2:2|3:2,0:0:0:0:
207,174,16282,2,0,L|197:96,1,65,8|0,3:2|3:2,0:0:0:0:
142,46,16631,1,2,3:2:0:0:
108,123,16805,1,2,2:2:0:0:
108,123,16893,1,0,2:2:0:0:
108,123,16980,1,10,2:2:0:0:
95,292,17329,6,0,P|143:279|171:284,1,65,6|0,3:2|0:0,0:0:0:0:
245,292,17678,1,10,3:2:0:0:
245,292,17852,2,0,L|262:208,1,65,0|2,3:2|3:2,0:0:0:0:
294,151,18201,2,0,P|356:188|415:168,1,130,2|2,2:2|2:2,0:0:0:0:
492,182,18724,6,0,P|490:146|468:119,1,65,2|0,3:2|3:2,0:0:0:0:
444,43,19073,2,0,P|413:65|398:94,1,65,8|0,3:2|3:2,0:0:0:0:
318,64,19422,2,0,L|253:59,1,65,2|0,3:2|2:2,0:0:0:0:
190,116,19771,2,0,L|120:120,1,65,8|0,2:2|0:0,0:0:0:0:
69,56,20119,6,0,P|40:127|70:178,1,130,2|10,3:2|2:2,0:0:0:0:
61,255,20643,2,0,P|139:246|215:239,1,130,2|0,2:2|2:2,0:0:0:0:
267,275,21166,1,10,2:2:0:0:
267,275,21340,1,2,2:2:0:0:
330,219,21515,6,0,B|351:268|351:268|327:350,1,130,6|10,3:2|2:2,0:0:0:0:
413,354,22038,1,2,2:2:0:0:
413,354,22212,2,0,L|450:222,1,130,6|10,3:2|2:2,0:0:0:0:
433,74,22910,5,4,3:2:0:0:
433,74,23259,2,0,L|371:69,1,52,8|0,2:2|2:2,0:0:0:0:
325,15,23608,2,0,P|301:54|313:109,1,104,0|8,3:2|0:2,0:0:0:0:
377,152,24131,1,0,2:2:0:0:
377,152,24305,6,0,L|368:263,1,104,2|10,3:2|2:2,0:0:0:0:
412,320,24829,2,0,P|361:295|303:317,1,104,2|0,3:2|2:2,0:0:0:0:
259,358,25352,1,8,2:2:0:0:
107,321,25701,6,0,L|92:204,1,104,4|8,3:2|2:2,0:0:0:0:
111,141,26224,1,0,2:2:0:0:
111,141,26398,2,0,P|141:153|172:153,1,52,0|0,3:2|2:2,0:0:0:0:
236,136,26747,1,10,2:2:0:0:
236,136,26922,6,0,B|251:94|251:94|221:16,1,104,2|0,3:2|2:2,0:0:0:0:
154,16,27445,2,0,P|101:25|35:33,2,104,8|6|8,2:2|3:2|2:2,0:0:0:0:
309,4,28491,5,4,3:2:0:0:
309,4,28840,2,0,L|314:64,1,52,8|0,2:2|2:2,0:0:0:0:
278,125,29189,2,0,P|325:99|383:120,1,104,0|8,3:2|2:2,0:0:0:0:
434,156,29712,1,0,2:2:0:0:
434,156,29887,6,0,L|421:280,1,104,2|10,3:2|2:2,0:0:0:0:
461,327,30410,2,0,B|419:337|419:337|345:310,1,104,2|0,3:2|2:2,0:0:0:0:
291,281,30933,1,8,2:2:0:0:
227,138,31282,6,0,P|165:123|121:160,1,104,4|8,3:2|2:2,0:0:0:0:
54,139,31805,1,0,2:2:0:0:
54,139,31980,2,0,P|53:162|67:193,1,52,0|0,3:2|2:2,0:0:0:0:
25,256,32329,2,0,P|54:266|94:257,1,52,8|0,2:2|2:2,0:0:0:0:
139,219,32678,6,0,B|190:203|190:203|243:241,1,104,4|10,3:2|3:2,0:0:0:0:
301,267,33201,2,0,L|315:150,1,104,2|2,3:2|2:2,0:0:0:0:
255,110,33724,1,10,2:2:0:0:
394,39,34073,5,4,3:2:0:0:
476,171,34422,2,0,L|484:232,1,52,8|0,2:2|2:2,0:0:0:0:
471,300,34771,2,0,P|429:324|372:302,1,104,0|8,3:2|2:2,0:0:0:0:
333,244,35294,1,0,2:2:0:0:
333,244,35468,6,0,L|219:255,1,104,2|10,3:2|2:2,0:0:0:0:
180,315,35991,2,0,P|151:268|166:210,1,104,2|0,3:2|2:2,0:0:0:0:
218,171,36515,1,8,2:2:0:0:
132,40,36864,6,0,B|73:30|73:30|25:65,1,104,4|8,3:2|2:2,0:0:0:0:
39,134,37387,1,0,2:2:0:0:
39,134,37561,2,0,P|71:127|89:112,1,52,0|0,3:2|2:2,0:0:0:0:
163,112,37910,1,10,3:2:0:0:
163,112,38085,6,0,B|275:122,1,104,2|0,3:2|2:2,0:0:0:0:
319,179,38608,2,0,P|339:155|322:70,2,104,8|6|8,2:2|3:2|2:2,0:0:0:0:
180,251,39654,5,4,3:2:0:0:
38,186,40003,2,0,L|32:248,1,52,8|0,2:2|2:2,0:0:0:0:
19,314,40352,2,0,P|66:288|124:309,1,104,0|8,3:2|2:2,0:0:0:0:
179,339,40875,1,0,2:2:0:0:
179,339,41050,6,0,L|287:328,1,104,2|10,3:2|2:2,0:0:0:0:
349,369,41573,2,0,B|364:331|364:331|340:259,1,104,2|0,3:2|2:2,0:0:0:0:
271,240,42096,1,8,2:2:0:0:
308,88,42445,6,0,P|341:101|362:117,1,52,6|0,3:2|0:0,0:0:0:0:
427,83,42794,2,0,P|431:120|422:153,1,52,10|0,2:2|2:2,0:0:0:0:
503,155,43143,2,0,P|484:190|458:206,1,52,2|0,3:2|2:2,0:0:0:0:
505,269,43491,2,0,P|471:276|438:260,1,52,10|0,2:2|2:2,0:0:0:0:
389,229,43840,6,0,B|333:216|333:216|287:254,1,104,6|8,3:2|2:2,0:0:0:0:
219,258,44364,1,0,2:2:0:0:
219,258,44538,2,0,L|233:141,1,104,6|10,3:2|2:2,0:0:0:0:
107,58,45236,6,0,P|150:24|212:33,1,104,4|0,3:2|2:2,0:0:0:0:
265,63,45759,1,0,3:2:0:0:
265,63,45933,2,0,L|373:56,1,104,8|2,2:2|3:2,0:0:0:0:
433,10,46457,1,2,3:2:0:0:
433,10,46631,6,0,B|449:46|449:46|435:134,1,104,2|2,3:2|3:2,0:0:0:0:
472,180,47154,1,0,3:2:0:0:
472,180,47329,2,0,P|432:152|360:171,1,104,10|2,2:2|3:2,0:0:0:0:
322,302,48026,6,0,P|266:313|216:280,1,104,6|2,3:2|2:2,0:0:0:0:
173,234,48550,1,2,3:2:0:0:
173,234,48724,2,0,L|163:347,1,104,8|2,3:2|3:2,0:0:0:0:
85,330,49247,6,0,L|97:208,1,104,6|4,3:2|3:2,0:0:0:0:
70,71,49945,1,0,3:2:0:0:
70,71,50119,2,0,P|102:85|131:82,1,52,0|0,3:2|2:2,0:0:0:0:
190,54,50468,1,8,2:2:0:0:
345,42,50817,6,0,L|330:164,1,104,4|8,3:2|2:2,0:0:0:0:
272,195,51340,1,0,2:2:0:0:
272,195,51515,2,0,P|327:187|376:234,1,104,0|2,3:2|2:2,0:0:0:0:
436,244,52038,6,0,P|424:267|386:288,1,52,10|0,2:2|0:0,0:0:0:0:
380,357,52387,1,2,2:2:0:0:
380,357,52561,2,0,L|264:340,1,104,10|0,2:2|3:2,0:0:0:0:
161,236,53259,1,8,2:2:0:0:
49,344,53608,6,0,L|35:218,1,104,4|8,3:2|2:2,0:0:0:0:
23,163,54131,1,0,3:2:0:0:
23,163,54305,2,0,P|53:161|84:178,1,52,0|0,3:2|3:2,0:0:0:0:
142,203,54654,2,0,L|209:189,1,52,0|4,3:2|2:2,0:0:0:0:
271,188,55003,6,0,B|284:149|284:149|266:78,1,104,0|8,3:2|3:2,0:0:0:0:
212,33,55526,1,0,2:2:0:0:
212,33,55701,2,0,L|144:38,1,52,0|0,3:2|3:2,0:0:0:0:
82,31,56050,2,0,L|88:105,1,52,8|0,3:2|0:0,0:0:0:0:
43,148,56398,6,0,P|95:121|143:146,1,104,4|0,3:2|0:0,0:0:0:0:
197,183,56922,1,0,3:2:0:0:
197,183,57096,2,0,L|183:298,1,104,8|2,2:2|3:2,0:0:0:0:
148,356,57619,1,2,3:2:0:0:
148,356,57794,6,0,P|199:365|252:325,1,104,2|2,3:2|3:2,0:0:0:0:
302,290,58317,1,0,3:2:0:0:
302,290,58491,2,0,L|410:299,1,104,10|2,3:2|3:2,0:0:0:0:
479,161,59189,6,0,P|443:129|373:139,1,104,6|2,3:2|3:2,0:0:0:0:
318,163,59712,1,2,3:2:0:0:
318,163,59887,2,0,L|307:54,1,104,8|2,3:2|2:2,0:0:0:0:
241,17,60410,6,0,B|185:10|185:10|143:49,1,104,6|4,2:2|3:2,0:0:0:0:
99,101,60933,2,0,L|109:172,1,52,0|0,3:2|3:2,0:0:0:0:
68,220,61282,2,0,P|112:202|166:235,1,104,8|0,3:2|3:2,0:0:0:0:
290,311,61980,6,0,L|308:193,1,104,4|8,3:2|2:2,0:0:0:0:
275,135,62503,1,0,2:2:0:0:
275,135,62678,2,0,P|330:127|379:174,1,104,0|0,3:2|3:2,0:0:0:0:
398,225,63201,1,8,2:2:0:0:
398,225,63375,6,0,L|454:219,1,52,0|0,3:2|3:2,0:0:0:0:
501,160,63724,2,0,B|501:113|501:113|437:86,1,104,8|4,2:2|3:2,0:0:0:0:
300,40,64422,1,8,2:2:0:0:
229,179,64771,6,0,L|112:163,1,104,4|8,3:2|2:2,0:0:0:0:
62,118,65294,1,0,3:2:0:0:
62,118,65468,2,0,P|47:143|49:186,1,52,0|0,3:2|3:2,0:0:0:0:
80,234,65817,2,0,P|85:267|72:301,1,52,0|8,3:2|2:2,0:0:0:0:
24,339,66166,6,0,P|85:325|129:356,1,104,0|8,3:2|3:2,0:0:0:0:
187,381,66689,1,0,3:2:0:0:
187,381,66864,2,0,L|254:366,1,52,4|0,3:2|3:2,0:0:0:0:
301,324,67212,2,0,L|357:334,1,52,0|0,3:2|3:2,0:0:0:0:
423,364,67561,5,10,3:2:0:0:
423,364,67736,1,14,2:2:0:0:
495,226,68085,5,10,3:2:0:0:
495,226,68259,1,14,2:2:0:0:
360,147,68608,5,10,3:2:0:0:
360,147,68782,1,14,2:2:0:0:
297,194,68957,5,2,2:2:0:0:
297,194,69044,1,2,2:2:0:0:
297,194,69131,1,2,2:2:0:0:
217,182,69305,2,0,L|211:227,3,26,6|2|2|2,2:2|2:2|2:2|2:2,0:0:0:0:
228,244,69654,2,0,L|225:289,3,26,2|2|2|2,2:2|2:2|2:2|2:2,0:0:0:0:
249,301,70003,1,12,2:2:0:0:
436,351,70352,6,0,B|458:313|458:313|441:207,1,130,4|8,3:2|2:2,0:0:0:0:
387,165,70875,2,0,P|414:146|446:143,1,65,0|0,3:2|2:2,0:0:0:0:
323,220,71224,1,0,2:2:0:0:
265,152,71398,2,0,L|279:65,1,65,8|0,2:2|2:2,0:0:0:0:
323,220,71747,6,0,L|309:303,1,65,0|0,3:2|0:0,0:0:0:0:
247,338,72096,2,0,P|210:318|159:319,1,65,8|0,2:2|2:2,0:0:0:0:
109,347,72445,2,0,P|76:358|44:357,1,65,0|0,3:2|2:2,0:0:0:0:
11,280,72794,1,8,2:2:0:0:
11,280,72968,1,0,0:0:0:0:
31,197,73143,6,0,P|99:184|141:251,1,130,6|8,3:2|2:2,0:0:0:0:
215,189,73666,2,0,P|224:231|214:264,1,65,4|0,3:2|2:2,0:0:0:0:
156,309,74015,1,0,2:2:0:0:
236,332,74189,1,10,2:2:0:0:
219,251,74364,1,2,3:2:0:0:
306,285,74538,6,0,P|340:271|386:281,1,65,4|0,3:2|2:2,0:0:0:0:
451,286,74887,2,0,L|476:147,2,130,10|2|10,2:2|3:2|2:2,0:0:0:0:
394,348,75759,1,2,2:2:0:0:
326,298,75933,6,0,B|251:279|251:279|188:318,1,130,4|8,3:2|2:2,0:0:0:0:
123,285,76457,2,0,P|118:310|134:351,1,65,0|0,3:2|2:2,0:0:0:0:
178,221,76805,1,0,2:2:0:0:
121,158,76980,2,0,L|50:166,1,65,8|0,2:2|2:2,0:0:0:0:
178,221,77329,6,0,L|261:211,1,65,0|0,3:2|2:2,0:0:0:0:
317,173,77678,2,0,P|324:129|305:99,1,65,8|0,2:2|2:2,0:0:0:0:
236,84,78026,2,0,L|154:94,1,65,0|0,3:2|2:2,0:0:0:0:
102,141,78375,1,8,2:2:0:0:
102,141,78550,1,0,0:0:0:0:
42,80,78724,6,0,P|14:131|40:201,1,130,6|2,3:2|3:2,0:0:0:0:
114,224,79247,2,0,L|198:214,1,65,6|0,3:2|0:0,0:0:0:0:
237,154,79596,1,0,3:2:0:0:
286,236,79771,1,0,3:2:0:0:
286,236,79858,1,0,2:2:0:0:
286,236,79945,1,2,2:2:0:0:
254,314,80119,5,4,3:2:0:0:
311,251,80294,1,4,3:2:0:0:
386,289,80468,2,0,L|435:300,2,32.5,8|8|8,3:2|0:0|3:2,0:0:0:0:
322,232,80817,1,2,2:2:0:0:
376,167,80991,1,2,2:2:0:0:
348,86,81166,2,0,L|400:90,2,32.5,10|2|2,2:2|2:2|3:2,0:0:0:0:
297,18,81515,6,0,B|293:107|293:107|248:132,1,130,4|8,3:2|2:2,0:0:0:0:
207,57,82038,1,0,2:2:0:0:
168,132,82212,2,0,L|99:122,1,65,0|0,3:2|2:2,0:0:0:0:
222,207,82561,2,0,L|302:217,1,65,8|0,2:2|2:2,0:0:0:0:
168,269,82910,6,0,P|144:243|146:197,1,65,0|0,3:2|0:0,0:0:0:0:
214,339,83259,2,0,P|166:306|92:337,2,130,10|0|8,3:2|2:2|2:2,0:0:0:0:
295,377,84131,1,0,0:0:0:0:
295,377,84305,6,0,L|381:367,1,65,6|0,3:2|0:0,0:0:0:0:
439,340,84654,1,2,3:2:0:0:
305,289,84829,2,0,L|380:282,1,65,6|0,3:2|0:0,0:0:0:0:
449,255,85178,1,2,3:2:0:0:
310,195,85352,6,0,B|378:191|378:191|406:125,1,130,6|0,3:2|3:2,0:0:0:0:
379,52,85875,1,0,3:2:0:0:
320,113,86050,1,8,3:2:0:0:
320,113,86137,1,0,2:2:0:0:
320,113,86224,1,0,3:2:0:0:
254,38,86398,2,0,L|182:32,1,65,2|2,3:2|2:2,0:0:0:0:
113,73,86747,1,10,2:2:0:0:
113,73,86835,1,2,2:2:0:0:
113,73,86922,1,2,2:2:0:0:
41,14,87096,6,0,B|17:59|17:59|33:153,1,130,4|8,3:2|0:2,0:0:0:0:
11,220,87619,2,0,P|53:220|84:191,1,65,0|2,3:2|3:2,0:0:0:0:
150,169,87968,1,2,2:2:0:0:
150,169,88143,2,0,L|226:182,1,65,10|2,2:2|0:0,0:0:0:0:
267,245,88491,6,0,P|297:187|272:122,2,130,4|8|0,3:2|2:2|3:2,0:0:0:0:
182,251,89364,1,0,3:2:0:0:
182,251,89538,2,0,L|193:327,1,65,8|0,2:2|2:2,0:0:0:0:
242,383,89887,6,0,P|288:379|314:351,1,65,6|2,2:2|2:2,0:0:0:0:
362,309,90236,1,10,2:2:0:0:
362,309,90410,2,0,L|432:319,1,65,2|6,2:2|2:2,0:0:0:0:
472,247,90759,1,2,2:2:0:0:
429,174,90933,1,10,2:2:0:0:
429,174,91021,1,2,2:2:0:0:
429,174,91108,1,2,2:2:0:0:
487,120,91282,6,0,P|437:87|364:112,1,130,4|2,3:2|2:2,0:0:0:0:
323,167,91805,2,0,P|286:149|258:148,1,65,0|2,3:2|2:2,0:0:0:0:
226,70,92154,2,0,P|187:97|172:125,1,65,2|2,2:2|2:2,0:0:0:0:
92,112,92503,1,2,2:2:0:0:
92,112,92678,6,0,L|110:254,1,130,6|8,2:2|2:2,0:0:0:0:
139,319,93201,1,0,2:2:0:0:
139,319,93375,2,0,P|176:316|204:290,1,65,2|2,2:2|2:2,0:0:0:0:
256,360,93724,1,10,2:2:0:0:
256,360,93898,6,0,P|282:307|249:233,1,130,2|2,2:2|2:2,0:0:0:0:
179,215,94422,2,0,L|98:228,1,65,10|0,2:2|2:2,0:0:0:0:
240,157,94771,1,2,3:2:0:0:
240,157,94945,1,2,2:2:0:0:
319,184,95119,2,0,P|325:151|308:113,1,65,8|0,2:2|2:2,0:0:0:0:
259,58,95468,6,0,B|305:36|305:36|383:49,1,130,6|8,2:2|2:2,0:0:0:0:
467,43,95991,1,0,2:2:0:0:
467,43,96166,2,0,L|466:116,1,65,2|2,2:2|2:2,0:0:0:0:
406,167,96515,1,10,2:2:0:0:
406,167,96689,6,0,B|445:202|485:191|485:191|479:262,1,130,2|2,2:2|2:2,0:0:0:0:
481,319,97212,2,0,P|446:317|415:332,1,65,10|0,2:2|2:2,0:0:0:0:
348,376,97561,1,2,2:2:0:0:
348,376,97736,1,0,2:2:0:0:
269,344,97910,2,0,L|276:264,1,65,8|0,2:2|2:2,0:0:0:0:
350,240,98259,6,0,P|291:193|234:210,1,130,6|10,2:2|2:2,0:0:0:0:
173,252,98782,2,0,P|141:255|95:238,1,65,2|0,3:2|2:2,0:0:0:0:
34,207,99131,2,0,B|15:157|15:157|51:66,1,130,2|2,3:2|0:0,0:0:0:0:
94,18,99654,6,0,P|134:22|162:51,1,65,6|0,2:2|2:2,0:0:0:0:
216,92,100003,1,10,2:2:0:0:
286,44,100178,1,2,2:2:0:0:
286,44,100265,1,2,2:2:0:0:
286,44,100352,2,0,L|357:33,1,65,2|0,2:2|2:2,0:0:0:0:
216,92,100701,2,0,P|205:122|217:166,1,65,10|0,2:2|0:0,0:0:0:0:
260,222,101050,6,0,P|197:183|137:213,1,130,6|10,2:2|2:2,0:0:0:0:
99,268,101573,2,0,L|19:261,1,65,2|2,3:2|2:2,0:0:0:0:
139,340,101922,1,2,3:2:0:0:
139,340,102096,2,0,L|217:346,1,65,8|0,3:2|3:2,0:0:0:0:
224,334,102358,1,0,3:2:0:0:
241,324,102445,6,0,L|309:330,1,65,6|2,3:2|3:2,0:0:0:0:
380,369,102794,1,8,2:2:0:0:
438,307,102968,1,2,2:2:0:0:
387,240,103143,1,2,2:2:0:0:
387,240,103230,1,0,0:0:0:0:
387,240,103317,1,2,3:2:0:0:
421,160,103491,2,0,L|462:165,3,32.5,0|0|0|0,3:2|3:2|3:2|3:2,0:0:0:0:
482,195,103840,6,0,P|499:110|446:71,1,130,6|2,3:2|2:2,0:0:0:0:
416,3,104364,6,0,P|349:20|323:94,1,130,6|2,2:2|2:2,0:0:0:0:
231,106,104887,6,0,P|222:169|285:223,1,130,6|2,2:2|2:2,0:0:0:0:
271,314,105410,6,0,P|349:326|396:282,1,130,6|2,2:2|2:2,0:0:0:0:
487,266,105933,6,0,L|498:334,1,65,6|2,2:2|2:2,0:0:0:0:
407,211,106282,1,2,2:2:0:0:
473,97,106457,6,0,P|447:118|392:123,1,65,6|2,2:2|2:2,0:0:0:0:
326,116,106805,6,0,L|284:105,3,32.5,2|2|2|2,2:2|2:2|2:2|2:2,0:0:0:0:
251,123,107154,2,0,L|209:134,3,32.5,2|2|2|2,2:2|2:2|2:2|2:2,0:0:0:0:
179,109,107503,2,0,L|136:98,3,32.5,2|2|2|2,2:2|2:2|2:2|2:2,0:0:0:0:
106,122,107852,2,0,L|72:128,3,32.5,2|2|2|2,2:2|2:2|2:2|2:2,0:0:0:0:
29,118,108201,6,0,L|19:164,3,32.5,2|2|2|2,2:2|2:2|2:2|2:2,0:0:0:0:
44,189,108550,2,0,L|50:235,3,32.5,2|2|2|2,2:2|2:2|2:2|2:2,0:0:0:0:
32,263,108898,2,0,L|26:310,3,32.5,2|2|2|2,2:2|2:2|3:2|3:2,0:0:0:0:
48,336,109247,1,2,3:2:0:0:
131,291,109422,6,0,B|172:285|193:244|193:244|174:287|199:341,1,155.999995239258,6|2,3:2|0:0,0:0:0:0:
318,374,109945,6,0,B|333:335|317:296|317:296|334:332|386:355,1,155.999995239258,6|2,2:2|0:0,0:0:0:0:
416,214,110468,1,2,0:0:0:0:
416,214,110643,5,6,2:2:0:0:
256,192,110817,12,2,112125,2:2:0:0:
