osu file format v14

[General]
AudioFilename: audio.mp3
AudioLeadIn: 0
PreviewTime: 72065
Countdown: 0
SampleSet: Soft
StackLeniency: 0.7
Mode: 0
LetterboxInBreaks: 0
WidescreenStoryboard: 1

[Editor]
DistanceSpacing: 0.9
BeatDivisor: 4
GridSize: 32
TimelineZoom: 1.7

[Metadata]
Title:sweet treasure
TitleUnicode:sweet treasure
Artist:Ayachi Nene (CV: Kiritani Hana)
ArtistUnicode:綾地寧々 (CV: 桐谷 華)
Creator:Rockyy
Version:Collab Normal
Source:サノバウィッチ
Tags:kwaimsuckasfuk sanoba witch yuzusoft eroge hentai japanese sabbat of the
BeatmapID:2048146
BeatmapSetID:977618

[Difficulty]
HPDrainRate:3
CircleSize:3
OverallDifficulty:4
ApproachRate:5
SliderMultiplier:1.4
SliderTickRate:1

[Events]
//Background and Video events
0,0,"nene2.jpg",0,0
//Break Periods
//Storyboard Layer 0 (Background)
//Storyboard Layer 1 (Fail)
//Storyboard Layer 2 (Pass)
//Storyboard Layer 3 (Foreground)
//Storyboard Sound Samples

[TimingPoints]
2996,348.837209302326,4,2,1,30,1,0
47647,-100,4,2,1,40,0,0
72763,-100,4,2,1,55,0,1
82356,-100,4,2,1,50,0,1
82530,-100,4,2,1,65,0,1
82879,-100,4,2,2,55,0,1
83054,-100,4,2,2,45,0,1
83228,-100,4,2,2,35,0,1
83402,-100,4,2,2,25,0,1
83577,-100,4,2,1,50,0,1
83926,-100,4,2,1,55,0,1
93693,-100,4,2,1,55,0,0
95089,-100,4,2,1,45,0,0
114536,-100,4,2,1,25,0,0

[Colours]
Combo1 : 255,128,255
Combo2 : 235,235,235

[HitObjects]
50,162,14158,6,0,P|98:144|187:164,1,140,2|0,0:0|0:0,0:0:0:0:
234,244,14856,1,2,0:0:0:0:
234,244,15205,1,2,0:0:0:0:
283,328,15554,2,0,L|426:320,1,140,0|2,0:0|0:0,0:0:0:0:
490,249,16251,2,0,P|504:177|462:105,1,140,0|0,0:0|0:0,0:0:0:0:
393,66,16949,6,0,B|351:90|351:90|253:78,1,140,2|0,0:0|0:0,0:0:0:0:
170,37,17647,1,2,0:0:0:0:
170,37,17996,1,2,0:0:0:0:
110,114,18344,2,0,P|89:176|110:261,1,140,0|2,0:0|0:0,0:0:0:0:
160,327,19042,2,0,P|213:313|310:328,1,140,2|2,0:0|0:0,0:0:0:0:
389,356,19740,6,0,L|378:208,1,140,2|2,0:0|0:0,0:0:0:0:
408,177,20263,2,0,B|364:190|364:190|261:173,1,140,2|2,0:0|0:0,0:0:0:0:
225,157,20786,1,0,0:0:0:0:
156,87,21135,2,0,P|95:72|8:98,2,140,2|2|2,0:0|0:0|0:0,0:0:0:0:
238,33,22182,1,2,0:0:0:0:
320,86,22530,6,0,P|382:64|466:95,1,140,2|2,0:0|0:0,0:0:0:0:
465,130,23054,2,0,L|460:274,1,140
458,319,23577,1,0,0:0:0:0:
362,339,23926,2,0,B|291:319|291:319|203:346,1,140,2|2,1:2|1:2,0:0:0:0:
129,343,24623,2,0,L|121:260,1,70,2|2,1:2|1:2,0:0:0:0:
155,236,24972,2,0,L|158:162,1,70,2|2,1:2|1:2,0:0:0:0:
142,122,25321,5,6,1:2:0:0:
142,122,25670,2,0,P|203:100|291:135,2,140,2|2|2,0:0|0:0|0:0,0:0:0:0:
67,185,26716,2,0,B|58:248|58:248|79:325,1,140,2|2,0:0|0:0,0:0:0:0:
118,349,27240,2,0,L|272:339,1,140,2|0,0:0|0:0,0:0:0:0:
306,332,27763,1,2,0:0:0:0:
398,365,28112,6,0,P|398:296|354:241,1,140,2|2,0:0|0:0,0:0:0:0:
287,172,28809,2,0,P|254:117|275:38,1,140,2|2,0:0|0:0,0:0:0:0:
313,24,29333,1,2,0:0:0:0:
313,24,29507,2,0,L|486:31,1,140,2|2,0:0|0:0,0:0:0:0:
493,119,30205,2,0,B|478:176|478:176|390:188,1,140,2|2,0:0|0:0,0:0:0:0:
308,146,30902,5,6,0:0:0:0:
218,187,31251,2,0,P|195:238|222:319,2,140,2|2|2,0:0|0:0|0:0,0:0:0:0:
308,146,32298,2,0,P|311:73|263:27,1,140,2|2,0:0|0:0,0:0:0:0:
217,28,32821,2,0,L|62:37,1,140,2|0,0:0|0:0,0:0:0:0:
28,40,33344,1,2,0:0:0:0:
77,124,33693,6,0,B|104:169|104:169|110:268,1,140,2|2,0:0|0:0,0:0:0:0:
43,329,34391,1,2,0:0:0:0:
136,357,34740,1,2,0:0:0:0:
222,310,35089,2,0,P|280:290|357:334,1,140,2|2,0:0|0:0,0:0:0:0:
386,352,35612,2,0,B|431:361|431:361|458:308|443:254,1,140,2|0,0:0|0:0,0:0:0:0:
423,226,36135,1,2,0:0:0:0:
454,133,36484,5,6,0:0:0:0:
454,133,36833,2,0,P|432:79|460:0,2,140,2|2|2,0:0|0:0|0:0,0:0:0:0:
359,159,37879,2,0,B|306:133|306:133|268:160|203:176,1,140,2|2,0:0|0:0,0:0:0:0:
194,137,38402,2,0,B|160:110|144:61|144:61|88:50,1,140,2|0,0:0|0:0,0:0:0:0:
48,60,38926,1,2,0:0:0:0:
43,157,39275,6,0,P|105:187|115:255,1,140
95,347,39972,2,0,B|131:378|131:378|243:350,1,140,2|2,0:0|0:0,0:0:0:0:
263,331,40496,1,2,0:0:0:0:
263,331,40670,2,0,P|334:315|405:342,1,140,2|2,0:0|0:0,0:0:0:0:
471,272,41368,2,0,L|462:120,1,140,2|2,0:0|0:0,0:0:0:0:
377,115,42065,5,6,0:0:0:0:
377,115,42414,2,0,L|386:278,2,140,2|2|2,0:0|0:0|0:0,0:0:0:0:
289,71,43461,2,0,P|217:42|131:64,1,140,2|2,0:0|0:0,0:0:0:0:
120,84,43984,2,0,P|128:153|111:232,1,140,2|0,0:0|0:0,0:0:0:0:
78,255,44507,1,2,0:0:0:0:
147,323,44856,6,0,B|191:299|191:299|297:313,1,140,6|2,0:0|0:0,0:0:0:0:
368,353,45554,2,0,P|362:288|385:210,1,140,2|2,0:0|0:0,0:0:0:0:
474,186,46251,2,0,P|385:194|315:154,1,140,6|2,0:0|0:0,0:0:0:0:
265,110,46949,1,2,0:0:0:0:
171,139,47298,1,2,0:0:0:0:
94,77,47647,6,0,B|58:93|58:93|45:204,1,140,6|0,0:1|0:0,0:0:0:0:
68,237,48170,1,0,3:0:0:0:
68,237,48344,2,0,P|129:264|208:234,1,140,8|2,0:0|0:0,0:0:0:0:
269,178,49042,2,0,P|337:159|419:191,2,140,2|2|10,0:1|0:0|0:0,0:0:0:0:
196,244,50089,1,2,0:0:0:0:
242,330,50437,6,0,B|275:361|275:361|389:349,1,140,6|2,0:1|0:0,0:0:0:0:
405,317,50961,1,2,3:2:0:0:
405,317,51135,2,0,P|396:257|407:166,1,140,8|2,0:0|0:0,0:0:0:0:
433,139,51658,1,2,3:2:0:0:
395,48,52007,2,0,B|354:6|313:1|313:1|265:30,1,140
234,52,52530,1,10,0:0:0:0:
187,138,52879,1,10,0:0:0:0:
278,194,53228,6,0,P|299:261|270:336,1,140,6|10,3:1|0:0,0:0:0:0:
236,351,53751,2,0,B|198:332|198:332|86:349,1,140,2|2,0:0|0:0,0:0:0:0:
52,351,54275,1,2,0:0:0:0:
52,351,54449,2,0,L|64:206,1,140,10|2,0:0|0:0,0:0:0:0:
69,162,54972,1,10,0:0:0:0:
77,64,55321,2,0,P|131:84|166:168,1,140,2|10,3:2|0:0,0:0:0:0:
223,234,56019,6,0,P|290:217|380:245,1,140,2|8,3:2|0:0,0:0:0:0:
425,304,56716,1,2,3:2:0:0:
489,230,57065,2,0,L|480:149,1,70,10|0,3:2|0:0,0:0:0:0:
476,111,57414,2,0,P|426:85|331:101,1,140,2|8,3:2|0:0,0:0:0:0:
267,154,58112,2,0,P|204:177|119:148,1,140,2|8,3:2|0:0,0:0:0:0:
59,97,58809,6,0,B|17:131|17:131|14:249,1,140,6|0,0:1|0:0,0:0:0:0:
36,261,59333,1,0,3:0:0:0:
36,261,59507,2,0,L|191:273,1,140,8|2,0:0|0:0,0:0:0:0:
260,320,60205,2,0,P|331:301|425:315,2,140,2|2|10,0:0|0:0|0:0,0:0:0:0:
175,271,61251,1,2,3:2:0:0:
131,183,61600,6,0,P|113:142|156:53,1,140,6|2,0:1|0:0,0:0:0:0:
239,38,62298,2,0,P|307:32|397:35,1,140,2|2,0:0|0:0,0:0:0:0:
419,60,62821,2,0,P|437:123|353:131,1,140
282,136,63519,1,0,0:0:0:0:
282,136,63693,2,0,P|211:163|217:216,1,140
175,309,64391,6,0,P|112:319|46:274,1,140,6|8,3:1|0:0,0:0:0:0:
56,182,65089,1,0,3:0:0:0:
123,111,65437,2,0,L|214:103,1,70,2|8,3:2|0:0,0:0:0:0:
225,68,65786,2,0,L|385:75,1,140,2|10,0:0|3:2,0:0:0:0:
454,116,66484,1,2,3:2:0:0:
476,211,66833,1,10,0:0:0:0:
430,297,67182,6,0,P|396:261|386:171,1,140,2|8,3:2|0:0,0:0:0:0:
335,89,67879,1,2,3:2:0:0:
267,160,68228,2,0,L|184:162,1,70,2|8,0:0|0:0,0:0:0:0:
167,122,68577,2,0,B|113:104|113:104|29:142,1,140,2|8,0:0|0:0,0:0:0:0:
1,229,69275,2,0,P|21:306|82:335,1,140,2|0,3:2|1:0,0:0:0:0:
113,309,69798,1,0,1:0:0:0:
113,309,69972,6,0,L|206:313,1,70,4|4,1:0|1:0,0:0:0:0:
271,269,70496,2,0,L|368:272,1,70,4|4,1:0|1:0,0:0:0:0:
415,335,71019,2,0,L|512:338,1,70,4|4,1:0|1:0,0:0:0:0:
106,110,72763,6,0,P|165:94|250:125,1,140,6|10,3:2|0:2,0:0:0:0:
278,145,73286,2,0,P|331:164|411:127,1,140,2|0,3:2|3:0,0:0:0:0:
437,95,73809,1,10,0:0:0:0:
477,184,74158,2,0,L|474:331,1,140,2|10,3:2|0:0,0:0:0:0:
387,369,74856,1,2,3:2:0:0:
294,335,75205,1,10,0:0:0:0:
197,349,75554,6,0,P|120:338|56:348,1,140,2|8,3:2|0:0,0:0:0:0:
17,373,76077,2,0,P|30:298|23:218,1,140,0|0,3:0|3:0,0:0:0:0:
20,185,76600,1,0,0:0:0:0:
45,90,76949,2,0,P|94:56|183:62,2,140,0|8|0,3:0|0:0|3:0,0:0:0:0:
126,145,77996,2,0,L|131:230,1,70,10|2,0:0|0:0,0:0:0:0:
137,262,78344,6,0,P|203:232|300:247,1,140,6|10,3:2|0:0,0:0:0:0:
317,246,78868,2,0,P|393:264|461:232,1,140,2|0,3:2|0:0,0:0:0:0:
463,197,79391,1,10,0:0:0:0:
476,99,79740,2,0,B|440:59|440:59|390:64|353:52,1,140,2|10,3:2|0:0,0:0:0:0:
261,21,80437,1,2,3:2:0:0:
172,62,80786,1,10,0:0:0:0:
169,160,81135,6,0,P|182:219|181:303,1,140,6|10,3:2|0:0,0:0:0:0:
148,334,81658,2,0,P|218:313|298:322,1,140,6|0,3:2|3:0,0:0:0:0:
332,329,82182,1,0,0:0:0:0:
427,350,82530,5,12,3:2:0:0:
427,350,82705,2,0,B|449:277|449:277|427:195,1,140,12|0,0:0|1:0,0:0:0:0:
405,174,83228,2,0,P|383:125|411:32,1,140,10|2,0:0|0:0,0:0:0:0:
481,119,83926,6,0,L|322:113,1,140,6|8,3:2|0:0,0:0:0:0:
264,52,84623,1,2,0:0:0:0:
171,84,84972,1,10,0:0:0:0:
79,47,85321,2,0,P|86:106|79:213,1,140,2|10,3:2|0:0,0:0:0:0:
19,261,86019,2,0,P|87:224|180:217,1,140,2|10,3:2|0:0,0:0:0:0:
183,306,86716,6,0,B|230:352|230:352|316:337,1,140,6|10,3:2|0:0,0:0:0:0:
323,294,87240,2,0,B|366:254|366:254|465:267,1,140,2|2,3:2|3:2,0:0:0:0:
486,293,87763,1,14,0:0:0:0:
496,195,88112,2,0,P|481:122|482:47,1,140,2|10,3:2|0:0,0:0:0:0:
388,24,88809,1,2,3:2:0:0:
308,81,89158,1,10,0:0:0:0:
225,28,89507,6,0,B|178:22|127:45|127:45|113:94,1,140,6|8,3:2|0:0,0:0:0:0:
138,126,90030,2,0,P|154:187|128:280,1,140,0|0,3:0|0:0,0:0:0:0:
95,284,90554,1,10,0:0:0:0:
161,356,90902,2,0,L|317:349,1,140,2|10,3:2|0:0,0:0:0:0:
366,276,91600,1,2,3:2:0:0:
458,308,91949,1,10,0:0:0:0:
428,214,92298,6,0,P|371:188|295:218,1,140,6|10,3:2|0:0,0:0:0:0:
264,245,92821,2,0,P|203:275|117:241,1,140,2|2,3:2|0:0,0:0:0:0:
105,219,93344,1,0,0:0:0:0:
84,123,93693,6,0,B|103:88|103:88|152:69|202:90,1,140,6|2,3:2|0:0,0:0:0:0:
247,99,94216,2,0,P|315:115|337:103,1,70,2|2,0:0|0:0,0:0:0:0:
354,90,94565,2,0,P|421:76|475:119,1,140
449,170,95089,6,0,L|453:314,1,140,6|10,0:0|0:0,0:0:0:0:
418,346,95612,1,0,0:0:0:0:
418,346,95786,2,0,B|363:319|363:319|262:332,1,140,2|10,0:0|0:0,0:0:0:0:
191,297,96484,2,0,L|45:291,1,140,0|10,0:0|0:0,0:0:0:0:
10,201,97182,1,0,3:2:0:0:
46,110,97530,1,8,0:0:0:0:
136,148,97879,6,0,P|201:152|261:92,1,140,6|10,3:2|0:0,0:0:0:0:
284,66,98402,1,0,0:0:0:0:
284,66,98577,2,0,B|329:48|329:48|428:77,1,140,2|10,3:2|0:0,0:0:0:0:
473,153,99275,2,0,P|464:233|482:302,1,140,0|10,0:0|0:0,0:0:0:0:
398,348,99972,1,2,3:2:0:0:
317,291,100321,1,10,0:0:0:0:
231,339,100670,6,0,B|177:312|177:312|73:336,1,140,6|10,3:2|0:0,0:0:0:0:
54,349,101193,2,0,L|63:199,1,140,2|2,3:2|0:0,0:0:0:0:
69,160,101716,1,8,0:0:0:0:
126,80,102065,2,0,P|204:57|277:88,1,140,6|10,3:2|0:0,0:0:0:0:
310,156,102763,1,2,3:2:0:0:
407,149,103112,1,10,0:0:0:0:
469,224,103461,6,0,B|470:278|437:318|437:318|368:312,1,140,2|10,3:2|0:0,0:0:0:0:
362,281,103984,2,0,P|294:264|216:279,1,140,2|0,3:2|0:0,0:0:0:0:
184,301,104507,1,0,0:0:0:0:
90,272,104856,2,0,P|63:226|72:142,1,140,2|10,3:2|0:0,0:0:0:0:
101,107,105379,1,2,3:2:0:0:
101,107,105554,2,0,L|187:101,1,70,0|0,0:0|0:0,0:0:0:0:
215,120,105902,1,0,0:0:0:0:
328,101,106251,6,0,P|366:58|448:89,1,140,14|0,0:0|3:2,0:0:0:0:
467,116,106775,2,0,B|472:156|472:156|443:196|440:262,1,140,14|0,0:0|3:2,0:0:0:0:
444,298,107298,2,0,P|401:338|308:308,1,140,14|0,0:0|3:2,0:0:0:0:
293,289,107821,2,0,B|264:265|264:265|210:251|154:283,1,140,14|0,0:0|3:2,0:0:0:0:
125,307,108344,2,0,B|90:330|90:330|67:211,1,140,14|0,0:0|3:2,0:0:0:0:
65,184,108868,1,14,0:0:0:0:
256,192,109042,12,2,111135,0:0:0:0:
309,100,111833,6,0,P|350:139|346:238,1,140,14|0,0:2|3:2,0:0:0:0:
329,260,112356,2,0,B|289:269|271:304|271:304|247:276|203:277,1,140,14|0,0:2|3:2,0:0:0:0:
173,304,112879,1,2,0:0:0:0:
173,304,113054,1,14,0:0:0:0:
256,192,113228,12,0,114536,0:0:0:0:
