osu file format v14

[General]
AudioFilename: audio.mp3
AudioLeadIn: 0
PreviewTime: 82627
Countdown: 0
SampleSet: Normal
StackLeniency: 0.7
Mode: 1
LetterboxInBreaks: 0
WidescreenStoryboard: 0

[Editor]
Bookmarks: 1027,1507,16867,18787,20707,27427,28387,36067,39907,43747,47587,53347,61027,64867,68707,76387,82147,84067,91747,95587,99427,105187,106147
DistanceSpacing: 1.2
BeatDivisor: 3
GridSize: 32
TimelineZoom: 1.600006

[Metadata]
Title:Tu Hua
TitleUnicode:徒 花
Artist:Aya.Tsumi
ArtistUnicode:Aya~亜夜罪~
Creator:SlenderMen
Version:Oni
Source:Muse Dash
Tags:vocaloid Luo TianYi 洛天依 metal Rock Chinese Video Game BK小鹿 ayatsumi
BeatmapID:2446122
BeatmapSetID:1172849

[Difficulty]
HPDrainRate:5.5
CircleSize:2
OverallDifficulty:6
ApproachRate:10
SliderMultiplier:1.6
SliderTickRate:2

[Events]
//Background and Video events
0,0,"34 Tu Hua.png",0,60
//Break Periods
//Storyboard Layer 0 (Background)
//Storyboard Layer 1 (Fail)
//Storyboard Layer 2 (Pass)
//Storyboard Layer 3 (Foreground)
//Storyboard Layer 4 (Overlay)
//Storyboard Sound Samples

[TimingPoints]
1507,480,4,1,0,80,1,0
1507,-83.3333333333333,4,1,0,80,0,1
16867,-83.3333333333333,4,1,0,60,0,0
18787,-100,4,1,0,70,0,0
20227,-101.010101010101,4,1,0,70,0,0
20347,-102.040816326531,4,1,0,70,0,0
20467,-103.092783505155,4,1,0,70,0,0
20707,-105.263157894737,4,1,0,70,0,0
20827,-111.111111111111,4,1,0,70,0,0
27427,-111.111111111111,4,1,0,70,0,0
27667,-108.138269917447,4,1,0,70,0,0
27787,-106.710716850583,4,1,0,70,0,0
27907,-105.320252557966,4,1,0,70,0,0
28027,-103.965666378335,4,1,0,70,0,0
28147,-102.645482007787,4,1,0,70,0,0
28267,-101.35840534848,4,1,0,70,0,0
28387,-100.103206405804,4,1,0,70,0,0
36067,-100,4,1,0,65,0,0
39907,-83.3333333333333,4,1,0,75,0,0
43747,-100,4,1,0,65,0,0
47587,-83.3333333333333,4,1,0,75,0,0
53347,-100,4,1,0,80,0,0
99427,-83.3333333333333,4,1,0,80,0,1
105187,-83.3333333333333,4,1,0,80,0,0

[Colours]
Combo1 : 66,167,193
Combo2 : 91,230,59

[HitObjects]
256,192,1027,5,2,0:0:0:0:
256,192,1147,1,2,0:0:0:0:
256,192,1507,1,4,0:0:0:0:
256,192,1747,1,2,0:0:0:0:
256,192,1867,1,2,0:0:0:0:
256,192,1987,1,0,0:0:0:0:
256,192,2107,1,0,0:0:0:0:
256,192,2227,1,2,0:0:0:0:
256,192,2467,1,0,0:0:0:0:
256,192,2587,1,0,0:0:0:0:
256,192,2707,1,2,0:0:0:0:
256,192,2947,1,2,0:0:0:0:
256,192,3067,1,0,0:0:0:0:
256,192,3187,1,2,0:0:0:0:
256,192,3307,1,2,0:0:0:0:
256,192,3427,1,0,0:0:0:0:
256,192,3667,1,2,0:0:0:0:
256,192,3787,1,2,0:0:0:0:
256,192,3907,1,0,0:0:0:0:
256,192,4147,1,2,0:0:0:0:
256,192,4267,1,2,0:0:0:0:
256,192,4387,1,0,0:0:0:0:
256,192,4507,1,2,0:0:0:0:
256,192,4627,1,2,0:0:0:0:
256,192,4867,1,2,0:0:0:0:
256,192,4987,1,0,0:0:0:0:
256,192,5107,1,2,0:0:0:0:
256,192,5227,1,2,0:0:0:0:
256,192,5347,1,0,0:0:0:0:
256,192,5587,1,2,0:0:0:0:
256,192,5707,1,2,0:0:0:0:
256,192,5827,1,0,0:0:0:0:
256,192,5947,1,0,0:0:0:0:
256,192,6067,1,2,0:0:0:0:
256,192,6307,1,0,0:0:0:0:
256,192,6427,1,0,0:0:0:0:
256,192,6547,1,2,0:0:0:0:
256,192,6787,1,2,0:0:0:0:
256,192,6907,1,0,0:0:0:0:
256,192,7027,1,2,0:0:0:0:
256,192,7147,1,2,0:0:0:0:
256,192,7267,1,0,0:0:0:0:
256,192,7747,1,0,0:0:0:0:
256,192,7987,1,2,0:0:0:0:
256,192,8107,1,0,0:0:0:0:
256,192,8227,1,0,0:0:0:0:
256,192,8347,1,2,0:0:0:0:
256,192,8467,1,2,0:0:0:0:
256,192,8707,1,2,0:0:0:0:
256,192,8827,1,0,0:0:0:0:
256,192,8947,1,2,0:0:0:0:
256,192,9187,1,4,0:0:0:0:
256,192,9427,1,2,0:0:0:0:
256,192,9547,1,2,0:0:0:0:
256,192,9667,1,0,0:0:0:0:
256,192,9787,1,0,0:0:0:0:
256,192,9907,1,2,0:0:0:0:
256,192,10147,1,0,0:0:0:0:
257,200,10267,1,0,0:0:0:0:
256,192,10387,1,2,0:0:0:0:
257,200,10507,1,0,0:0:0:0:
256,192,10627,1,2,0:0:0:0:
256,192,10867,1,2,0:0:0:0:
256,192,10987,1,2,0:0:0:0:
256,192,11107,1,0,0:0:0:0:
256,192,11347,1,2,0:0:0:0:
256,192,11467,1,2,0:0:0:0:
256,192,11587,1,0,0:0:0:0:
256,192,11707,1,2,0:0:0:0:
256,192,11827,1,2,0:0:0:0:
256,192,12067,1,0,0:0:0:0:
256,192,12187,1,0,0:0:0:0:
256,192,12307,1,2,0:0:0:0:
256,192,12547,1,2,0:0:0:0:
256,192,12667,1,0,0:0:0:0:
256,192,12787,1,2,0:0:0:0:
256,192,12907,1,2,0:0:0:0:
256,192,13027,1,0,0:0:0:0:
256,192,13267,1,2,0:0:0:0:
256,192,13387,1,2,0:0:0:0:
256,192,13507,1,0,0:0:0:0:
256,192,13627,1,0,0:0:0:0:
256,192,13747,1,2,0:0:0:0:
256,192,13987,1,0,0:0:0:0:
256,192,14107,1,0,0:0:0:0:
256,192,14227,1,2,0:0:0:0:
247,189,14347,1,0,0:0:0:0:
256,192,14467,1,2,0:0:0:0:
256,192,14707,1,2,0:0:0:0:
256,192,14947,1,0,0:0:0:0:
256,192,15427,1,0,0:0:0:0:
256,192,15667,1,2,0:0:0:0:
256,192,15787,1,0,0:0:0:0:
256,192,15907,1,0,0:0:0:0:
256,192,16027,1,2,0:0:0:0:
256,192,16147,1,2,0:0:0:0:
256,192,16387,1,2,0:0:0:0:
256,192,16507,1,0,0:0:0:0:
256,192,16627,1,2,0:0:0:0:
256,192,16867,8,0,18547,0:0:0:0:
256,192,18787,5,0,0:0:0:0:
256,192,19027,1,2,0:0:0:0:
256,192,19267,1,2,0:0:0:0:
256,192,19387,1,2,0:0:0:0:
256,192,19507,1,2,0:0:0:0:
256,192,19627,1,2,0:0:0:0:
256,192,19747,1,2,0:0:0:0:
256,192,19987,1,2,0:0:0:0:
256,192,20227,1,2,0:0:0:0:
256,192,20347,1,2,0:0:0:0:
256,192,20467,1,2,0:0:0:0:
256,192,20707,1,4,0:0:0:0:
256,192,20947,1,2,0:0:0:0:
256,192,21187,1,0,0:0:0:0:
256,192,21307,1,0,0:0:0:0:
256,192,21427,1,2,0:0:0:0:
256,192,21667,1,0,0:0:0:0:
256,192,21907,1,2,0:0:0:0:
256,192,22027,1,0,0:0:0:0:
256,192,22267,1,0,0:0:0:0:
256,192,22387,1,2,0:0:0:0:
256,192,22627,1,2,0:0:0:0:
256,192,22867,1,2,0:0:0:0:
256,192,22987,1,0,0:0:0:0:
256,192,23227,1,0,0:0:0:0:
256,192,23347,1,2,0:0:0:0:
256,192,23587,1,0,0:0:0:0:
256,192,23707,1,0,0:0:0:0:
256,192,23827,1,2,0:0:0:0:
256,192,24067,1,0,0:0:0:0:
256,192,24187,1,0,0:0:0:0:
256,192,24307,1,2,0:0:0:0:
256,192,24547,1,2,0:0:0:0:
256,192,24787,1,2,0:0:0:0:
256,192,25027,1,0,0:0:0:0:
256,192,25147,1,0,0:0:0:0:
256,192,25267,1,2,0:0:0:0:
256,192,25507,1,0,0:0:0:0:
256,192,25747,1,2,0:0:0:0:
256,192,25867,1,0,0:0:0:0:
256,192,26107,1,0,0:0:0:0:
256,192,26227,1,2,0:0:0:0:
256,192,26467,1,2,0:0:0:0:
256,192,26947,1,0,0:0:0:0:
256,192,27187,1,2,0:0:0:0:
256,192,27427,1,0,0:0:0:0:
256,192,27667,1,2,0:0:0:0:
256,192,27787,1,2,0:0:0:0:
256,192,27907,1,0,0:0:0:0:
256,192,28027,1,2,0:0:0:0:
256,192,28147,1,2,0:0:0:0:
256,192,28267,1,2,0:0:0:0:
256,192,28387,1,0,0:0:0:0:
256,192,28627,1,2,0:0:0:0:
256,192,28867,1,0,0:0:0:0:
256,192,29107,1,2,0:0:0:0:
256,192,29347,1,0,0:0:0:0:
256,192,29587,1,2,0:0:0:0:
256,192,29707,1,0,0:0:0:0:
256,192,29827,1,2,0:0:0:0:
256,192,29947,1,0,0:0:0:0:
256,192,30067,1,2,0:0:0:0:
256,192,30187,1,2,0:0:0:0:
256,192,30307,1,0,0:0:0:0:
256,192,30547,1,2,0:0:0:0:
256,192,30787,1,0,0:0:0:0:
256,192,31027,1,2,0:0:0:0:
256,192,31147,1,2,0:0:0:0:
256,192,31267,1,0,0:0:0:0:
256,192,31507,1,2,0:0:0:0:
256,192,31747,1,0,0:0:0:0:
256,192,31987,1,0,0:0:0:0:
256,192,32107,1,2,0:0:0:0:
256,192,32227,1,2,0:0:0:0:
256,192,32347,1,0,0:0:0:0:
256,192,32467,1,2,0:0:0:0:
256,192,32587,1,2,0:0:0:0:
256,192,32707,1,0,0:0:0:0:
256,192,32947,1,2,0:0:0:0:
256,192,33187,1,0,0:0:0:0:
256,192,33427,1,2,0:0:0:0:
256,192,33547,1,2,0:0:0:0:
256,192,33667,1,0,0:0:0:0:
256,192,33907,1,2,0:0:0:0:
256,192,34147,1,0,0:0:0:0:
256,192,34387,1,0,0:0:0:0:
256,192,34507,1,0,0:0:0:0:
256,192,34627,1,2,0:0:0:0:
256,192,34747,1,0,0:0:0:0:
256,192,34867,1,2,0:0:0:0:
256,192,34987,1,2,0:0:0:0:
256,192,35107,1,0,0:0:0:0:
256,192,35347,1,2,0:0:0:0:
256,192,35587,1,2,0:0:0:0:
256,192,35707,1,2,0:0:0:0:
256,192,35827,1,0,0:0:0:0:
256,192,36067,1,6,0:0:0:0:
256,192,36547,1,2,0:0:0:0:
256,192,36667,1,0,0:0:0:0:
256,192,36907,1,0,0:0:0:0:
256,192,37147,1,0,0:0:0:0:
256,192,37267,1,2,0:0:0:0:
256,192,37507,1,2,0:0:0:0:
256,192,37747,1,0,0:0:0:0:
256,192,37987,1,2,0:0:0:0:
242,191,38347,1,0,0:0:0:0:
256,192,38467,1,2,0:0:0:0:
256,192,38707,1,2,0:0:0:0:
256,192,38827,1,2,0:0:0:0:
256,192,38947,1,2,0:0:0:0:
256,192,39187,1,0,0:0:0:0:
256,192,39427,1,2,0:0:0:0:
256,192,39907,1,2,0:0:0:0:
256,192,40147,1,2,0:0:0:0:
256,192,40267,1,2,0:0:0:0:
256,192,40387,1,0,0:0:0:0:
256,192,40507,1,0,0:0:0:0:
256,192,40627,1,2,0:0:0:0:
256,192,40867,1,2,0:0:0:0:
256,192,40987,1,0,0:0:0:0:
256,192,41107,1,2,0:0:0:0:
256,192,41227,1,2,0:0:0:0:
256,192,41347,1,0,0:0:0:0:
256,192,41587,1,2,0:0:0:0:
256,192,41827,1,0,0:0:0:0:
256,192,42067,1,2,0:0:0:0:
256,192,42187,1,2,0:0:0:0:
256,192,42307,1,0,0:0:0:0:
256,192,42427,1,0,0:0:0:0:
256,192,42547,1,2,0:0:0:0:
256,192,42787,1,0,0:0:0:0:
256,192,43027,1,2,0:0:0:0:
256,192,43147,1,0,0:0:0:0:
256,192,43267,1,0,0:0:0:0:
256,192,43387,1,2,0:0:0:0:
256,192,43507,1,0,0:0:0:0:
256,192,43747,1,6,0:0:0:0:
256,192,44227,1,2,0:0:0:0:
256,192,44467,1,0,0:0:0:0:
256,192,44707,1,2,0:0:0:0:
256,192,45067,1,0,0:0:0:0:
256,192,45187,1,2,0:0:0:0:
256,192,45427,1,0,0:0:0:0:
256,192,45667,1,2,0:0:0:0:
256,192,45787,1,0,0:0:0:0:
256,192,46027,1,0,0:0:0:0:
256,192,46147,1,2,0:0:0:0:
256,192,46387,1,2,0:0:0:0:
256,192,46507,1,2,0:0:0:0:
256,192,46627,1,2,0:0:0:0:
256,192,46867,1,0,0:0:0:0:
256,192,47107,1,2,0:0:0:0:
256,192,47587,1,2,0:0:0:0:
256,192,47827,1,2,0:0:0:0:
256,192,47947,1,2,0:0:0:0:
256,192,48067,1,0,0:0:0:0:
248,191,48187,1,0,0:0:0:0:
256,192,48307,1,2,0:0:0:0:
256,192,48547,1,2,0:0:0:0:
256,192,48667,1,0,0:0:0:0:
256,192,48787,1,2,0:0:0:0:
248,191,48907,1,2,0:0:0:0:
256,192,49027,1,0,0:0:0:0:
256,192,49267,1,2,0:0:0:0:
256,192,49507,1,2,0:0:0:0:
256,192,49747,1,2,0:0:0:0:
256,192,49867,1,2,0:0:0:0:
256,192,49987,1,0,0:0:0:0:
256,192,50227,1,2,0:0:0:0:
262,199,50347,1,0,0:0:0:0:
256,192,50467,1,2,0:0:0:0:
256,192,50587,1,0,0:0:0:0:
256,192,50707,1,2,0:0:0:0:
256,192,50947,1,0,0:0:0:0:
256,192,51187,1,2,0:0:0:0:
256,192,51427,1,0,0:0:0:0:
256,192,51547,1,0,0:0:0:0:
256,192,51667,1,2,0:0:0:0:
256,192,51907,1,0,0:0:0:0:
256,192,52027,1,2,0:0:0:0:
256,192,52147,1,0,0:0:0:0:
256,192,52267,1,0,0:0:0:0:
256,192,52387,1,2,0:0:0:0:
256,192,52627,1,2,0:0:0:0:
256,192,52747,1,0,0:0:0:0:
256,192,52867,1,2,0:0:0:0:
256,192,52987,1,2,0:0:0:0:
256,192,53347,1,4,0:0:0:0:
256,192,53707,1,0,0:0:0:0:
256,192,53827,1,2,0:0:0:0:
256,192,54067,1,0,0:0:0:0:
256,192,54307,1,2,0:0:0:0:
256,192,54667,1,0,0:0:0:0:
256,192,54907,1,0,0:0:0:0:
256,192,55027,1,2,0:0:0:0:
256,192,55267,1,2,0:0:0:0:
256,192,55627,1,0,0:0:0:0:
256,192,55987,1,0,0:0:0:0:
256,192,56227,1,2,0:0:0:0:
256,192,56707,1,2,0:0:0:0:
256,192,56827,1,0,0:0:0:0:
256,192,56947,1,0,0:0:0:0:
248,188,57067,1,0,0:0:0:0:
256,192,57187,1,0,0:0:0:0:
256,192,57547,1,0,0:0:0:0:
256,192,57907,1,0,0:0:0:0:
256,192,58147,1,2,0:0:0:0:
256,192,58507,1,0,0:0:0:0:
256,192,58867,1,0,0:0:0:0:
256,192,59107,1,2,0:0:0:0:
256,192,59467,1,0,0:0:0:0:
256,192,59827,1,0,0:0:0:0:
256,192,60067,1,2,0:0:0:0:
256,192,60547,1,2,0:0:0:0:
256,192,60667,1,2,0:0:0:0:
256,192,60787,1,2,0:0:0:0:
256,192,60907,1,2,0:0:0:0:
256,192,61027,1,0,0:0:0:0:
256,192,61267,1,0,0:0:0:0:
256,192,61387,1,0,0:0:0:0:
256,192,61507,1,2,0:0:0:0:
256,192,61747,1,2,0:0:0:0:
256,192,61867,1,0,0:0:0:0:
256,192,61987,1,2,0:0:0:0:
256,192,62227,1,2,0:0:0:0:
256,192,62467,1,2,0:0:0:0:
256,192,62707,1,0,0:0:0:0:
256,192,62947,1,2,0:0:0:0:
256,192,63307,1,0,0:0:0:0:
256,192,63667,1,0,0:0:0:0:
256,192,63907,1,2,0:0:0:0:
256,192,64387,1,2,0:0:0:0:
256,192,64507,1,0,0:0:0:0:
256,192,64627,1,0,0:0:0:0:
250,198,64747,1,0,0:0:0:0:
256,192,64867,1,0,0:0:0:0:
256,192,65227,1,0,0:0:0:0:
256,192,65347,1,2,0:0:0:0:
256,192,65587,1,0,0:0:0:0:
256,192,65827,1,2,0:0:0:0:
256,192,66187,1,0,0:0:0:0:
256,192,66547,1,0,0:0:0:0:
256,192,66787,1,2,0:0:0:0:
256,192,67147,1,0,0:0:0:0:
256,192,67507,1,0,0:0:0:0:
256,192,67747,1,2,0:0:0:0:
256,192,68227,1,2,0:0:0:0:
256,192,68347,1,0,0:0:0:0:
256,192,68467,1,0,0:0:0:0:
256,192,68587,1,0,0:0:0:0:
256,192,68707,1,2,0:0:0:0:
256,192,69067,1,0,0:0:0:0:
256,192,69427,1,0,0:0:0:0:
256,192,69667,1,2,0:0:0:0:
256,192,70027,1,0,0:0:0:0:
256,192,70147,1,2,0:0:0:0:
256,192,70387,1,0,0:0:0:0:
256,192,70627,1,2,0:0:0:0:
256,192,71587,1,2,0:0:0:0:
256,192,71827,1,0,0:0:0:0:
256,192,72067,1,2,0:0:0:0:
256,192,72187,1,2,0:0:0:0:
256,192,72307,1,2,0:0:0:0:
256,192,72427,1,2,0:0:0:0:
256,192,72547,1,0,0:0:0:0:
256,192,72907,1,0,0:0:0:0:
256,192,73267,1,0,0:0:0:0:
256,192,73507,1,2,0:0:0:0:
256,192,73867,1,2,0:0:0:0:
256,192,74227,1,0,0:0:0:0:
256,192,74467,1,2,0:0:0:0:
256,192,75187,1,0,0:0:0:0:
256,192,75427,1,2,0:0:0:0:
256,192,75907,1,2,0:0:0:0:
256,192,76027,1,2,0:0:0:0:
256,192,76147,1,2,0:0:0:0:
256,192,76267,1,2,0:0:0:0:
256,192,76387,1,0,0:0:0:0:
256,192,76707,1,0,0:0:0:0:
256,192,76867,1,2,0:0:0:0:
256,192,77027,1,0,0:0:0:0:
256,192,77187,1,0,0:0:0:0:
256,192,77347,1,2,0:0:0:0:
256,192,77667,1,0,0:0:0:0:
256,192,77827,1,2,0:0:0:0:
256,192,77987,1,0,0:0:0:0:
256,192,78147,1,2,0:0:0:0:
256,192,78307,1,2,0:0:0:0:
256,192,78627,1,0,0:0:0:0:
256,192,78787,1,2,0:0:0:0:
256,192,78947,1,2,0:0:0:0:
256,192,79107,1,0,0:0:0:0:
256,192,79267,1,2,0:0:0:0:
256,192,79747,1,0,0:0:0:0:
256,192,79867,1,0,0:0:0:0:
256,192,79987,1,0,0:0:0:0:
256,192,80107,1,0,0:0:0:0:
256,192,80227,1,2,0:0:0:0:
256,192,80547,1,0,0:0:0:0:
256,192,80707,1,2,0:0:0:0:
256,192,81027,1,2,0:0:0:0:
256,192,81187,1,2,0:0:0:0:
256,192,81347,1,0,0:0:0:0:
256,192,81507,1,0,0:0:0:0:
256,192,81667,1,2,0:0:0:0:
256,192,81827,1,0,0:0:0:0:
256,192,81987,1,2,0:0:0:0:
256,192,82147,1,2,0:0:0:0:
256,192,82627,1,0,0:0:0:0:
256,192,82867,1,0,0:0:0:0:
256,192,82987,1,0,0:0:0:0:
256,192,83107,1,2,0:0:0:0:
256,192,83587,1,2,0:0:0:0:
256,192,83707,1,2,0:0:0:0:
256,192,83827,1,2,0:0:0:0:
256,192,84067,1,0,0:0:0:0:
256,192,84427,1,0,0:0:0:0:
256,192,84547,1,2,0:0:0:0:
256,192,84787,1,0,0:0:0:0:
256,192,85027,1,2,0:0:0:0:
256,192,85387,1,0,0:0:0:0:
256,192,85747,1,0,0:0:0:0:
256,192,85987,1,2,0:0:0:0:
256,192,86347,1,0,0:0:0:0:
256,192,86707,1,0,0:0:0:0:
256,192,86947,1,2,0:0:0:0:
256,192,87427,1,2,0:0:0:0:
256,192,87547,1,2,0:0:0:0:
256,192,87667,1,2,0:0:0:0:
256,192,87787,1,2,0:0:0:0:
256,192,87907,1,0,0:0:0:0:
256,192,88267,1,0,0:0:0:0:
256,192,88387,1,2,0:0:0:0:
256,192,88627,1,0,0:0:0:0:
256,192,88867,1,2,0:0:0:0:
256,192,89227,1,0,0:0:0:0:
256,192,89587,1,0,0:0:0:0:
256,192,89827,1,2,0:0:0:0:
256,192,90187,1,0,0:0:0:0:
256,192,90547,1,0,0:0:0:0:
256,192,90787,1,2,0:0:0:0:
256,192,91267,1,2,0:0:0:0:
256,192,91387,1,2,0:0:0:0:
256,192,91507,1,2,0:0:0:0:
256,192,91627,1,2,0:0:0:0:
256,192,91747,1,0,0:0:0:0:
256,192,91987,1,0,0:0:0:0:
256,192,92107,1,0,0:0:0:0:
256,192,92227,1,2,0:0:0:0:
256,192,92467,1,2,0:0:0:0:
256,192,92587,1,0,0:0:0:0:
256,192,92707,1,2,0:0:0:0:
256,192,92947,1,2,0:0:0:0:
256,192,93187,1,2,0:0:0:0:
256,192,93427,1,0,0:0:0:0:
256,192,93667,1,2,0:0:0:0:
256,192,94027,1,0,0:0:0:0:
256,192,94387,1,0,0:0:0:0:
256,192,94627,1,2,0:0:0:0:
256,192,95107,1,2,0:0:0:0:
256,192,95227,1,2,0:0:0:0:
256,192,95347,1,2,0:0:0:0:
256,192,95467,1,2,0:0:0:0:
256,192,95587,1,0,0:0:0:0:
256,192,95947,1,0,0:0:0:0:
256,192,96307,1,0,0:0:0:0:
256,192,96547,1,2,0:0:0:0:
256,192,96907,1,0,0:0:0:0:
256,192,97267,1,0,0:0:0:0:
256,192,97507,1,6,0:0:0:0:
256,192,99427,1,2,0:0:0:0:
256,192,99547,1,0,0:0:0:0:
256,192,99907,1,2,0:0:0:0:
256,192,100027,1,0,0:0:0:0:
256,192,100387,1,2,0:0:0:0:
256,192,100507,1,0,0:0:0:0:
256,192,100627,1,0,0:0:0:0:
256,192,100747,1,2,0:0:0:0:
256,192,100987,1,2,0:0:0:0:
256,192,101107,1,2,0:0:0:0:
256,192,101227,1,0,0:0:0:0:
256,192,101347,1,2,0:0:0:0:
256,192,101467,1,0,0:0:0:0:
256,192,101827,1,2,0:0:0:0:
256,192,101947,1,0,0:0:0:0:
256,192,102307,1,2,0:0:0:0:
256,192,102427,1,2,0:0:0:0:
256,192,102547,1,0,0:0:0:0:
256,192,102667,1,2,0:0:0:0:
256,192,102907,1,0,0:0:0:0:
256,192,103027,1,2,0:0:0:0:
256,192,103147,1,0,0:0:0:0:
256,192,103267,1,2,0:0:0:0:
256,192,103387,1,0,0:0:0:0:
256,192,103747,1,2,0:0:0:0:
256,192,103867,1,0,0:0:0:0:
256,192,104227,1,2,0:0:0:0:
256,192,104347,1,0,0:0:0:0:
256,192,104467,1,0,0:0:0:0:
256,192,104587,1,2,0:0:0:0:
256,192,104827,1,2,0:0:0:0:
256,192,104947,1,2,0:0:0:0:
256,192,105067,1,0,0:0:0:0:
256,192,105187,1,2,0:0:0:0:
256,192,105307,1,0,0:0:0:0:
256,192,105547,1,2,0:0:0:0:
256,192,105667,1,0,0:0:0:0:
256,192,105907,1,2,0:0:0:0:
256,192,106027,1,0,0:0:0:0:
