osu file format v14

[General]
AudioFilename: audio.mp3
AudioLeadIn: 0
PreviewTime: 82627
Countdown: 0
SampleSet: Normal
StackLeniency: 0.7
Mode: 1
LetterboxInBreaks: 0
WidescreenStoryboard: 0

[Editor]
Bookmarks: 1027,1507,16867,18787,20707,27427,28387,36067,39907,43747,47587,53347,61027,64867,68707,76387,82147,84067,91747,95587,99427,105187,106147
DistanceSpacing: 1.2
BeatDivisor: 4
GridSize: 32
TimelineZoom: 1.26

[Metadata]
Title:Tu Hua
TitleUnicode:徒 花
Artist:Aya.Tsumi
ArtistUnicode:Aya~亜夜罪~
Creator:SlenderMen
Version:Kantan
Source:Muse Dash
Tags:vocaloid Luo TianYi 洛天依 metal Rock Chinese Video Game BK小鹿 ayatsumi
BeatmapID:2446120
BeatmapSetID:1172849

[Difficulty]
HPDrainRate:8
CircleSize:2
OverallDifficulty:3
ApproachRate:10
SliderMultiplier:1.6
SliderTickRate:2

[Events]
//Background and Video events
0,0,"34 Tu Hua.png",0,60
//Break Periods
//Storyboard Layer 0 (Background)
//Storyboard Layer 1 (Fail)
//Storyboard Layer 2 (Pass)
//Storyboard Layer 3 (Foreground)
//Storyboard Layer 4 (Overlay)
//Storyboard Sound Samples

[TimingPoints]
1507,480,4,1,0,80,1,0
1507,-100,4,1,0,80,0,1
16867,-100,4,1,0,60,0,0
18787,-111.111111111111,4,1,0,70,0,0
27907,-105.320252557966,4,1,0,70,0,0
28387,-100.103206405804,4,1,0,70,0,0
99427,-100,4,1,0,80,0,1
105187,-100,4,1,0,80,0,0

[Colours]
Combo1 : 66,167,193
Combo2 : 91,230,59

[HitObjects]
256,192,1027,5,2,0:0:0:0:
256,192,1507,1,4,0:0:0:0:
256,192,1987,1,0,0:0:0:0:
256,192,2467,1,2,0:0:0:0:
256,192,3427,1,0,0:0:0:0:
256,192,3907,1,2,0:0:0:0:
256,192,4387,1,2,0:0:0:0:
256,192,5347,1,0,0:0:0:0:
256,192,5827,1,0,0:0:0:0:
256,192,6307,1,2,0:0:0:0:
256,192,7267,1,2,0:0:0:0:
256,192,7747,1,0,0:0:0:0:
256,192,8227,1,2,0:0:0:0:
256,192,9187,1,4,0:0:0:0:
256,192,9667,1,0,0:0:0:0:
256,192,10147,1,2,0:0:0:0:
256,192,11107,1,0,0:0:0:0:
256,192,11587,1,2,0:0:0:0:
256,192,12067,1,2,0:0:0:0:
256,192,13027,1,0,0:0:0:0:
256,192,13507,1,0,0:0:0:0:
256,192,13987,1,2,0:0:0:0:
256,192,14947,1,2,0:0:0:0:
256,192,15427,1,0,0:0:0:0:
256,192,15907,1,2,0:0:0:0:
256,192,16867,1,4,0:0:0:0:
256,192,18787,1,0,0:0:0:0:
256,192,19267,1,2,0:0:0:0:
256,192,20227,1,2,0:0:0:0:
256,192,20947,1,2,0:0:0:0:
256,192,21427,1,0,0:0:0:0:
256,192,21907,1,2,0:0:0:0:
256,192,22627,1,2,0:0:0:0:
256,192,23347,1,0,0:0:0:0:
256,192,23827,1,2,0:0:0:0:
256,192,24547,1,2,0:0:0:0:
256,192,25267,1,0,0:0:0:0:
256,192,25747,1,2,0:0:0:0:
256,192,26467,1,2,0:0:0:0:
256,192,27427,1,0,0:0:0:0:
256,192,27907,1,2,0:0:0:0:
256,192,28627,1,2,0:0:0:0:
256,192,29107,1,2,0:0:0:0:
256,192,29587,1,0,0:0:0:0:
256,192,30067,1,2,0:0:0:0:
256,192,31507,1,2,0:0:0:0:
256,192,31987,1,0,0:0:0:0:
256,192,32467,1,2,0:0:0:0:
256,192,33427,1,2,0:0:0:0:
256,192,33907,1,2,0:0:0:0:
256,192,34387,1,0,0:0:0:0:
256,192,34867,1,2,0:0:0:0:
256,192,36067,1,6,0:0:0:0:
256,192,36547,1,2,0:0:0:0:
256,192,37987,1,2,0:0:0:0:
256,192,38467,1,0,0:0:0:0:
256,192,38947,1,2,0:0:0:0:
256,192,40147,1,0,0:0:0:0:
256,192,40627,1,0,0:0:0:0:
256,192,41107,1,2,0:0:0:0:
256,192,42067,1,2,0:0:0:0:
256,192,42547,1,0,0:0:0:0:
256,192,43027,1,2,0:0:0:0:
256,192,43747,1,6,0:0:0:0:
256,192,44227,1,0,0:0:0:0:
256,192,45667,1,0,0:0:0:0:
256,192,46147,1,2,0:0:0:0:
256,192,46627,1,2,0:0:0:0:
256,192,47827,1,0,0:0:0:0:
256,192,48307,1,0,0:0:0:0:
256,192,48787,1,2,0:0:0:0:
256,192,49747,1,2,0:0:0:0:
256,192,50227,1,0,0:0:0:0:
256,192,50707,1,2,0:0:0:0:
256,192,51187,1,2,0:0:0:0:
256,192,52867,1,2,0:0:0:0:
256,192,53347,1,4,0:0:0:0:
256,192,54307,1,2,0:0:0:0:
256,192,55267,1,2,0:0:0:0:
256,192,56227,1,0,0:0:0:0:
256,192,56707,1,2,0:0:0:0:
256,192,57187,1,2,0:0:0:0:
256,192,58147,1,2,0:0:0:0:
256,192,58627,1,0,0:0:0:0:
256,192,59107,1,2,0:0:0:0:
256,192,60067,1,2,0:0:0:0:
256,192,61027,1,4,0:0:0:0:
256,192,62467,1,0,0:0:0:0:
256,192,62947,1,2,0:0:0:0:
256,192,63907,1,2,0:0:0:0:
256,192,64867,1,2,0:0:0:0:
256,192,65347,1,0,0:0:0:0:
256,192,65827,1,2,0:0:0:0:
256,192,66787,1,2,0:0:0:0:
256,192,67747,1,2,0:0:0:0:
256,192,68707,1,6,0:0:0:0:
256,192,69187,1,0,0:0:0:0:
256,192,69667,1,2,0:0:0:0:
256,192,70627,1,2,0:0:0:0:
256,192,71347,1,0,0:0:0:0:
256,192,72067,1,2,0:0:0:0:
256,192,72547,1,0,0:0:0:0:
256,192,73507,1,2,0:0:0:0:
256,192,73987,1,0,0:0:0:0:
256,192,74467,1,2,0:0:0:0:
256,192,75427,1,2,0:0:0:0:
256,192,76387,1,4,0:0:0:0:
256,192,77347,1,2,0:0:0:0:
256,192,77827,1,0,0:0:0:0:
256,192,78307,1,2,0:0:0:0:
256,192,79267,1,2,0:0:0:0:
256,192,79747,1,2,0:0:0:0:
256,192,80227,1,0,0:0:0:0:
256,192,80707,1,2,0:0:0:0:
256,192,81667,1,2,0:0:0:0:
256,192,82147,1,2,0:0:0:0:
256,192,84067,1,4,0:0:0:0:
256,192,85027,1,2,0:0:0:0:
256,192,85507,1,0,0:0:0:0:
256,192,85987,1,2,0:0:0:0:
256,192,86947,1,0,0:0:0:0:
256,192,87427,1,2,0:0:0:0:
256,192,87907,1,2,0:0:0:0:
256,192,88867,1,0,0:0:0:0:
256,192,89827,1,2,0:0:0:0:
256,192,90787,1,2,0:0:0:0:
256,192,91747,1,4,0:0:0:0:
256,192,92227,1,0,0:0:0:0:
256,192,93187,1,0,0:0:0:0:
256,192,93667,1,2,0:0:0:0:
256,192,94627,1,2,0:0:0:0:
256,192,95587,1,2,0:0:0:0:
256,192,96067,1,0,0:0:0:0:
256,192,96547,1,2,0:0:0:0:
256,192,97507,1,6,0:0:0:0:
256,192,99427,1,0,0:0:0:0:
256,192,99907,1,0,0:0:0:0:
256,192,100387,1,2,0:0:0:0:
256,192,101347,1,0,0:0:0:0:
256,192,101827,1,2,0:0:0:0:
256,192,102307,1,2,0:0:0:0:
256,192,103267,1,0,0:0:0:0:
256,192,103747,1,0,0:0:0:0:
256,192,104227,1,2,0:0:0:0:
256,192,105187,1,0,0:0:0:0:
256,192,105547,1,0,0:0:0:0:
256,192,105907,1,0,0:0:0:0:
