osu file format v14

[General]
AudioFilename: audio.mp3
AudioLeadIn: 0
PreviewTime: 51838
Countdown: 0
SampleSet: Soft
StackLeniency: 0.4
Mode: 2
LetterboxInBreaks: 0
WidescreenStoryboard: 0

[Editor]
DistanceSpacing: 1.7
BeatDivisor: 4
GridSize: 8
TimelineZoom: 2

[Metadata]
Title:afraid...
TitleUnicode:afraid...
Artist:Aya Uchida
ArtistUnicode:内田 彩
Creator:Shirokane Rinko
Version:Salad
Source:
Tags:Bitter Kiss Xetopia -Hex- Sinnoh alienflybot Celektus
BeatmapID:1289137
BeatmapSetID:610541

[Difficulty]
HPDrainRate:4
CircleSize:3
OverallDifficulty:7
ApproachRate:7
SliderMultiplier:1.6
SliderTickRate:1

[Events]
//Background and Video events
0,0,"bg2.png",0,0
Video,0,"video.avi"
//Break Periods
//Storyboard Layer 0 (Background)
//Storyboard Layer 1 (Fail)
//Storyboard Layer 2 (Pass)
//Storyboard Layer 3 (Foreground)
//Storyboard Sound Samples

[TimingPoints]
839,333.333333333333,4,2,0,30,1,0
839,-125,4,2,0,30,0,0
6172,-111.111111111111,4,2,0,40,0,0
16838,-111.111111111111,4,2,0,50,0,0
32838,-125,4,2,0,25,0,0
42838,-125,4,2,0,45,0,0
43505,-111.111111111111,4,2,0,50,0,0
54172,-100,4,2,0,60,0,1
75505,-83.3333333333333,4,2,0,40,0,0

[Colours]
Combo1 : 54,154,254
Combo2 : 210,113,253
Combo3 : 159,121,238

[HitObjects]
132,200,839,5,4,3:2:0:0:
259,200,1172,2,0,P|292:131|252:90,1,128,2|2,0:3|0:3,0:0:0:0:
136,100,1838,1,2,3:3:0:0:
282,100,2172,1,2,3:3:0:0:
436,112,2505,2,0,P|409:178|354:202,1,128,2|2,0:3|0:3,0:0:0:0:
225,228,3172,5,2,3:3:0:0:
122,160,3338,1,2,0:0:0:0:
273,114,3505,2,0,P|349:111|394:138,1,128,4|2,3:2|0:3,0:0:0:0:
492,206,4172,1,2,0:3:0:0:
250,205,4505,6,0,L|165:205,1,64,2|0,3:3|0:0,0:0:0:0:
250,205,4838,2,0,L|320:205,1,64,2|0,3:3|0:0,0:0:0:0:
430,205,5172,1,0,1:2:0:0:
220,211,5505,1,8,0:3:0:0:
154,165,5671,1,0,1:0:0:0:
212,111,5838,1,0,1:0:0:0:
293,80,6005,1,0,1:0:0:0:
472,93,6172,6,0,P|448:180|403:209,1,143.999995605469,4|0,3:2|1:3,0:0:0:0:
220,177,6838,2,0,L|120:177,2,71.9999978027344,4|4|0,0:3|0:3|1:3,0:0:0:0:
380,171,7505,1,4,3:3:0:0:
225,169,7838,2,4,P|182:202|101:172,1,143.999995605469,0|4,1:3|3:3,0:0:0:0:
301,172,8505,1,0,1:3:0:0:
42,184,8838,6,0,L|155:279,1,143.999995605469,4|0,3:2|1:3,0:0:0:0:
271,285,9505,2,2,L|343:285,1,71.9999978027344,4|4,0:3|0:3,0:0:0:0:
411,285,9838,1,0,1:3:0:0:
225,283,10172,1,4,3:3:0:0:
82,287,10505,2,0,P|58:201|91:164,1,143.999995605469,0|4,1:3|0:3,0:0:0:0:
219,291,11172,6,2,L|316:290,1,71.9999978027344,0|4,1:3|0:3,0:0:0:0:
449,288,11505,2,0,P|480:175|471:149,1,143.999995605469,4|0,3:2|1:3,0:0:0:0:
290,157,12172,2,0,L|186:157,2,71.9999978027344,4|4|0,0:3|0:3|1:3,0:0:0:0:
446,157,12838,2,0,P|304:86|296:86,1,143.999995605469,4|0,0:3|1:3,0:0:0:0:
188,85,13505,1,4,0:3:0:0:
62,153,13838,5,0,1:3:0:0:
355,143,14172,2,0,B|484:186|323:228,1,143.999995605469,4|0,3:2|1:3,0:0:0:0:
207,151,14838,2,0,L|121:151,2,71.9999978027344,4|4|0,0:3|0:3|1:3,0:0:0:0:
428,215,15505,2,0,P|385:262|296:290,1,143.999995605469,4|0,0:3|1:3,0:0:0:0:
98,282,16172,1,4,0:3:0:0:
79,212,16338,1,0,1:3:0:0:
84,141,16505,1,0,1:3:0:0:
110,74,16672,1,0,1:3:0:0:
280,71,16838,6,0,L|452:71,1,143.999995605469,4|0,3:3|1:0,0:0:0:0:
257,76,17505,2,4,L|159:76,2,71.9999978027344,4|4|0,0:3|0:3|1:0,0:0:0:0:
429,79,18172,2,0,P|414:225|404:232,1,143.999995605469,4|0,0:3|1:0,0:0:0:0:
290,212,18838,1,4,0:3:0:0:
104,215,19172,1,0,1:0:0:0:
308,219,19505,6,0,P|335:171|280:83,1,143.999995605469,4|0,0:3|1:0,0:0:0:0:
172,94,20172,2,0,L|82:95,2,71.9999978027344,4|4|0,0:3|0:3|1:0,0:0:0:0:
315,99,20838,2,0,L|472:98,1,143.999995605469,4|0,0:3|1:0,0:0:0:0:
285,99,21505,2,4,L|193:99,1,71.9999978027344,4|4,0:3|0:3,0:0:0:0:
213,99,21838,1,0,1:0:0:0:
473,100,22172,5,4,3:2:0:0:
343,100,22505,2,0,L|189:100,1,143.999995605469,0|4,1:0|0:3,0:0:0:0:
127,99,23005,1,4,0:3:0:0:
199,100,23172,1,0,1:0:0:0:
333,104,23505,2,0,P|367:178|329:261,1,143.999995605469,4|0,0:3|1:0,0:0:0:0:
221,235,24172,2,0,L|122:235,2,71.9999978027344,4|4|0,0:3|0:3|1:0,0:0:0:0:
364,236,24838,5,4,3:2:0:0:
234,236,25172,2,4,P|110:239|94:228,1,143.999995605469,0|4,1:2|0:3,0:0:0:0:
170,232,25672,1,4,0:3:0:0:
97,232,25838,1,0,1:0:0:0:
241,234,26172,2,0,L|318:99,1,143.999995605469,6|0,0:3|1:0,0:0:0:0:
441,109,26838,2,8,L|512:109,2,71.9999978027344,4|4|4,3:3|3:3|3:3,0:0:0:0:
167,115,27505,6,0,L|277:219,1,143.999995605469,4|0,3:2|1:2,0:0:0:0:
103,241,28172,2,0,L|17:241,2,71.9999978027344,4|4|0,0:3|0:3|1:3,0:0:0:0:
253,238,28838,2,0,L|161:112,1,143.999995605469,4|0,0:3|1:3,0:0:0:0:
322,120,29505,1,4,0:3:0:0:
394,120,29672,1,4,0:3:0:0:
322,120,29838,1,0,1:3:0:0:
81,135,30172,6,0,P|39:198|97:239,1,143.999995605469,4|0,3:2|1:3,0:0:0:0:
253,266,30838,1,4,0:3:0:0:
321,267,31005,1,4,0:3:0:0:
385,269,31172,2,2,P|429:217|452:136,1,143.999995605469,0|2,1:3|3:3,0:0:0:0:
325,142,31838,5,0,1:3:0:0:
218,142,32172,1,4,0:3:0:0:
139,142,32338,1,4,1:3:0:0:
218,142,32505,1,0,1:3:0:0:
290,145,32672,1,0,1:3:0:0:
456,153,32838,6,4,P|427:223|367:277,1,128,4|8,3:2|0:3,0:0:0:0:
254,261,33338,2,8,L|171:261,2,64,8|4|4,0:3|3:3|3:3,0:0:0:0:
409,261,33838,1,0,1:0:0:0:
271,257,34172,2,0,P|197:248|131:201,1,128,4|8,3:3|0:3,0:0:0:0:
101,162,34672,1,4,0:3:0:0:
268,155,34838,1,4,3:3:0:0:
419,113,35172,1,0,1:0:0:0:
300,174,35505,6,0,P|209:216|180:199,1,128,4|8,3:3|0:3,0:0:0:0:
95,149,36172,1,4,3:3:0:0:
140,106,36338,1,4,3:3:0:0:
205,104,36505,1,0,1:0:0:0:
316,129,36838,2,0,P|297:192|229:229,1,128,4|12,3:3|0:3,0:0:0:0:
133,237,37505,2,0,L|196:236,1,64,4|4,3:3|3:3,0:0:0:0:
250,237,37838,1,0,1:0:0:0:
99,226,38172,6,0,P|71:158|114:113,1,128,4|8,3:2|0:3,0:0:0:0:
230,103,38838,2,4,L|302:64,1,64,4|4,3:3|3:3,0:0:0:0:
381,66,39172,1,0,1:0:0:0:
189,114,39505,2,0,L|317:114,1,128,4|8,3:3|0:3,0:0:0:0:
126,126,40172,2,0,L|41:126,1,64,4|4,3:3|3:3,0:0:0:0:
6,129,40505,1,0,1:0:0:0:
252,126,40838,5,4,3:2:0:0:
381,126,41172,1,8,0:3:0:0:
426,169,41338,1,8,0:3:0:0:
442,230,41505,1,4,3:3:0:0:
422,290,41671,1,4,3:3:0:0:
373,330,41838,1,0,1:0:0:0:
185,335,42172,6,0,P|95:302|74:255,1,128,4|0,3:2|1:2,0:0:0:0:
160,202,42838,1,0,3:0:0:0:
222,142,43005,1,0,1:0:0:0:
293,101,43172,1,0,1:0:0:0:
373,77,43338,1,0,1:0:0:0:
200,101,43505,6,0,L|72:25,2,143.999995605469,4|0|4,3:2|1:0|0:3,0:0:0:0:
253,141,44338,1,4,0:3:0:0:
316,185,44505,1,0,1:0:0:0:
130,217,44838,6,0,P|48:179|28:106,1,143.999995605469,4|0,3:2|1:0,0:0:0:0:
160,89,45505,2,0,L|232:89,1,71.9999978027344,4|4,0:3|0:3,0:0:0:0:
297,89,45838,1,0,1:0:0:0:
480,103,46172,2,0,P|452:182|392:230,1,143.999995605469,4|0,3:2|1:3,0:0:0:0:
260,218,46838,2,2,L|188:218,2,71.9999978027344,4|4|0,0:3|0:3|1:3,0:0:0:0:
400,215,47505,2,0,P|378:287|296:335,1,143.999995605469,2|0,3:3|1:3,0:0:0:0:
122,299,48172,2,2,L|43:299,2,71.9999978027344,4|4|0,0:3|0:3|1:3,0:0:0:0:
187,299,48672,1,0,1:3:0:0:
363,303,48838,6,0,P|385:261|364:160,1,143.999995605469,4|0,3:2|1:0,0:0:0:0:
212,170,49505,2,0,L|115:170,2,71.9999978027344,4|4|0,0:3|0:3|1:0,0:0:0:0:
356,170,50172,1,4,3:2:0:0:
212,170,50505,2,0,L|118:171,1,71.9999978027344,0|4,1:0|0:3,0:0:0:0:
212,170,50838,2,0,L|301:170,2,71.9999978027344,0|4|0,1:0|0:3|1:0,0:0:0:0:
139,168,51338,1,4,3:3:0:0:
199,362,52838,5,4,3:1:0:0:
146,316,53004,1,0,1:2:0:0:
118,242,53172,1,0,1:2:0:0:
144,168,53337,1,4,3:3:0:0:
257,167,53504,1,0,1:2:0:0:
309,112,53672,1,0,1:2:0:0:
303,40,53837,1,4,0:3:0:0:
246,15,54005,1,4,0:3:0:0:
72,45,54172,6,0,P|81:123|151:169,1,160,4|0,3:2|1:0,0:0:0:0:
310,157,54838,2,4,L|397:157,2,80,4|4|0,0:3|0:3|1:0,0:0:0:0:
210,155,55338,1,4,3:2:0:0:
336,167,55671,2,0,L|417:167,1,80,4|0,0:3|1:0,0:0:0:0:
257,200,56171,2,0,P|209:178|190:142,1,80,4|4,0:3|0:3,0:0:0:0:
159,92,56505,1,0,1:0:0:0:
437,170,56838,6,0,P|417:248|360:303,1,160,4|0,3:2|1:0,0:0:0:0:
223,307,57504,2,0,L|132:307,2,80,4|4|0,0:3|0:3|1:0,0:0:0:0:
344,307,58004,2,0,P|380:261|333:152,1,160,4|4,3:2|0:3,0:0:0:0:
303,108,58504,1,0,1:0:0:0:
116,107,58837,1,4,0:3:0:0:
244,108,59004,2,4,L|334:108,2,80,4|0|0,0:3|1:0|1:0,0:0:0:0:
84,134,59504,6,0,P|128:207|220:190,1,160,4|0,3:2|1:0,0:0:0:0:
323,231,60171,2,0,L|411:231,2,80,4|4|0,0:3|0:3|1:0,0:0:0:0:
195,243,60671,1,4,3:2:0:0:
57,245,61005,2,0,L|143:245,1,80,4|0,0:3|1:0,0:0:0:0:
266,247,61505,2,0,P|309:257|364:238,1,80,4|4,0:3|0:3,0:0:0:0:
411,218,61838,1,0,1:0:0:0:
138,250,62171,6,0,P|116:198|137:98,1,160,4|4,0:3|1:2,0:0:0:0:
405,96,62838,2,4,L|325:96,1,80,4|4,0:3|0:3,0:0:0:0:
261,97,63172,1,4,1:2:0:0:
106,100,63504,1,4,0:3:0:0:
267,104,63837,1,0,1:2:0:0:
414,98,64171,2,4,L|498:98,2,80,4|0|0,2:3|1:0|1:0,0:0:0:0:
338,102,64671,1,0,1:0:0:0:
145,114,64838,6,0,P|100:173|155:233,1,160,4|0,3:2|1:0,0:0:0:0:
301,237,65504,2,0,L|385:237,2,80,4|4|0,0:3|0:3|1:0,0:0:0:0:
224,241,66004,1,4,3:2:0:0:
128,232,66338,2,0,L|128:118,1,80,4|0,0:3|1:0,0:0:0:0:
269,154,66838,2,0,L|356:154,1,80,4|4,0:3|0:3,0:0:0:0:
410,155,67172,1,0,1:0:0:0:
95,158,67505,6,0,P|135:111|244:60,1,160,4|0,3:2|1:0,0:0:0:0:
364,69,68171,2,0,L|470:69,2,80,4|4|0,0:3|0:3|1:0,0:0:0:0:
290,71,68671,1,4,3:2:0:0:
147,75,69005,2,0,L|211:151,1,80,4|0,0:3|1:0,0:0:0:0:
333,229,69504,5,4,0:3:0:0:
388,158,69671,1,4,3:3:0:0:
367,76,69837,1,0,1:0:0:0:
302,30,70004,1,0,1:0:0:0:
128,36,70171,6,0,P|75:99|92:190,2,160,4|0|4,3:2|1:0|0:3,0:0:0:0:
240,270,71004,1,4,0:3:0:0:
312,270,71171,1,0,1:0:0:0:
383,272,71337,1,4,3:2:0:0:
238,271,71671,2,0,L|138:272,1,80,4|0,0:3|1:0,0:0:0:0:
303,272,72171,2,0,L|406:271,1,80,4|4,0:3|0:3,0:0:0:0:
434,273,72505,1,0,1:0:0:0:
139,278,72838,6,0,L|199:116,1,160,4|0,0:3|1:2,0:0:0:0:
418,132,73505,2,4,L|338:132,1,80,4|4,0:3|0:3,0:0:0:0:
278,133,73838,1,4,1:2:0:0:
66,146,74172,2,0,L|117:297,1,160,4|0,0:3|1:2,0:0:0:0:
285,287,74838,2,4,L|395:286,2,80,4|0|0,0:3|1:0|1:0,0:0:0:0:
212,289,75337,1,0,1:0:0:0:
63,291,75504,1,4,3:1:0:0:
256,192,75837,12,0,79838,0:0:0:0:
