osu file format v14

[General]
AudioFilename: audio.mp3
AudioLeadIn: 0
PreviewTime: 65005
Countdown: 0
SampleSet: Soft
StackLeniency: 0.2
Mode: 0
LetterboxInBreaks: 0
WidescreenStoryboard: 0

[Editor]
Bookmarks: 186560,198267,268511,311682
DistanceSpacing: 1.2
BeatDivisor: 1
GridSize: 4
TimelineZoom: 3.299999

[Metadata]
Title:Sayonara Rolling Star
TitleUnicode:Sayonara Rolling Star
Artist:Aya Hirayama
ArtistUnicode:平山あや
Creator:Bariton
Version:keep rolling~!
Source:ビューティフル塊魂
Tags:塊ステキ魂 Beautiful Katamari Yoshito Yano 矢野 義人 サヨナラ
BeatmapID:1544394
BeatmapSetID:731892

[Difficulty]
HPDrainRate:7.2
CircleSize:4.2
OverallDifficulty:8
ApproachRate:8.7
SliderMultiplier:1.69999995946884
SliderTickRate:1

[Events]
//Background and Video events
0,0,"itooktheoldBGandstretcheditdiagonally.jpg",0,0
//Break Periods
2,97492,107805
2,208711,219574
//Storyboard Layer 0 (Background)
//Storyboard Layer 1 (Fail)
//Storyboard Layer 2 (Pass)
//Storyboard Layer 3 (Foreground)
//Storyboard Sound Samples

[TimingPoints]
707,365.853658536585,4,2,0,52,1,0
707,-133.333333333333,4,2,0,52,0,0
2170,-181.818181818181,4,2,0,52,0,0
2902,-133.333333333333,4,2,0,52,0,0
5097,-181.818181818181,4,2,0,52,0,0
6560,-133.333333333333,4,2,0,52,0,0
10950,-200,4,2,0,52,0,0
11865,-100,4,2,0,62,0,0
12414,-100,4,2,0,72,0,0
23755,-200,4,2,0,62,0,0
24030,-200,4,2,0,5,0,0
24121,-120.481927710843,4,2,0,62,0,0
26956,-120.481927710843,4,2,0,5,0,0
27048,-120.481927710843,4,2,0,62,0,0
30249,-120.481927710843,4,2,0,5,0,0
30341,-120.481927710843,4,2,0,62,0,0
30524,-111.111111111111,4,2,0,62,0,0
30798,-111.111111111111,4,2,0,5,0,0
30889,-120.481927710843,4,2,0,62,0,0
34274,-120.481927710843,4,2,0,5,0,0
34365,-120.481927710843,4,2,0,62,0,0
35828,-114.942528735632,4,2,0,62,0,0
38664,-114.942528735632,4,2,0,5,0,0
38755,-114.942528735632,4,2,0,62,0,0
41682,-114.942528735632,4,2,0,62,0,0
44517,-114.942528735632,4,2,0,5,0,0
44609,-114.942528735632,4,2,0,62,0,0
46072,-100,4,2,0,62,0,0
46804,-83.3333333333333,4,2,0,62,0,0
47353,-83.3333333333333,4,2,0,77,0,0
47536,-133.333333333333,4,2,0,62,0,0
48542,-133.333333333333,4,2,0,5,0,0
48633,-133.333333333333,4,2,0,62,0,0
50005,-133.333333333333,4,2,0,5,0,0
50097,-133.333333333333,4,2,0,62,0,0
51469,-133.333333333333,4,2,0,5,0,0
51560,-83.3333333333333,4,2,0,62,0,0
51926,-111.111111111111,4,2,0,62,0,0
53389,-125,4,2,0,62,0,0
54396,-125,4,2,0,5,0,0
54487,-125,4,2,0,62,0,0
55859,-125,4,2,0,5,0,0
55950,-125,4,2,0,62,0,0
57780,-111.111111111111,4,2,0,62,0,0
59243,-100,4,2,0,62,0,0
62078,-100,4,2,0,5,0,0
62170,-100,4,2,0,72,0,0
63633,-200,4,2,0,62,0,0
64914,-100,4,2,0,62,0,0
65097,-83.3333333333333,4,2,0,82,0,1
65371,-83.3333333333333,4,2,0,5,0,1
65463,-83.3333333333333,4,2,0,82,0,1
77078,-83.3333333333333,4,2,0,5,0,1
77170,-83.3333333333333,4,2,0,82,0,1
82658,-100,4,2,0,72,0,1
85585,-100,4,2,0,72,0,0
108450,-100,4,2,0,62,0,0
109731,-100,4,2,0,62,0,0
123999,-125,4,2,0,62,0,0
124182,-100,4,2,0,62,0,0
124639,-100,4,2,0,5,0,0
124731,-83.3333333333333,4,2,0,62,0,0
125097,-100,4,2,0,62,0,0
129853,-125,4,2,0,62,0,0
130036,-100,4,2,0,62,0,0
135249,-100,4,2,0,5,0,0
135341,-100,4,2,0,72,0,0
137170,-200,4,2,0,62,0,0
137536,-200,4,2,0,62,0,0
137627,-100,4,2,0,62,0,0
137902,-100,4,2,0,72,0,0
138267,-83.3333333333333,4,2,0,82,0,1
138542,-83.3333333333333,4,2,0,5,0,1
138633,-83.3333333333333,4,2,0,82,0,1
150249,-83.3333333333333,4,2,0,5,0,1
150341,-83.3333333333333,4,2,0,82,0,1
160219,-100,4,2,0,72,0,0
161682,-83.3333333333333,4,2,0,82,0,1
161956,-83.3333333333333,4,2,0,5,0,1
162048,-83.3333333333333,4,2,0,82,0,1
173664,-83.3333333333333,4,2,0,5,0,1
173755,-83.3333333333333,4,2,0,82,0,1
179243,-100,4,2,0,72,0,1
182170,-100,4,2,0,72,0,0
185097,-90.9090909090909,4,2,0,72,0,1
186560,-90.9090909090909,4,2,0,72,0,0
186835,-90.9090909090909,4,2,0,5,0,0
186926,-90.9090909090909,4,2,0,72,0,0
196804,-90.9090909090909,4,2,0,72,0,1
197444,-90.9090909090909,4,2,0,5,0,1
197536,-90.9090909090909,4,2,0,72,0,1
198267,-90.9090909090909,4,2,0,72,0,0
200005,-90.9090909090909,4,2,0,5,0,0
200097,-90.9090909090909,4,2,0,72,0,0
200737,-90.9090909090909,4,2,0,5,0,0
200828,-90.9090909090909,4,2,0,72,0,0
202658,-125,4,2,0,62,0,0
203389,-66.6666666666667,4,2,0,82,0,1
203755,-90.9090909090909,4,2,0,72,0,0
204121,-90.9090909090909,4,2,0,72,0,0
204853,-66.6666666666667,4,2,0,82,0,1
205219,-90.9090909090909,4,2,0,72,0,0
205585,-83.3333333333333,4,2,0,72,0,1
208511,-125,4,2,0,72,0,0
220219,-133.333333333333,4,2,0,52,0,0
228999,-111.111111111111,4,2,0,72,0,0
230463,-100,4,2,0,72,0,0
231560,-100,4,2,0,72,0,0
232292,-200,4,2,0,62,0,0
233024,-100,4,2,0,72,0,0
233389,-83.3333333333333,4,2,0,82,0,1
233664,-83.3333333333333,4,2,0,5,0,1
233755,-83.3333333333333,4,2,0,82,0,1
245371,-83.3333333333333,4,2,0,5,0,1
245463,-83.3333333333333,4,2,0,82,0,1
255341,-100,4,2,0,72,0,0
256804,-83.3333333333333,4,2,0,82,0,1
257078,-83.3333333333333,4,2,0,5,0,1
257170,-83.3333333333333,4,2,0,82,0,1
268511,-111.111111111111,4,2,0,72,0,1
268786,-111.111111111111,4,2,0,5,0,1
268877,-76.9230769230769,4,2,0,72,0,1
269243,-83.3333333333333,4,2,0,72,0,1
271438,-90.9090909090909,4,2,0,72,0,1
274365,-100,4,2,0,62,0,1
277292,-100,4,2,0,72,0,0
278755,-100,4,2,0,76,0,0
279487,-100,4,2,0,82,0,0
280219,-153.846153846154,4,2,0,62,0,0
280242,-153.846153846154,4,2,0,42,0,0
281591,-153.846153846154,4,2,0,5,0,0
281682,-153.846153846154,4,2,0,42,0,0
283054,-153.846153846154,4,2,0,5,0,0
283146,-153.846153846154,4,2,0,42,0,0
284517,-153.846153846154,4,2,0,5,0,0
284609,-153.846153846154,4,2,0,42,0,0
285981,-153.846153846154,4,2,0,5,0,0
286072,-153.846153846154,4,2,0,42,0,0
287353,-153.846153846154,4,2,0,5,0,0
287536,-86.9565217391304,4,2,0,52,0,1
288999,-153.846153846153,4,2,0,62,0,0
291926,-120.481927710843,4,2,0,62,0,0
314929,365.853658536585,4,2,0,62,1,0
315340,365.853658536585,4,2,0,62,1,0
315340,-120.481927710843,4,2,0,62,0,0
328510,-1000,4,2,0,62,0,0
329059,-1000,4,2,0,42,0,0

[Colours]
Combo1 : 231,206,122
Combo2 : 117,176,102

[HitObjects]
83,263,707,6,0,P|119:215|91:147,1,127.500004863739,4|0,0:0|0:0,0:0:0:0:
101,155,1255,1,0,0:0:0:0:
159,79,1438,2,0,B|219:59|219:107|283:87,1,127.500004863739,2|0,0:0|0:0,0:0:0:0:
283,88,1987,1,0,0:0:0:0:
368,144,2170,2,0,L|360:240,1,93.5000028533936,2|0,0:3|0:0,0:0:0:0:
360,237,2719,1,0,0:0:0:0:
455,343,2902,2,0,L|443:207,1,127.500004863739,2|0,0:0|0:0,0:0:0:0:
444,216,3450,1,0,0:0:0:0:
359,331,3633,6,0,B|325:333|303:311|303:311|263:299|231:323,1,127.500004863739,2|0,0:3|0:0,0:0:0:0:
240,318,4182,1,0,0:0:0:0:
136,288,4365,2,0,P|108:232|136:176,1,127.500004863739,2|0,0:0|0:0,0:0:0:0:
134,177,4914,1,0,0:0:0:0:
87,79,5097,2,0,L|183:67,1,93.5000028533936,2|0,0:3|0:0,0:0:0:0:
180,68,5646,1,0,0:0:0:0:
296,124,5828,1,2,0:0:0:0:
296,124,6194,1,0,0:0:0:0:
359,67,6377,1,2,0:0:0:0:
359,67,6469,1,0,0:0:0:0:
359,67,6560,6,0,P|383:115|355:183,1,127.500004863739,4|0,0:0|0:0,0:0:0:0:
358,181,7109,1,0,0:0:0:0:
415,279,7292,2,0,B|351:303|351:251|291:279,1,127.500004863739,2|0,0:0|0:0,0:0:0:0:
292,279,7841,1,0,0:0:0:0:
191,239,8024,2,0,B|147:265|107:239|107:239|72:257,1,127.500004863739,2|0,0:3|0:0,0:0:0:0:
73,257,8572,1,0,0:0:0:0:
147,175,8755,2,0,P|163:123|119:63,1,127.500004863739,2|0,0:0|0:0,0:0:0:0:
125,66,9304,1,0,0:0:0:0:
248,117,9487,6,0,L|376:97,1,127.500004863739,2|0,0:3|0:0,0:0:0:0:
374,98,10036,1,0,0:0:0:0:
468,152,10219,1,2,0:0:0:0:
468,152,10585,1,0,0:0:0:0:
396,252,10767,1,2,0:0:0:0:
396,252,10859,1,0,0:0:0:0:
396,252,10950,6,0,L|408:336,1,85,4|0,0:0|0:0,0:0:0:0:
408,336,11499,1,0,0:0:0:0:
408,336,11865,5,8,0:0:0:0:
308,256,12048,1,8,0:3:0:0:
384,120,12231,1,12,0:3:0:0:
248,32,12414,6,0,L|72:52,1,170,4|8,0:0|0:0,0:0:0:0:
79,51,12963,1,0,0:0:0:0:
168,172,13146,2,0,P|176:128|161:90,1,85,8|0,0:3|0:0,0:0:0:0:
80,224,13511,1,8,0:0:0:0:
80,224,13694,1,0,0:0:0:0:
192,260,13877,6,0,L|284:252,1,85,8|0,0:3|0:0,0:0:0:0:
396,308,14243,1,8,0:0:0:0:
340,184,14426,1,0,0:0:0:0:
340,184,14792,5,2,0:0:0:0:
456,244,14975,1,10,0:0:0:0:
276,252,15158,1,2,0:0:0:0:
413,139,15341,6,0,P|373:103|265:143,1,170,4|8,0:0|0:0,0:0:0:0:
271,133,15889,1,0,0:0:0:0:
176,64,16072,2,0,L|88:72,1,85,8|0,0:3|0:0,0:0:0:0:
271,133,16438,1,8,0:0:0:0:
271,133,16621,1,0,0:0:0:0:
192,216,16804,6,0,P|180:260|192:296,1,85,8|0,0:3|0:0,0:0:0:0:
328,200,17170,1,8,0:0:0:0:
192,216,17353,1,0,0:0:0:0:
192,216,17719,5,2,0:0:0:0:
360,280,17902,1,10,0:0:0:0:
268,131,18085,1,2,0:0:0:0:
360,280,18267,6,0,P|408:240|392:140,1,170,4|8,0:0|0:0,0:0:0:0:
393,142,18816,1,0,0:0:0:0:
271,51,18999,2,0,P|258:91|271:135,1,85,8|0,0:3|0:0,0:0:0:0:
400,52,19365,1,8,0:0:0:0:
400,52,19548,1,0,0:0:0:0:
269,132,19731,5,8,0:3:0:0:
400,52,19914,1,0,0:0:0:0:
480,183,20097,1,8,0:0:0:0:
349,263,20280,1,0,0:0:0:0:
349,263,20646,5,2,0:0:0:0:
480,183,20828,1,10,0:0:0:0:
360,132,21011,1,2,0:0:0:0:
424,304,21194,6,0,P|396:340|280:316,1,170,4|8,0:0|0:0,0:0:0:0:
240,260,21743,1,0,0:0:0:0:
152,348,21926,2,0,P|104:360|64:344,1,85,8|0,0:3|0:0,0:0:0:0:
240,260,22292,1,8,0:0:0:0:
240,260,22475,1,0,0:0:0:0:
140,160,22658,6,0,L|152:72,1,85,8|0,0:3|0:0,0:0:0:0:
240,260,23024,1,8,0:0:0:0:
336,192,23206,2,0,P|408:180|464:260,1,170,0|0,0:0|0:0,0:0:0:0:
268,124,23755,2,0,P|260:92|272:48,1,63.75,8|0,0:0|0:0,0:0:0:0:
336,192,24121,5,4,0:0:0:0:
336,192,24487,1,8,0:0:0:0:
180,136,24853,2,0,L|92:144,1,70.5500010226822,8|0,0:3|0:0,0:0:0:0:
32,176,25219,1,8,0:0:0:0:
60,80,25402,1,0,0:0:0:0:
180,136,25585,2,0,B|205:202|152:200|180:272,1,141.100002045364,8|8,0:3|0:0,0:0:0:0:
268,240,26133,1,0,0:0:0:0:
268,240,26499,1,0,0:0:0:0:
340,352,26682,2,0,L|448:336,1,105.825001534023,8|0,0:0|0:0,0:0:0:0:
480,304,27048,6,0,P|504:240|456:176,1,141.100002045364,8|8,0:3|0:0,0:0:0:0:
468,182,27780,1,8,0:3:0:0:
392,148,27963,1,0,0:0:0:0:
324,224,28146,2,0,P|288:232|248:220,1,70.5500010226822,8|0,0:0|0:0,0:0:0:0:
120,152,28511,2,0,P|168:120|240:148,1,141.100002045364,8|8,0:3|0:0,0:0:0:0:
188,264,29060,1,0,0:0:0:0:
188,264,29426,1,0,0:0:0:0:
100,232,29609,2,0,P|92:266|100:300,1,70.5500010226822,8|0,0:0|0:0,0:0:0:0:
248,328,29975,6,0,L|368:316,1,105.825001534023,8|0,0:3|0:0,0:0:0:0:
396,312,30341,1,8,0:0:0:0:
464,248,30524,2,0,P|484:200|452:136,1,114.749996498108,0|0,0:0|0:0,0:0:0:0:
428,112,30889,1,0,0:0:0:0:
264,196,31072,2,0,B|332:224|332:168|400:196,1,141.100002045364,8|8,0:0|0:3,0:0:0:0:
464,248,31621,1,0,0:0:0:0:
368,280,31804,6,0,P|360:320|368:348,1,70.5500010226822,8|0,0:0|0:0,0:0:0:0:
272,260,32170,2,0,P|234:275|215:297,1,70.5500010226822,8|0,0:3|0:0,0:0:0:0:
308,160,32536,2,0,P|270:143|241:145,1,70.5500010226822,8|0,0:0|0:0,0:0:0:0:
66,96,32902,2,0,P|122:120|194:72,1,141.100002045364,8|8,0:3|0:0,0:0:0:0:
187,83,33450,1,0,0:0:0:0:
288,112,33633,6,0,P|291:67|274:35,1,70.5500010226822,8|0,0:3|0:0,0:0:0:0:
244,172,33999,2,0,L|368:156,1,105.825001534023,8|0,0:0|0:0,0:0:0:0:
392,152,34365,2,0,P|404:192|392:232,1,70.5500010226822,8|0,0:3|0:0,0:0:0:0:
352,292,34731,1,8,0:0:0:0:
412,352,34914,1,0,0:0:0:0:
472,296,35097,1,8,0:3:0:0:
472,296,35280,1,0,0:0:0:0:
352,292,35463,2,0,L|260:288,1,70.5500010226822,8|0,0:0|0:0,0:0:0:0:
184,333,35828,6,0,B|163:299|179:261|184:261|204:232|184:190,1,147.900001241226,4|8,0:0|0:0,0:0:0:0:
184,191,36560,6,2,P|216:195|256:175,1,73.9500006206131,10|2,0:3|0:0,0:0:0:0:
132,128,36926,2,2,P|100:124|60:144,1,73.9500006206131
184,192,37292,2,0,P|220:132|184:60,1,147.900001241226,8|8,0:3|0:0,0:0:0:0:
104,24,37841,1,0,0:0:0:0:
104,24,38206,1,0,0:0:0:0:
272,36,38389,2,0,L|384:44,1,110.92500093092,8|0,0:0|0:0,0:0:0:0:
428,48,38755,6,0,P|400:104|440:176,1,147.900001241226,8|8,0:3|0:0,0:0:0:0:
268,352,39487,1,8,0:3:0:0:
308,272,39670,1,2,0:0:0:0:
240,176,39853,2,2,P|232:140|248:96,1,73.9500006206131,10|2,0:0|0:0,0:0:0:0:
184,244,40219,6,0,P|116:264|60:200,1,147.900001241226,8|8,0:3|0:0,0:0:0:0:
124,140,40767,1,0,0:0:0:0:
124,140,41133,1,0,0:0:0:0:
64,216,41316,2,0,P|64:276|84:352,1,110.92500093092,8|0,0:0|0:0,0:0:0:0:
116,344,41682,6,0,B|195:366|176:305|259:323,1,147.900001241226,4|8,0:0|0:0,0:0:0:0:
388,348,42231,1,2,0:0:0:0:
320,284,42414,2,2,P|308:240|320:200,1,73.9500006206131,10|2,0:3|0:0,0:0:0:0:
388,348,42780,1,10,0:0:0:0:
432,240,42963,2,0,P|434:194|414:157,1,73.9500006206131,0|8,0:0|0:3,0:0:0:0:
388,348,43328,1,0,0:0:0:0:
320,284,43511,1,8,0:0:0:0:
423,169,43694,1,0,0:0:0:0:
423,169,44060,1,0,0:0:0:0:
324,88,44243,2,0,L|200:104,1,110.92500093092,8|0,0:0|0:0,0:0:0:0:
172,80,44609,6,0,P|132:104|44:64,1,147.900001241226,4|8,0:0|0:0,0:0:0:0:
45,67,45158,1,2,0:0:0:0:
88,228,45341,2,2,B|120:204|120:204|140:176|140:136|104:104,1,147.900001241226,10|10,0:3|0:0,0:0:0:0:
106,106,45889,1,2,0:0:0:0:
88,228,46072,6,0,P|152:256|224:196,1,170,8|8,0:3|0:0,0:0:0:0:
223,198,46621,1,0,0:0:0:0:
380,280,46804,1,8,0:3:0:0:
300,120,46987,1,0,0:0:0:0:
268,296,47170,1,8,0:0:0:0:
400,176,47353,1,0,0:0:0:0:
346,52,47536,6,0,P|302:36|226:80,1,127.500004863739,8|8,0:3|0:0,0:0:0:0:
352,280,48267,2,0,L|448:260,1,95.6250036478044,8|0,0:3|0:0,0:0:0:0:
488,248,48633,1,8,0:0:0:0:
128,136,48999,6,0,L|152:268,1,127.500004863739,8|8,0:3|0:0,0:0:0:0:
151,262,49548,1,0,0:0:0:0:
116,360,49731,2,0,P|160:371|204:352,1,95.6250036478044,8|0,0:3|0:0,0:0:0:0:
236,320,50097,1,8,0:0:0:0:
380,340,50280,5,2,0:0:0:0:
312,304,50463,1,2,0:0:0:0:
340,232,50646,1,2,0:0:0:0:
380,340,50828,1,10,0:0:0:0:
280,56,51194,6,0,L|180:68,1,95.6250036478044,8|0,0:3|0:0,0:0:0:0:
143,91,51560,6,0,P|111:135|199:243,1,203.999993774414,12|8,0:0|0:3,0:0:0:0:
288,130,52109,6,0,P|297:166|288:206,1,76.4999976654053,2|8,0:0|0:0,0:0:0:0:
184,316,52475,2,0,P|175:280|184:240,1,76.4999976654053,2|8,0:0|0:3,0:0:0:0:
289,204,52841,1,2,0:0:0:0:
256,280,53024,1,8,0:0:0:0:
212,164,53206,1,0,0:0:0:0:
340,272,53389,6,0,B|404:300|404:244|472:272,1,136,8|8,0:3|0:0,0:0:0:0:
340,76,54121,2,0,P|320:124|348:184,1,102,8|0,0:3|0:0,0:0:0:0:
372,200,54487,1,8,0:0:0:0:
191,63,54853,6,0,L|55:79,1,136,8|8,0:3|0:0,0:0:0:0:
56,79,55402,1,0,0:0:0:0:
140,152,55585,2,0,B|164:176|164:176|176:216|148:256,1,102,8|0,0:3|0:0,0:0:0:0:
132,284,55950,1,8,0:0:0:0:
272,336,56133,5,2,0:0:0:0:
324,280,56316,1,2,0:0:0:0:
344,352,56499,1,2,0:0:0:0:
252,264,56682,1,10,0:0:0:0:
440,60,57048,6,0,P|405:52|371:60,1,68,8|0,0:3|0:0,0:0:0:0:
256,132,57414,2,0,P|290:139|324:131,1,68,8|0,0:0|0:0,0:0:0:0:
200,64,57780,2,0,L|217:218,1,152.999995330811,8|8,0:3|0:0,0:0:0:0:
284,260,58328,1,0,0:0:0:0:
201,336,58511,2,0,P|164:345|124:332,1,76.4999976654053,8|0,0:3|0:0,0:0:0:0:
284,260,58877,2,0,P|321:251|361:264,1,76.4999976654053,8|0,0:0|0:0,0:0:0:0:
472,356,59243,6,0,P|436:296|500:220,1,170,8|8,0:3|0:0,0:0:0:0:
488,222,59792,1,0,0:0:0:0:
436,76,59975,2,0,L|424:172,1,85,8|0,0:3|0:0,0:0:0:0:
488,222,60341,1,8,0:0:0:0:
352,156,60524,5,2,0:0:0:0:
280,200,60706,1,8,0:3:0:0:
208,148,60889,1,2,0:0:0:0:
280,200,61072,1,8,0:0:0:0:
135,271,61255,2,0,B|175:191|91:191|135:107,1,170,2|0,0:0|0:0,0:0:0:0:
244,88,61804,2,0,P|208:120|132:108,1,127.5,8|0,0:0|0:0,0:0:0:0:
64,32,62170,5,4,0:0:0:0:
120,332,64182,1,8,0:3:0:0:
238,191,64365,1,8,0:3:0:0:
124,48,64548,1,8,0:3:0:0:
166,190,64731,1,8,0:0:0:0:
301,58,64914,2,0,L|256:72,1,42.5,2|2,0:0|0:0,0:0:0:0:
92,192,65097,6,0,B|164:224|164:156|240:192,1,152.999995330811,4|0,0:0|0:0,0:0:0:0:
304,152,65463,2,0,P|320:104|296:52,1,101.999996887207,8|0,0:0|0:0,0:0:0:0:
200,260,65828,2,0,P|212:320|280:248,1,203.999993774414,8|8,0:3|0:0,0:0:0:0:
232,104,66377,1,0,0:0:0:0:
287,258,66560,2,0,P|336:272|384:252,1,101.999996887207,8|0,0:3|0:0,0:0:0:0:
364,96,66926,6,0,P|330:134|328:186,1,101.999996887207,8|0,0:0|0:0,0:0:0:0:
468,248,67292,2,0,P|452:199|408:170,1,101.999996887207,8|0,0:3|0:0,0:0:0:0:
287,258,67658,1,8,0:0:0:0:
392,336,67841,1,8,0:0:0:0:
287,258,68024,6,0,B|236:296|188:272|188:256|188:240|143:222|99:246,1,203.999993774414,4|8,0:3|0:0,0:0:0:0:
132,328,68572,1,0,0:0:0:0:
240,192,68755,2,0,B|264:160|276:120|264:84|236:56|236:56|212:72|208:100,2,203.999993774414,8|8|8,0:3|0:0|0:3,0:0:0:0:
328,244,69670,1,0,0:0:0:0:
240,287,69853,2,0,P|224:240|240:191,1,101.999996887207,8|0,0:0|0:0,0:0:0:0:
376,324,70219,6,0,L|480:312,1,101.999996887207,8|0,0:3|0:0,0:0:0:0:
472,176,70585,1,8,0:0:0:0:
369,163,70767,1,8,0:0:0:0:
496,40,70950,2,0,B|352:60|352:60|380:56|412:68,1,203.999993774414,4|8,0:3|0:0,0:0:0:0:
369,163,71499,1,0,0:0:0:0:
260,104,71682,2,0,P|247:55|264:8,1,101.999996887207,8|0,0:3|0:0,0:0:0:0:
369,163,72048,2,0,P|382:212|365:259,1,101.999996887207,8|0,0:0|0:0,0:0:0:0:
224,336,72414,2,0,B|324:296|324:384|420:336,1,203.999993774414,8|8,0:3|0:0,0:0:0:0:
366,259,72963,1,0,0:0:0:0:
224,336,73146,6,0,P|175:350|128:336,1,101.999996887207,8|0,0:3|0:0,0:0:0:0:
128,200,73511,2,0,P|177:186|224:200,1,101.999996887207,8|8,0:0|0:0,0:0:0:0:
72,266,73877,2,0,B|44:232|32:196|52:152|80:130|80:130|60:112|56:84,1,203.999993774414,4|8,0:3|0:0,0:0:0:0:
132,40,74426,1,0,0:0:0:0:
220,120,74609,2,0,P|268:136|316:120,2,101.999996887207,8|0|8,0:3|0:0|0:0,0:0:0:0:
416,24,75158,5,4,0:0:0:0:
320,320,75524,5,2,0:0:0:0:
408,216,75706,1,8,0:3:0:0:
496,320,75889,1,2,0:0:0:0:
408,192,76071,1,8,0:3:0:0:
320,320,76255,5,10,0:3:0:0:
320,320,76438,1,10,0:3:0:0:
488,232,76621,5,10,0:0:0:0:
272,244,76804,6,0,L|112:252,1,152.999995330811,4|0,0:0|0:0,0:0:0:0:
56,212,77170,2,0,P|39:165|55:115,1,101.999996887207,8|0,0:0|0:0,0:0:0:0:
218,96,77536,2,0,P|202:160|142:84,1,203.999993774414,8|8,0:3|0:0,0:0:0:0:
174,12,78085,1,0,0:0:0:0:
300,135,78267,2,0,P|348:151|397:133,1,101.999996887207,8|0,0:3|0:0,0:0:0:0:
488,12,78633,6,0,P|488:60|476:116,1,101.999996887207,8|0,0:0|0:0,0:0:0:0:
406,236,78999,2,0,P|395:186|395:135,1,101.999996887207,8|0,0:3|0:0,0:0:0:0:
376,24,79365,1,8,0:0:0:0:
477,112,79548,1,8,0:0:0:0:
406,236,79731,6,0,B|310:288|310:188|210:236,1,203.999993774414,4|8,0:3|0:0,0:0:0:0:
256,312,80280,1,0,0:0:0:0:
96,232,80463,2,0,P|44:152|108:64,2,203.999988910675,8|8|8,0:3|0:0|0:3,0:0:0:0:
156,328,81377,1,0,0:0:0:0:
212,234,81560,2,0,L|236:132,1,101.999996887207,8|0,0:0|0:0,0:0:0:0:
96,232,81926,6,0,L|72:130,1,101.999996887207,8|0,0:3|0:0,0:0:0:0:
176,12,82292,1,8,0:0:0:0:
152,111,82474,1,8,0:0:0:0:
212,234,82658,2,0,P|272:254|344:188,1,170,4|8,0:3|0:0,0:0:0:0:
344,188,83389,6,0,L|336:288,1,85,8|0,0:3|0:0,0:0:0:0:
400,336,83755,1,8,0:0:0:0:
400,336,83938,1,8,0:0:0:0:
456,236,84121,2,0,B|445:120|445:120|460:68,1,170,8|8,0:3|0:0,0:0:0:0:
460,68,84853,5,8,0:3:0:0:
332,64,85036,1,0,0:0:0:0:
224,132,85219,1,8,0:0:0:0:
340,72,85402,1,8,0:0:0:0:
340,72,85493,1,10,0:0:0:0:
340,72,85585,6,0,P|353:116|343:156,1,85,4|0,0:0|0:0,0:0:0:0:
276,228,85950,1,8,0:0:0:0:
332,312,86133,1,0,0:0:0:0:
276,228,86316,2,0,B|196:268|196:188|112:228,1,170,8|8,0:3|0:0,0:0:0:0:
36,292,86865,1,0,0:0:0:0:
156,372,87048,6,0,P|168:332|152:288,1,85,8|0,0:3|0:0,0:0:0:0:
32,184,87414,1,8,0:0:0:0:
36,292,87597,1,0,0:0:0:0:
108,144,87780,2,0,P|80:112|34:102,2,85,0|2|10,0:0|0:0|0:0,0:0:0:0:
32,184,88328,1,2,0:0:0:0:
188,104,88511,6,0,P|240:116|284:112,1,85,4|0,0:0|0:0,0:0:0:0:
436,36,88877,1,8,0:0:0:0:
332,56,89059,1,0,0:0:0:0:
436,120,89243,2,0,B|472:140|472:140|520:200|468:260,1,170,8|8,0:3|0:0,0:0:0:0:
404,332,89792,1,0,0:0:0:0:
284,256,89975,6,0,P|323:243|368:256,1,85,8|0,0:3|0:0,0:0:0:0:
232,324,90341,1,8,0:0:0:0:
248,180,90524,1,0,0:0:0:0:
232,324,90706,2,0,P|192:336|148:324,2,85,0|2|10,0:0|0:0|0:0,0:0:0:0:
284,256,91255,1,2,0:0:0:0:
164,152,91438,6,0,L|72:168,1,85,4|0,0:0|0:0,0:0:0:0:
12,244,91804,1,8,0:0:0:0:
80,166,91987,1,0,0:0:0:0:
216,216,92170,2,0,P|248:152|200:76,1,170,8|8,0:3|0:0,0:0:0:0:
108,32,92719,1,0,0:0:0:0:
200,76,92902,6,0,P|248:76|284:56,1,85,8|0,0:3|0:0,0:0:0:0:
361,115,93267,1,8,0:0:0:0:
436,44,93450,1,0,0:0:0:0:
361,115,93633,2,0,P|361:159|385:199,2,85,0|2|10,0:0|0:0|0:0,0:0:0:0:
512,248,94182,1,2,0:0:0:0:
512,248,94274,1,2,0:0:0:0:
512,248,94365,6,0,B|468:224|432:240|428:252|428:268|392:284|352:264,1,170,4|8,0:0|0:0,0:0:0:0:
476,324,94914,1,0,0:0:0:0:
292,208,95097,2,0,P|268:260|328:344,1,170,8|8,0:3|0:0,0:0:0:0:
380,194,95646,1,0,0:0:0:0:
196,292,95828,6,0,P|156:303|112:288,1,85,8|0,0:3|0:0,0:0:0:0:
211,206,96194,2,0,P|251:195|295:210,1,85,8|0,0:0|0:0,0:0:0:0:
115,290,96560,5,0,0:0:0:0:
164,132,96743,1,0,0:0:0:0:
52,28,96926,1,8,0:0:0:0:
101,186,97109,1,0,0:0:0:0:
280,96,97292,5,4,0:0:0:0:
228,112,108450,5,2,0:0:0:0:
344,160,108633,1,0,0:0:0:0:
296,276,108816,1,2,0:0:0:0:
180,228,108999,5,10,0:3:0:0:
268,196,109182,1,2,0:0:0:0:
296,276,109365,1,2,0:0:0:0:
216,304,109548,1,2,0:0:0:0:
344,160,109731,6,0,P|388:156|424:172,1,85,8|0,0:3|0:0,0:0:0:0:
268,196,110097,2,0,P|260:152|272:115,1,85,8|0,0:0|0:0,0:0:0:0:
424,172,110463,2,0,B|464:252|384:252|424:336,1,170,8|8,0:3|0:0,0:0:0:0:
496,296,111011,1,0,0:0:0:0:
336,264,111194,2,0,P|291:269|258:297,1,85,2|0,0:0|0:0,0:0:0:0:
324,348,111560,1,8,0:0:0:0:
112,192,111926,6,0,P|80:260|144:328,1,170,8|8,0:3|0:0,0:0:0:0:
188,252,112475,1,0,0:0:0:0:
176,144,112658,2,0,P|141:116|96:112,1,85,8|0,0:3|0:0,0:0:0:0:
188,252,113024,1,8,0:0:0:0:
276,200,113206,1,0,0:0:0:0:
392,264,113389,6,0,B|416:236|420:208|416:176|392:148|392:148|412:148|432:164,1,170,8|8,0:3|0:0,0:0:0:0:
488,288,113938,1,0,0:0:0:0:
396,348,114121,2,0,P|354:341|322:314,1,85,8|0,0:3|0:0,0:0:0:0:
184,344,114487,2,0,P|205:307|242:287,1,85,8|0,0:0|0:0,0:0:0:0:
396,348,114853,6,0,B|350:351|323:315|323:315|308:272|340:232,1,169.999995946884,4|8,0:0|0:0,0:0:0:0:
396,168,115402,1,0,0:0:0:0:
327,79,115585,2,0,P|283:75|243:95,1,85,8|0,0:3|0:0,0:0:0:0:
396,168,115950,1,8,0:0:0:0:
247,92,116133,2,0,P|222:128|221:173,1,85,0|8,0:0|0:3,0:0:0:0:
396,168,116499,1,0,0:0:0:0:
247,92,116682,2,0,B|163:124|163:52|83:92,1,170,8|0,0:0|0:0,0:0:0:0:
128,160,117231,1,0,0:0:0:0:
76,296,117414,6,0,L|60:212,1,85,8|0,0:0|0:0,0:0:0:0:
160,328,117780,2,0,P|232:348|296:288,1,170,4|8,0:0|0:0,0:0:0:0:
248,208,118328,1,0,0:0:0:0:
296,287,118511,2,0,P|336:299|380:287,1,85,8|0,0:3|0:0,0:0:0:0:
400,160,118877,2,0,P|360:148|316:160,1,85,8|0,0:0|0:0,0:0:0:0:
460,224,119243,2,0,B|484:200|492:172|492:136|472:112|472:112|436:80,1,170,8|8,0:3|0:0,0:0:0:0:
319,158,119792,1,0,0:0:0:0:
400,160,119975,5,8,0:3:0:0:
264,92,120158,1,0,0:0:0:0:
284,232,120341,1,8,0:0:0:0:
356,84,120524,1,2,0:0:0:0:
284,232,120706,6,0,P|212:268|136:220,1,170,8|8,0:3|0:0,0:0:0:0:
140,228,121438,2,0,L|160:320,1,85,8|0,0:3|0:0,0:0:0:0:
56,192,121804,2,0,L|76:100,1,85,8|0,0:0|0:0,0:0:0:0:
158,311,122170,6,0,B|198:331|238:307|238:307|278:287|322:311,1,170,8|8,0:3|0:0,0:0:0:0:
320,310,122719,1,0,0:0:0:0:
408,256,122902,2,0,P|420:216|400:168,1,85,8|0,0:3|0:0,0:0:0:0:
400,340,123267,1,8,0:0:0:0:
406,176,123450,5,2,0:0:0:0:
296,216,123633,1,2,0:0:0:0:
408,256,123816,1,2,0:0:0:0:
324,136,123999,2,0,P|288:132|252:144,1,68,10|0,0:0|0:0,0:0:0:0:
52,92,124365,6,0,P|116:112|176:80,1,127.5,8|0,0:3|0:0,0:0:0:0:
208,52,124731,6,0,P|168:160|232:200,1,203.999993774414,14|8,0:0|0:3,0:0:0:0:
128,328,125280,6,0,L|100:232,1,85,0|8,0:0|0:0,0:0:0:0:
231,351,125646,1,2,0:0:0:0:
344,264,125828,1,0,0:0:0:0:
284,144,126011,1,2,0:0:0:0:
255,270,126194,1,8,0:0:0:0:
348,224,126377,1,0,0:0:0:0:
280,108,126560,6,0,P|200:84|132:132,1,170,8|8,0:3|0:0,0:0:0:0:
134,130,127292,2,0,P|147:175|148:220,1,85,8|0,0:3|0:0,0:0:0:0:
60,332,127658,2,0,P|61:285|74:242,1,85,8|0,0:0|0:0,0:0:0:0:
192,316,128024,6,0,P|260:328|324:260,1,170,8|8,0:3|0:0,0:0:0:0:
324,259,128572,1,0,0:0:0:0:
248,136,128755,2,0,P|236:180|252:224,1,85,8|0,0:3|0:0,0:0:0:0:
400,216,129121,1,8,0:0:0:0:
328,76,129304,5,2,0:0:0:0:
408,120,129487,1,2,0:0:0:0:
324,259,129670,1,2,0:0:0:0:
400,216,129853,2,0,P|440:216|468:228,1,68,10|0,0:0|0:0,0:0:0:0:
328,76,130219,6,0,P|264:104|184:56,1,170,8|8,0:3|0:0,0:0:0:0:
64,96,130767,1,0,0:0:0:0:
104,268,130950,2,0,P|165:207|137:131,1,170,8|8,0:3|0:0,0:0:0:0:
56,184,131499,1,0,0:0:0:0:
176,324,131682,2,0,L|260:312,1,85,8|0,0:3|0:0,0:0:0:0:
400,248,132048,2,0,L|316:236,1,85,8|0,0:0|0:0,0:0:0:0:
444,324,132414,6,0,P|488:268|456:180,1,170,8|8,0:3|0:0,0:0:0:0:
388,128,132963,1,0,0:0:0:0:
456,12,133146,2,0,P|472:56|460:100,1,85,8|0,0:3|0:0,0:0:0:0:
304,128,133511,1,8,0:0:0:0:
360,208,133694,5,2,0:0:0:0:
388,128,133877,1,8,0:3:0:0:
351,51,134060,1,2,0:0:0:0:
272,208,134243,1,8,0:0:0:0:
192,52,134426,2,0,B|156:32|124:24|88:36|68:52|68:52|87:56|108:68,1,169.999995946884,2|0,0:0|0:0,0:0:0:0:
140,167,134975,2,0,P|147:104|101:64,1,127.5,8|0,0:0|0:0,0:0:0:0:
64,196,135341,5,4,0:0:0:0:
252,44,137170,6,0,L|340:52,1,85,8|0,0:0|0:0,0:0:0:0:
392,104,137719,1,4,0:0:0:0:
320,332,137902,1,10,0:0:0:0:
287,305,137993,1,2,0:0:0:0:
272,266,138084,1,10,0:0:0:0:
279,225,138176,1,10,0:0:0:0:
306,193,138267,6,0,L|152:216,1,152.999995330811,4|0,0:0|0:0,0:0:0:0:
88,184,138633,2,0,P|72:136|88:88,1,101.999996887207,8|0,0:0|0:0,0:0:0:0:
192,296,138999,2,0,P|176:364|128:284,1,203.999993774414,8|8,0:3|0:0,0:0:0:0:
154,215,139548,1,0,0:0:0:0:
280,328,139731,2,0,L|388:336,1,101.999996887207,8|0,0:3|0:0,0:0:0:0:
451,177,140097,6,0,P|468:225|450:274,1,101.999996887207,8|0,0:0|0:0,0:0:0:0:
348,156,140463,2,0,P|331:107|348:58,1,101.999996887207,8|0,0:3|0:0,0:0:0:0:
452,272,140828,1,8,0:0:0:0:
336,240,141011,1,8,0:0:0:0:
236,340,141194,6,0,B|224:332|224:332|200:356|160:364|120:336|120:336|98:351|77:358|44:344,1,203.999993774414,4|8,0:3|0:0,0:0:0:0:
172,276,141743,1,0,0:0:0:0:
96,148,141926,2,0,B|60:116|48:24|100:-16|156:52|112:84,2,203.999993774414,8|8|8,0:3|0:0|0:3,0:0:0:0:
172,200,142841,1,0,0:0:0:0:
248,148,143024,2,0,P|264:100|244:48,1,101.999996887207,8|0,0:0|0:0,0:0:0:0:
304,248,143389,6,0,L|408:260,1,101.999996887207,8|0,0:3|0:0,0:0:0:0:
500,344,143755,1,8,0:0:0:0:
399,356,143937,1,8,0:0:0:0:
304,248,144121,2,0,B|256:152|360:152|304:56,1,203.999993774414,4|8,0:3|0:0,0:0:0:0:
236,108,144670,1,0,0:0:0:0:
136,40,144853,2,0,P|88:24|40:39,1,101.999996887207,8|0,0:3|0:0,0:0:0:0:
40,192,145219,2,0,P|88:208|136:193,1,101.999996887207,8|0,0:0|0:0,0:0:0:0:
236,108,145585,2,0,P|300:52|392:116,1,203.999993774414,8|8,0:3|0:0,0:0:0:0:
316,204,146133,1,0,0:0:0:0:
236,108,146316,6,0,L|216:8,1,101.999996887207,8|0,0:3|0:0,0:0:0:0:
389,106,146682,2,0,L|409:6,1,101.999996887207,8|8,0:0|0:0,0:0:0:0:
316,204,147048,2,0,B|196:160|244:264|125:224,1,203.999993774414,4|8,0:3|0:0,0:0:0:0:
56,172,147597,1,0,0:0:0:0:
36,352,147780,2,0,L|48:240,2,101.999996887207,8|0|8,0:3|0:0|0:0,0:0:0:0:
136,144,148328,5,4,0:0:0:0:
424,344,148694,5,2,0:0:0:0:
296,240,148877,1,8,0:3:0:0:
280,356,149060,1,2,0:0:0:0:
437,228,149243,1,8,0:3:0:0:
424,344,149426,5,10,0:3:0:0:
424,344,149609,1,10,0:3:0:0:
280,224,149792,5,10,0:0:0:0:
428,68,149975,6,0,L|272:80,1,152.999995330811,4|0,0:0|0:0,0:0:0:0:
216,32,150341,2,0,P|199:79|215:127,1,101.999996887207,8|0,0:0|0:0,0:0:0:0:
283,308,150706,2,0,B|315:272|319:236|311:196|283:172|283:172|290:199|279:223,1,203.999993774414,8|8,0:3|0:0,0:0:0:0:
388,328,151255,1,0,0:0:0:0:
208,268,151438,2,0,L|108:284,1,101.999996887207,8|0,0:3|0:0,0:0:0:0:
176,92,151804,6,0,P|204:136|208:188,1,101.999996887207,8|0,0:0|0:0,0:0:0:0:
52,184,152170,2,0,P|56:132|84:88,1,101.999996887207,8|0,0:3|0:0,0:0:0:0:
208,184,152536,1,8,0:0:0:0:
107,284,152719,1,8,0:0:0:0:
208,184,152902,6,0,B|230:162|230:162|257:209|320:223|368:188|372:149,1,203.999993774414,4|8,0:3|0:0,0:0:0:0:
332,84,153450,1,0,0:0:0:0:
456,180,153633,2,0,B|500:276|403:276|455:375,2,203.999993774414,8|8|8,0:3|0:0|0:3,0:0:0:0:
380,220,154548,1,0,0:0:0:0:
280,176,154731,2,0,P|264:223|280:271,1,101.999996887207,8|0,0:0|0:0,0:0:0:0:
356,132,155097,6,0,B|372:85|372:85|356:36,1,101.999996887207,8|0,0:3|0:0,0:0:0:0:
208,108,155463,1,8,0:0:0:0:
280,176,155646,1,8,0:0:0:0:
268,44,155828,2,0,P|220:20|120:120,1,203.999993774414,4|8,0:3|0:0,0:0:0:0:
119,105,156377,1,0,0:0:0:0:
97,260,156560,6,0,B|108:219|73:180|73:180|100:195|128:199|160:195|183:161,1,203.999993774414,8|8,0:3|0:0,0:0:0:0:
178,166,157109,1,0,0:0:0:0:
256,264,157292,2,0,B|354:319|354:223|450:263,2,203.999993774414,8|8|8,0:3|0:0|0:3,0:0:0:0:
328,88,158206,1,0,0:0:0:0:
312,200,158389,1,8,0:0:0:0:
236,40,158572,1,2,0:0:0:0:
236,40,158664,1,2,0:0:0:0:
236,40,158755,6,0,B|328:88|328:88|384:88|408:36,1,203.999993774414,8|8,0:3|0:0,0:0:0:0:
468,120,159304,1,0,0:0:0:0:
312,164,159487,6,0,B|200:104|200:104|236:132|240:172,1,203.999993774414,8|8,0:3|0:0,0:0:0:0:
152,176,160036,1,0,0:0:0:0:
292,320,160219,6,0,L|278:236,1,85,8|0,0:3|0:0,0:0:0:0:
128,348,160585,2,0,L|141:264,1,85,8|0,0:0|0:0,0:0:0:0:
292,320,160950,5,8,0:3:0:0:
141,264,161133,1,0,0:0:0:0:
304,144,161316,1,8,0:0:0:0:
104,40,161499,1,8,0:0:0:0:
104,40,161591,1,10,0:0:0:0:
104,40,161682,6,0,B|204:68|204:68|252:48,1,152.999995330811,4|0,0:0|0:0,0:0:0:0:
320,72,162048,2,0,B|348:60|348:60|440:76,1,101.999996887207,8|0,0:0|0:0,0:0:0:0:
420,232,162414,2,0,B|379:252|379:252|363:139|363:139|408:147,1,203.999993774414,8|8,0:3|0:0,0:0:0:0:
500,252,162963,1,0,0:0:0:0:
348,322,163146,2,0,B|380:336|380:336|440:305,1,101.999996887207,8|0,0:3|0:0,0:0:0:0:
268,216,163511,6,0,P|220:200|172:216,1,101.999996887207,8|0,0:0|0:0,0:0:0:0:
172,340,163877,2,0,P|220:356|268:340,1,101.999996887207,8|0,0:3|0:0,0:0:0:0:
268,216,164243,1,8,0:0:0:0:
104,276,164426,1,8,0:0:0:0:
268,216,164609,6,0,P|328:136|256:72,1,203.999993774414,4|8,0:3|0:0,0:0:0:0:
196,144,165158,1,0,0:0:0:0:
220,280,165341,2,0,B|312:336|312:236|416:280,2,203.999993774414,8|8|8,0:3|0:0|0:3,0:0:0:0:
144,336,166255,1,0,0:0:0:0:
68,280,166438,2,0,P|52:232|68:184,1,101.999996887207,8|0,0:0|0:0,0:0:0:0:
232,100,166804,6,0,L|132:116,1,101.999996887207,8|0,0:3|0:0,0:0:0:0:
296,160,167170,1,8,0:0:0:0:
268,24,167353,1,8,0:0:0:0:
296,160,167536,2,0,P|392:192|448:108,1,203.999993774414,4|8,0:3|0:0,0:0:0:0:
392,56,168085,1,0,0:0:0:0:
386,194,168267,2,0,L|380:308,1,101.999996887207,8|0,0:3|0:0,0:0:0:0:
488,384,168633,2,0,L|482:282,1,101.999996887207,8|0,0:0|0:0,0:0:0:0:
320,348,168999,2,0,B|268:384|220:356|220:332|168:312|124:344,1,203.999993774414,8|8,0:3|0:0,0:0:0:0:
48,296,169548,1,0,0:0:0:0:
124,164,169731,6,0,P|139:211|123:259,1,101.999996887207,8|0,0:3|0:0,0:0:0:0:
44,136,170097,2,0,P|28:88|44:40,1,101.999996887207,8|8,0:0|0:0,0:0:0:0:
212,160,170463,2,0,B|256:188|256:188|324:172|336:104|304:60,1,203.999993774414,4|8,0:3|0:0,0:0:0:0:
232,24,171011,1,0,0:0:0:0:
212,160,171194,2,0,P|208:212|232:256,2,101.999996887207,8|0|8,0:3|0:0|0:0,0:0:0:0:
368,20,171743,5,4,0:0:0:0:
476,340,172109,5,2,0:0:0:0:
424,192,172292,1,8,0:3:0:0:
280,344,172475,1,2,0:0:0:0:
344,160,172658,1,8,0:3:0:0:
476,340,172841,5,10,0:3:0:0:
476,340,173024,1,10,0:3:0:0:
268,240,173206,5,10,0:0:0:0:
408,60,173389,6,0,L|256:72,1,152.999995330811,4|0,0:0|0:0,0:0:0:0:
191,29,173755,2,0,P|179:77|203:129,1,101.999996887207,8|0,0:0|0:0,0:0:0:0:
287,247,174121,2,0,B|259:203|283:150|283:150|259:203|206:211,1,203.999988910675,8|8,0:3|0:0,0:0:0:0:
128,168,174670,1,0,0:0:0:0:
24,236,174853,2,0,P|8:188|24:140,1,101.999996887207,8|0,0:3|0:0,0:0:0:0:
108,280,175219,6,0,B|84:380,1,101.999996887207,8|0,0:0|0:0,0:0:0:0:
148,192,175585,2,0,B|124:92,1,101.999996887207,8|0,0:3|0:0,0:0:0:0:
224,248,175950,1,8,0:0:0:0:
60,184,176133,1,8,0:0:0:0:
224,248,176316,6,0,B|320:296|320:196|420:248,1,203.999993774414,4|8,0:3|0:0,0:0:0:0:
496,308,176865,1,0,0:0:0:0:
420,168,177048,2,0,B|400:104|448:56|448:56|408:88|356:72,2,203.999993774414,8|8|8,0:3|0:0|0:3,0:0:0:0:
504,132,177963,1,0,0:0:0:0:
372,76,178146,2,0,B|344:76|320:60|320:60|272:76,1,101.999996887207,8|0,0:0|0:0,0:0:0:0:
160,116,178511,6,0,P|144:163|160:211,1,101.999996887207,8|0,0:3|0:0,0:0:0:0:
275,75,178877,1,8,0:0:0:0:
160,116,179060,1,8,0:0:0:0:
288,212,179243,2,0,P|312:292|256:356,1,170,4|8,0:3|0:0,0:0:0:0:
261,353,179975,6,0,L|361:333,1,85,8|0,0:3|0:0,0:0:0:0:
444,316,180341,1,8,0:0:0:0:
444,316,180524,1,8,0:0:0:0:
392,196,180706,2,0,B|360:116|432:116|392:32,1,170,8|8,0:3|0:0,0:0:0:0:
392,32,181438,5,8,0:3:0:0:
256,32,181621,1,0,0:0:0:0:
140,120,181804,1,8,0:0:0:0:
264,40,181987,1,8,0:0:0:0:
264,40,182078,1,10,0:0:0:0:
264,40,182170,6,0,L|240:232,1,170,4|8,0:0|0:0,0:0:0:0:
242,208,182719,1,0,0:0:0:0:
336,340,182902,2,0,L|321:224,2,85,8|0|8,0:3|0:0|0:0,0:0:0:0:
336,340,183450,1,0,0:0:0:0:
424,216,183633,2,0,P|432:176|413:127,1,85,8|0,0:3|0:0,0:0:0:0:
204,196,183999,5,8,0:0:0:0:
352,180,184182,1,0,0:0:0:0:
248,124,184365,5,8,0:3:0:0:
99,139,184548,1,0,0:0:0:0:
292,56,184731,5,8,0:0:0:0:
268,264,184914,1,10,0:0:0:0:
268,264,185005,1,8,0:0:0:0:
268,264,185097,6,0,P|316:276|360:260,1,93.5000028533936,4|0,0:0|0:0,0:0:0:0:
424,145,185463,2,0,P|348:169|372:273,1,187.000005706787,8|8,0:0|0:3,0:0:0:0:
452,244,186011,1,0,0:0:0:0:
503,123,186194,2,0,P|477:80|435:60,1,93.5000028533936,8|0,0:0|0:0,0:0:0:0:
228,108,186560,2,0,P|284:136|360:104,1,140.25000428009,8|0,0:3|0:0,0:0:0:0:
368,36,186926,5,8,0:0:0:0:
392,184,187109,1,0,0:0:0:0:
440,61,187292,1,8,0:3:0:0:
292,136,187475,1,0,0:0:0:0:
372,264,187658,2,0,P|420:264|460:232,1,93.5000028533936,8|0,0:0|0:0,0:0:0:0:
300,216,188024,6,0,B|208:260|208:168|120:216,1,187.000005706787,8|8,0:3|0:0,0:0:0:0:
48,288,188572,1,0,0:0:0:0:
122,214,188755,2,0,B|156:184|160:124|118:86|118:86|144:84|160:112,1,187.000005706787,8|8,0:3|0:0,0:0:0:0:
216,36,189304,1,0,0:0:0:0:
300,160,189487,2,0,P|313:115|300:72,1,93.5000028533936,8|0,0:3|0:0,0:0:0:0:
228,216,189853,5,8,0:0:0:0:
380,192,190036,1,0,0:0:0:0:
268,284,190219,1,8,0:3:0:0:
362,269,190402,1,0,0:0:0:0:
328,348,190585,1,8,0:0:0:0:
328,348,190767,1,0,0:0:0:0:
380,192,190950,6,0,B|392:156|392:156|360:108|392:48|392:48|376:60|356:64,1,187.000005706787,8|8,0:3|0:0,0:0:0:0:
464,104,191499,1,0,0:0:0:0:
380,192,191682,2,0,P|336:208|284:192,1,93.5000028533936,8|0,0:3|0:0,0:0:0:0:
168,112,192048,2,0,P|212:96|264:112,1,93.5000028533936,8|0,0:0|0:0,0:0:0:0:
144,196,192414,2,0,P|100:168|112:48,1,187.000005706787,8|8,0:3|0:0,0:0:0:0:
256,106,192963,1,0,0:0:0:0:
144,196,193146,1,8,0:3:0:0:
192,60,193328,1,0,0:0:0:0:
304,172,193511,2,0,P|316:216|300:260,1,93.5000028533936,8|0,0:0|0:0,0:0:0:0:
168,336,193877,6,0,B|256:296|256:376|348:336,1,187.000005706787,8|8,0:3|0:0,0:0:0:0:
408,272,194426,1,0,0:0:0:0:
508,344,194609,2,0,P|464:360|420:348,1,93.5000028533936,8|0,0:3|0:0,0:0:0:0:
416,188,194975,2,0,P|460:172|504:184,1,93.5000028533936,8|0,0:0|0:0,0:0:0:0:
408,272,195341,1,8,0:3:0:0:
360,124,195524,1,0,0:0:0:0:
304,288,195706,5,8,0:0:0:0:
368,104,195889,1,0,0:0:0:0:
208,220,196072,1,8,0:3:0:0:
340,216,196255,1,0,0:0:0:0:
240,96,196438,1,8,0:0:0:0:
176,328,196621,1,8,0:0:0:0:
176,328,196713,1,8,0:0:0:0:
176,328,196804,6,0,P|132:344|84:332,1,93.5000028533936,4|0,0:0|0:0,0:0:0:0:
88,152,197170,2,0,P|136:204|112:280,1,140.25000428009,8|0,0:0|0:0,0:0:0:0:
87,334,197536,2,0,P|135:294|252:332,1,187.000005706787,8|8,0:3|0:0,0:0:0:0:
332,268,198085,1,0,0:0:0:0:
440,320,198267,2,0,P|457:279|445:231,1,93.5000028533936,8|0,0:3|0:0,0:0:0:0:
316,144,198633,6,0,L|408:128,1,93.5000028533936,8|0,0:0|0:0,0:0:0:0:
332,268,198999,2,0,L|240:252,1,93.5000028533936,8|0,0:3|0:0,0:0:0:0:
316,144,199365,1,8,0:0:0:0:
428,220,199548,1,0,0:0:0:0:
296,128,199731,6,0,B|228:156|228:96|161:127,1,140.25000428009,8|0,0:3|0:0,0:0:0:0:
106,179,200097,2,0,P|134:199|194:195,1,93.5000028533936,8|0,0:0|0:0,0:0:0:0:
124,61,200463,2,0,P|88:101|130:194,1,140.25000428009,8|0,0:3|0:0,0:0:0:0:
192,196,200828,2,0,P|228:160|232:112,1,93.5000028533936,8|0,0:0|0:0,0:0:0:0:
148,276,201194,2,0,B|236:320|236:236|328:276,1,187.000005706787,8|8,0:3|0:0,0:0:0:0:
408,328,201743,1,0,0:0:0:0:
408,328,201926,6,0,P|428:276|412:232,1,93.5000028533936,8|0,0:3|0:0,0:0:0:0:
332,88,202292,2,0,P|312:140|328:184,1,93.5000028533936,8|8,0:0|0:0,0:0:0:0:
328,184,202566,1,8,0:0:0:0:
336,192,202658,6,0,B|311:222|278:219|243:206|243:206|194:183|158:203|150:227|134:243,1,204,8|0,0:3|0:0,0:0:0:0:
150,223,203389,6,0,P|156:128|80:200,1,255.000009727478,4|8,0:0|0:0,0:0:0:0:
78,196,203938,1,0,0:0:0:0:
200,72,204121,6,0,B|192:64|176:56|176:56|216:52|232:100|232:100|272:80|320:104,1,187.000005706787,8|8,0:3|0:0,0:0:0:0:
309,99,204670,1,0,0:0:0:0:
460,176,204853,6,0,P|464:92|408:176,1,255.000009727478,4|8,0:0|0:0,0:0:0:0:
468,260,205402,1,0,0:0:0:0:
332,356,205585,5,4,0:0:0:0:
220,32,205950,1,8,0:0:0:0:
172,344,206316,1,8,0:3:0:0:
312,16,206682,1,8,0:0:0:0:
332,356,207048,5,4,0:0:0:0:
224,112,207231,1,0,0:0:0:0:
188,256,207414,1,8,0:0:0:0:
340,100,207597,5,0,0:0:0:0:
340,100,207963,1,0,0:0:0:0:
188,256,208146,1,8,0:0:0:0:
138,252,208237,1,0,0:0:0:0:
103,217,208328,1,8,0:3:0:0:
100,167,208420,1,8,0:3:0:0:
130,127,208511,5,4,0:0:0:0:
128,172,220219,6,0,P|184:196|244:160,1,127.500004863739,8|8,0:3|0:0,0:0:0:0:
239,167,220767,1,2,0:0:0:0:
276,100,220950,2,0,L|284:228,1,127.500004863739,8|8,0:3|0:0,0:0:0:0:
283,227,221499,1,2,0:0:0:0:
240,296,221682,2,0,P|308:308|356:268,1,127.500004863739,8|8,0:3|0:0,0:0:0:0:
351,275,222231,1,2,0:0:0:0:
240,296,222414,2,0,B|176:328|176:272|117:299,1,127.500004863739,8|8,0:3|0:0,0:0:0:0:
117,299,222963,1,10,0:0:0:0:
52,236,223146,6,0,B|36:204|36:204|16:152|64:116,1,127.500004863739,8|8,0:3|0:0,0:0:0:0:
57,121,223694,1,2,0:0:0:0:
128,84,223877,2,0,L|260:96,1,127.500004863739,8|8,0:3|0:0,0:0:0:0:
254,95,224426,1,2,0:0:0:0:
312,152,224609,2,0,P|337:103|308:36,1,127.500004863739,8|8,0:3|0:0,0:0:0:0:
312,39,225158,1,2,0:0:0:0:
312,152,225341,2,0,P|368:176|432:144,1,127.500004863739,8|8,0:3|0:0,0:0:0:0:
426,151,225889,1,10,0:0:0:0:
368,224,226072,6,0,B|352:288|404:288|384:348,1,127.500004863739,8|8,0:3|0:0,0:0:0:0:
384,346,226621,1,2,0:0:0:0:
308,324,226804,2,0,B|248:344|248:344|184:324,1,127.500004863739,8|8,0:3|0:0,0:0:0:0:
186,324,227353,1,2,0:0:0:0:
72,344,227536,6,0,P|96:308|68:232,1,127.500004863739,8|8,0:3|0:0,0:0:0:0:
70,233,228085,1,2,0:0:0:0:
128,180,228267,2,0,L|260:192,1,127.500004863739,8|8,0:3|0:0,0:0:0:0:
254,191,228816,1,10,0:0:0:0:
356,132,228999,6,0,P|384:80|320:16,1,152.999995330811,12|8,0:3|0:0,0:0:0:0:
329,16,229548,1,2,0:0:0:0:
356,132,229731,2,0,P|396:140|432:128,1,76.4999976654053,8|0,0:3|0:0,0:0:0:0:
275,95,230097,2,0,P|235:87|199:99,1,76.4999976654053,8|2,0:0|0:0,0:0:0:0:
288,184,230463,5,8,0:3:0:0:
202,98,230646,2,0,B|122:138|122:58|38:98,1,170,8|8,0:3|0:3,0:0:0:0:
152,220,231194,1,8,0:0:0:0:
276,60,231377,1,2,0:0:0:0:
288,96,231468,1,2,0:0:0:0:
276,132,231560,1,4,0:0:0:0:
351,335,232292,6,0,L|355:291,1,42.5,0|2,0:0|0:0,0:0:0:0:
262,334,232658,2,0,L|258:290,1,42.5,0|2,0:0|0:0,0:0:0:0:
257,158,233024,5,8,0:0:0:0:
289,184,233115,1,0,0:0:0:0:
301,224,233206,1,2,0:0:0:0:
290,265,233298,1,2,0:0:0:0:
259,292,233389,6,0,P|192:296|148:228,1,152.999995330811,4|0,0:0|0:0,0:0:0:0:
191,167,233755,2,0,P|207:119|191:71,1,101.999996887207,8|0,0:0|0:0,0:0:0:0:
37,72,234121,2,0,P|89:124|193:68,1,203.999993774414,8|8,0:3|0:0,0:0:0:0:
280,136,234670,1,0,0:0:0:0:
400,60,234853,2,0,L|504:72,1,101.999996887207,8|0,0:3|0:0,0:0:0:0:
364,256,235219,6,0,P|348:204|368:156,1,101.999996887207,8|0,0:0|0:0,0:0:0:0:
460,280,235585,2,0,P|434:328|386:347,1,101.999996887207,8|0,0:3|0:0,0:0:0:0:
363,161,235950,1,8,0:0:0:0:
472,196,236133,1,8,0:0:0:0:
340,272,236316,6,0,B|240:316|240:224|144:272,1,203.999993774414,4|8,0:3|0:0,0:0:0:0:
56,320,236865,1,0,0:0:0:0:
104,208,237048,2,0,B|152:136|104:72|104:72|112:108|92:132,2,203.999993774414,8|8|8,0:3|0:0|0:3,0:0:0:0:
196,264,237963,1,0,0:0:0:0:
292,224,238146,2,0,P|308:176|292:128,1,101.999996887207,8|0,0:0|0:0,0:0:0:0:
368,316,238511,6,0,L|476:304,1,101.999996887207,8|0,0:3|0:0,0:0:0:0:
496,168,238877,1,8,0:0:0:0:
392,155,239059,1,8,0:0:0:0:
267,239,239243,2,0,P|182:242|139:141,1,203.999993774414,4|8,0:3|0:0,0:0:0:0:
138,144,239792,1,0,0:0:0:0:
289,147,239975,2,0,P|294:197|261:243,1,101.999996887207,8|0,0:3|0:0,0:0:0:0:
244,76,240341,2,0,P|291:60|343:83,1,101.999996887207,8|0,0:0|0:0,0:0:0:0:
138,144,240706,2,0,P|76:88|138:8,1,203.999993774414,8|8,0:3|0:0,0:0:0:0:
244,76,241255,1,0,0:0:0:0:
138,144,241438,6,0,P|122:191|145:243,1,101.999996887207,8|0,0:3|0:0,0:0:0:0:
228,343,241804,2,0,P|243:295|225:249,1,101.999996887207,8|8,0:0|0:0,0:0:0:0:
72,288,242170,2,0,P|120:321|226:236,1,203.999993774414,4|8,0:3|0:0,0:0:0:0:
320,308,242719,1,0,0:0:0:0:
424,244,242902,2,0,L|440:352,2,101.999996887207,8|0|8,0:3|0:0|0:0,0:0:0:0:
488,52,243450,5,4,0:0:0:0:
264,184,243816,5,2,0:0:0:0:
328,48,243999,1,8,0:3:0:0:
472,208,244182,1,2,0:0:0:0:
408,72,244365,1,8,0:3:0:0:
328,264,244548,5,10,0:3:0:0:
328,264,244731,1,10,0:3:0:0:
476,124,244914,5,10,0:0:0:0:
256,100,245097,6,0,B|182:75|182:146|105:109,1,152.999995330811,4|0,0:0|0:0,0:0:0:0:
52,64,245463,2,0,P|36:120|56:164,1,101.999996887207,8|0,0:0|0:0,0:0:0:0:
104,336,245828,2,0,B|152:328|173:288|174:247|152:212|128:200|128:200|120:216|128:236,1,203.999993774414,8|8,0:3|0:0,0:0:0:0:
232,308,246377,1,0,0:0:0:0:
340,228,246560,2,0,L|448:236,1,101.999996887207,8|0,0:3|0:0,0:0:0:0:
324,60,246926,6,0,P|300:104|308:154,1,101.999996887207,8|0,0:0|0:0,0:0:0:0:
484,168,247292,2,0,P|496:119|478:72,1,101.999996887207,8|0,0:3|0:0,0:0:0:0:
307,153,247658,1,8,0:0:0:0:
484,168,247841,1,8,0:0:0:0:
307,153,248024,2,0,B|207:129|220:240|107:189,1,203.999993774414,4|8,0:3|0:0,0:0:0:0:
116,96,248572,1,0,0:0:0:0:
280,232,248755,2,0,P|304:288|212:256,2,203.999993774414,8|8|8,0:3|0:0|0:3,0:0:0:0:
392,300,249670,1,0,0:0:0:0:
464,232,249853,2,0,P|481:184|464:136,1,101.999996887207,8|0,0:0|0:0,0:0:0:0:
272,84,250219,6,0,L|380:64,1,101.999996887207,8|0,0:3|0:0,0:0:0:0:
465,137,250585,1,8,0:0:0:0:
364,155,250767,1,8,0:0:0:0:
243,71,250950,2,0,B|143:31|143:127|47:71,1,203.999993774414,4|8,0:3|0:0,0:0:0:0:
49,72,251499,1,0,0:0:0:0:
200,144,251682,6,0,B|168:184|176:224|176:224|212:288|160:336,1,203.999993774414,8|8,0:3|0:0,0:0:0:0:
164,331,252231,1,0,0:0:0:0:
292,216,252414,2,0,P|352:228|284:304,2,203.999993774414,8|8|8,0:3|0:0|0:3,0:0:0:0:
432,336,253328,1,0,0:0:0:0:
294,309,253511,1,8,0:0:0:0:
436,156,253694,1,8,0:0:0:0:
436,156,253786,1,8,0:0:0:0:
436,156,253877,6,0,B|336:204|336:104|240:156,1,203.999993774414,8|8,0:3|0:0,0:0:0:0:
180,212,254426,1,0,0:0:0:0:
312,144,254609,6,0,P|332:100|220:88,1,203.999993774414,8|8,0:3|0:0,0:0:0:0:
288,216,255158,1,0,0:0:0:0:
436,156,255341,6,0,L|452:52,1,85,8|0,0:3|0:0,0:0:0:0:
384,260,255706,2,0,L|400:364,1,85,8|0,0:0|0:0,0:0:0:0:
332,140,256072,5,8,0:3:0:0:
252,284,256255,1,0,0:0:0:0:
152,104,256438,1,8,0:0:0:0:
152,104,256530,1,0,0:0:0:0:
152,104,256621,2,0,L|124:148,1,42.5,8|10,0:0|0:0,0:0:0:0:
64,248,256804,6,0,B|136:272|136:200|208:224,1,152.999995330811,4|0,0:0|0:0,0:0:0:0:
252,284,257170,2,0,P|300:300|348:280,1,101.999996887207,8|0,0:0|0:0,0:0:0:0:
347,138,257536,2,0,P|295:174|347:282,1,203.999993774414,8|8,0:3|0:0,0:0:0:0:
396,210,258085,1,0,0:0:0:0:
248,100,258267,2,0,L|144:112,1,101.999996887207,8|0,0:3|0:0,0:0:0:0:
148,288,258633,6,0,P|176:240|164:188,1,101.999996887207,8|0,0:0|0:0,0:0:0:0:
72,76,258999,2,0,P|64:131|96:174,1,101.999996887207,8|0,0:3|0:0,0:0:0:0:
248,100,259365,1,8,0:0:0:0:
146,112,259548,1,8,0:0:0:0:
304,164,259731,6,0,B|430:149|430:149|458:185|440:224,1,203.999993774414,4|8,0:3|0:0,0:0:0:0:
392,292,260280,1,0,0:0:0:0:
284,240,260463,2,0,B|208:216|208:272|140:240|140:240|172:240|191:223,2,203.999993774414,8|8|8,0:3|0:0|0:3,0:0:0:0:
392,292,261377,1,0,0:0:0:0:
284,352,261560,2,0,P|236:368|188:352,1,101.999996887207,8|0,0:0|0:0,0:0:0:0:
40,252,261926,6,0,L|148:240,1,101.999996887207,8|0,0:3|0:0,0:0:0:0:
284,352,262292,1,8,0:0:0:0:
128,316,262475,1,8,0:0:0:0:
272,268,262658,2,0,P|332:192|272:120,1,203.999993774414,4|8,0:3|0:0,0:0:0:0:
192,167,263206,1,0,0:0:0:0:
104,120,263389,2,0,P|88:72|104:24,1,101.999996887207,8|0,0:3|0:0,0:0:0:0:
192,167,263755,2,0,P|208:215|192:263,1,101.999996887207,8|0,0:0|0:0,0:0:0:0:
40,216,264121,2,0,P|84:148|204:184,1,203.999993774414,8|8,0:3|0:0,0:0:0:0:
192,262,264670,1,0,0:0:0:0:
308,208,264853,6,0,P|323:161|307:113,1,101.999996887207,8|0,0:3|0:0,0:0:0:0:
192,262,265219,2,0,P|176:310|192:358,1,101.999996887207,8|8,0:0|0:0,0:0:0:0:
344,310,265585,2,0,P|300:242|180:278,1,203.999993774414,4|8,0:3|0:0,0:0:0:0:
272,360,266133,1,0,0:0:0:0:
412,268,266316,2,0,P|460:252|508:268,2,101.999996887207,8|0|8,0:3|0:0|0:0,0:0:0:0:
224,168,266865,5,4,0:0:0:0:
224,168,267048,1,0,0:0:0:0:
384,100,267231,5,2,0:0:0:0:
412,268,267414,1,8,0:3:0:0:
272,88,267597,1,2,0:0:0:0:
244,256,267780,1,8,0:3:0:0:
448,176,267963,5,10,0:3:0:0:
448,176,268146,1,10,0:3:0:0:
272,88,268328,5,10,0:0:0:0:
244,256,268511,6,0,P|184:272|132:244,1,114.749996498108,4|0,0:0|0:0,0:0:0:0:
92,192,268877,2,0,P|104:252|76:292,1,110.499994941712,8|0,0:0|0:0,0:0:0:0:
12,164,269243,2,0,P|44:124|176:164,1,203.999993774414,8|8,0:3|0:0,0:0:0:0:
248,104,269792,1,0,0:0:0:0:
332,160,269975,2,0,P|388:160|424:128,1,101.999996887207,8|0,0:3|0:0,0:0:0:0:
248,104,270341,6,0,L|260:216,1,101.999996887207,8|0,0:0|0:0,0:0:0:0:
168,344,270706,2,0,L|180:232,1,101.999996887207,8|0,0:3|0:0,0:0:0:0:
300,320,271072,1,8,0:0:0:0:
347,336,271163,1,0,0:0:0:0:
396,325,271254,1,8,0:0:0:0:
433,291,271346,1,10,0:0:0:0:
448,243,271438,6,0,B|496:152|404:152|444:64,1,187.000005706787,4|8,0:3|0:0,0:0:0:0:
310,169,271987,2,0,P|358:205|438:121,1,187.000005706787,8|0,0:3|0:0,0:0:0:0:
276,88,272536,2,0,P|228:132|264:244,1,187.000005706787,8|8,0:0|0:3,0:0:0:0:
364,104,273085,1,0,0:0:0:0:
212,32,273267,1,8,0:0:0:0:
310,169,273450,1,0,0:0:0:0:
424,40,273633,5,8,0:3:0:0:
276,88,273816,1,0,0:0:0:0:
392,184,273999,1,8,0:0:0:0:
340,24,274182,1,0,0:0:0:0:
224,160,274365,2,0,P|138:178|80:121,1,170,4|8,0:3|0:0,0:0:0:0:
82,126,274914,1,0,0:0:0:0:
224,160,275097,6,0,L|208:336,1,170,8|8,0:3|0:0,0:0:0:0:
208,329,275646,1,8,0:0:0:0:
312,228,275828,2,0,P|364:244|296:284,1,170,8|8,0:3|0:0,0:0:0:0:
392,72,276560,5,8,0:3:0:0:
392,72,276743,1,0,0:0:0:0:
180,100,276926,1,8,0:0:0:0:
392,72,277292,5,4,0:3:0:0:
292,140,277475,1,0,0:0:0:0:
180,100,277658,1,8,0:0:0:0:
180,100,277841,1,0,0:0:0:0:
172,236,278024,5,8,0:3:0:0:
104,136,278207,1,0,0:0:0:0:
144,24,278390,1,8,0:0:0:0:
144,24,278572,1,0,0:0:0:0:
220,172,278755,5,8,0:3:0:0:
92,224,278938,1,0,0:0:0:0:
240,180,279121,5,8,0:0:0:0:
68,124,279304,1,0,0:0:0:0:
260,188,279487,5,8,0:3:0:0:
64,228,279670,1,0,0:0:0:0:
280,196,279853,6,0,L|225:174,1,42.5,8|0,0:0|0:0,0:0:0:0:
48,116,280036,1,8,0:0:0:0:
40,112,280127,1,10,0:0:0:0:
32,108,280219,6,0,B|68:108|88:80|88:80|132:80|152:112|152:112|168:64|228:44|284:56|312:112|312:112|352:128|392:96,1,414.374981031419,4|0,0:0|0:0,0:0:0:0:
436,40,281682,6,0,B|436:48|436:48|468:80|476:136|428:172|428:172|480:232|434:282|434:282|376:288|356:242|356:242|384:236|408:264,1,414.374981031419,4|0,0:0|0:0,0:0:0:0:
280,316,283146,6,0,B|318:273|276:222|225:210|155:253|143:319|65:304|65:304|34:269|42:210|97:195,1,414.374981031419,4|0,0:0|0:0,0:0:0:0:
160,172,284609,6,0,B|216:116|180:-8|72:68|104:140|168:120|168:120|212:104|232:80|232:80|272:132|336:104,1,414.374981031419,4|0,0:0|0:0,0:0:0:0:
388,164,286072,6,0,B|418:125|403:79|403:79|457:125|453:187|322:237|368:310|438:314|480:264|430:218,1,386.749982295991,4|0,0:0|0:0,0:0:0:0:
160,188,287536,6,0,B|104:164|72:124|72:56|100:24|140:12|180:20|208:72|208:72|236:20|276:12|316:24|344:56|344:124|312:164|258:193|258:193|220:212|212:244|212:244|200:312|292:308|288:228|212:244|212:244,1,782.000014915467,4|0,0:0|0:0,0:0:0:0:
40,340,289365,5,2,0:0:0:0:
108,304,289731,1,0,0:0:0:0:
196,308,290097,1,2,0:0:0:0:
312,344,290463,2,0,P|400:360|448:304,1,165.749992412568,4|0,0:0|0:0,0:0:0:0:
446,309,291194,2,0,L|416:144,1,165.749992412568,2|0,0:0|0:0,0:0:0:0:
279,95,291926,6,0,P|313:104|348:96,1,70.5500010226822,8|0,0:3|0:0,0:0:0:0:
216,156,292292,1,8,0:0:0:0:
216,156,292475,1,0,0:0:0:0:
148,104,292658,2,0,L|140:32,2,70.5500010226822,8|0|8,0:3|0:0|0:0,0:0:0:0:
216,156,293206,1,2,0:0:0:0:
128,212,293389,6,0,L|120:284,1,70.5500010226822,8|0,0:3|0:0,0:0:0:0:
216,156,293755,1,8,0:0:0:0:
216,156,293938,1,0,0:0:0:0:
296,208,294121,2,0,P|330:217|365:209,2,70.5500010226822,8|0|8,0:3|0:0|0:0,0:0:0:0:
216,156,294670,1,2,0:0:0:0:
296,208,294853,6,0,L|288:284,1,70.5500010226822,8|0,0:3|0:0,0:0:0:0:
364,344,295219,1,8,0:0:0:0:
364,344,295402,1,0,0:0:0:0:
444,280,295585,2,0,L|436:209,2,70.5500010226822,8|0|8,0:3|0:0|0:0,0:0:0:0:
364,344,296133,1,2,0:0:0:0:
288,278,296316,6,0,B|252:286|252:270|216:278,1,70.5500010226822,8|0,0:3|0:0,0:0:0:0:
128,328,296682,1,8,0:0:0:0:
128,328,296865,1,0,0:0:0:0:
218,277,297048,2,0,P|227:243|219:208,2,70.5500010226822,8|0|8,0:3|0:0|0:0,0:0:0:0:
128,328,297597,1,2,0:0:0:0:
64,232,297780,6,0,B|56:176|56:176|64:152,1,70.5500010226822,8|0,0:3|0:0,0:0:0:0:
128,96,298146,1,8,0:0:0:0:
128,96,298328,1,0,0:0:0:0:
196,160,298511,2,0,B|200:173|200:173|192:229,2,70.5500010226822,8|0|8,0:3|0:0|0:0,0:0:0:0:
128,96,299060,1,2,0:0:0:0:
196,160,299243,6,0,P|230:169|265:161,1,70.5500010226822,8|0,0:3|0:0,0:0:0:0:
128,96,299609,1,8,0:0:0:0:
128,96,299792,1,0,0:0:0:0:
64,164,299975,2,0,L|72:244,2,70.5500010226822,8|0|8,0:3|0:0|0:0,0:0:0:0:
128,96,300524,1,2,0:0:0:0:
196,160,300706,6,0,P|230:169|265:161,1,70.5500010226822,8|0,0:3|0:0,0:0:0:0:
340,96,301072,1,8,0:0:0:0:
340,96,301255,1,0,0:0:0:0:
264,161,301438,2,0,L|272:245,2,70.5500010226822,8|0|8,0:3|0:0|0:0,0:0:0:0:
340,96,301987,1,2,0:0:0:0:
424,164,302170,6,0,L|416:248,1,70.5500010226822,8|0,0:3|0:0,0:0:0:0:
340,96,302536,1,8,0:0:0:0:
340,96,302719,1,0,0:0:0:0:
263,161,302902,2,0,P|229:168|196:160,1,70.5500010226822,8|0,0:3|0:0,0:0:0:0:
188,156,303176,1,0,0:0:0:0:
182,153,303267,2,0,L|106:165,1,70.5500010226822,8|2,0:0|0:0,0:0:0:0:
28,68,303633,6,0,L|104:80,1,70.5500010226822,8|0,0:3|0:0,0:0:0:0:
182,153,303999,1,8,0:0:0:0:
182,153,304182,1,0,0:0:0:0:
256,84,304365,2,0,B|264:48|264:48|256:16,2,70.5500010226822,8|0|8,0:3|0:0|0:0,0:0:0:0:
182,153,304914,1,2,0:0:0:0:
268,216,305097,6,0,P|301:224|336:217,1,70.5500010226822,8|0,0:3|0:0,0:0:0:0:
182,153,305463,1,8,0:0:0:0:
182,153,305646,1,0,0:0:0:0:
268,216,305828,2,0,L|260:288,2,70.5500010226822,8|0|8,0:3|0:0|0:0,0:0:0:0:
182,153,306377,1,2,0:0:0:0:
96,216,306560,6,0,L|104:288,1,70.5500010226822,8|0,0:3|0:0,0:0:0:0:
182,153,306926,1,8,0:0:0:0:
182,153,307109,1,0,0:0:0:0:
96,84,307292,2,0,P|63:76|28:83,2,70.5500010226822,8|0|8,0:3|0:0|0:0,0:0:0:0:
182,153,307841,1,2,0:0:0:0:
256,84,308024,6,0,B|264:48|264:48|256:16,1,70.5500010226822,8|0,0:3|0:0,0:0:0:0:
182,153,308389,1,8,0:0:0:0:
182,153,308572,1,0,0:0:0:0:
260,232,308755,2,0,B|268:264|268:264|260:300,2,70.5500010226822,8|0|8,0:3|0:0|0:0,0:0:0:0:
328,156,309304,1,2,0:0:0:0:
328,156,309396,1,0,0:0:0:0:
328,156,309487,6,0,L|408:160,1,70.5500010226822,8|0,0:3|0:0,0:0:0:0:
488,112,309853,1,8,0:0:0:0:
488,112,310036,1,0,0:0:0:0:
398,159,310219,2,0,P|390:192|397:227,2,70.5500010226822,8|0|8,0:3|0:0|0:0,0:0:0:0:
488,112,310767,1,2,0:0:0:0:
400,44,310950,6,0,L|329:47,1,70.5500010226822,8|0,0:3|0:0,0:0:0:0:
488,112,311316,1,8,0:0:0:0:
488,112,311499,1,0,0:0:0:0:
398,159,311682,2,0,P|390:192|397:227,2,70.5500010226822,8|0|8,0:3|0:0|0:0,0:0:0:0:
480,272,312231,1,2,0:0:0:0:
375,327,312414,6,0,L|287:319,1,70.5500010226822,8|0,0:3|0:0,0:0:0:0:
397,227,312780,1,8,0:0:0:0:
397,227,312963,1,0,0:0:0:0:
305,321,313146,2,0,B|269:327|269:327|237:319|237:319|160:332,1,141.100002045364,8|8,0:3|0:0,0:0:0:0:
92,292,313694,1,2,0:0:0:0:
172,224,313877,6,0,B|204:156|148:156|172:88,1,141.100002045364,8|8,0:3|0:0,0:0:0:0:
236,28,314426,1,0,0:0:0:0:
172,87,314609,2,0,L|88:92,1,70.5500010226822,8|0,0:3|0:0,0:0:0:0:
216,156,314929,2,0,P|267:169|316:148,1,106.249997466802,8|10,0:0|0:0,0:0:0:0:
319,47,315340,6,0,L|403:55,1,70.5500010226822,8|0,0:3|0:0,0:0:0:0:
488,20,315705,1,8,0:0:0:0:
488,20,315888,1,0,0:0:0:0:
390,54,316071,2,0,P|382:87|389:122,2,70.5500010226822,8|0|8,0:3|0:0|0:0,0:0:0:0:
472,148,316620,1,2,0:0:0:0:
352,200,316803,6,8,L|272:192,1,70.5500010226822,8|0,0:3|0:0,0:0:0:0:
424,260,317169,1,8,0:0:0:0:
424,260,317352,1,0,0:0:0:0:
352,200,317535,2,0,P|334:230|331:265,2,70.5500010226822,8|0|8,0:3|0:0|0:0,0:0:0:0:
424,260,318083,1,2,0:0:0:0:
372,344,318266,6,0,L|288:348,1,70.5500010226822,8|0,0:3|0:0,0:0:0:0:
228,292,318632,1,8,0:0:0:0:
228,292,318815,1,0,0:0:0:0:
152,348,318998,2,0,L|81:344,2,70.5500010226822,8|0|8,0:3|0:0|0:0,0:0:0:0:
228,292,319547,1,2,0:0:0:0:
144,224,319730,6,0,P|136:189|144:155,1,70.5500010226822,8|0,0:3|0:0,0:0:0:0:
208,92,320096,1,8,0:0:0:0:
208,92,320279,1,0,0:0:0:0:
128,44,320461,2,0,L|52:52,2,70.5500010226822,8|0|8,0:3|0:0|0:0,0:0:0:0:
208,92,321010,1,2,0:0:0:0:
288,44,321193,6,0,L|364:52,1,70.5500010226822,8|0,0:3|0:0,0:0:0:0:
208,92,321559,1,8,0:0:0:0:
208,92,321742,1,0,0:0:0:0:
292,152,321925,2,0,P|300:186|292:220,2,70.5500010226822,8|0|8,0:3|0:0|0:0,0:0:0:0:
208,92,322474,1,2,0:0:0:0:
292,152,322657,6,0,L|368:160,1,70.5500010226822,8|0,0:3|0:0,0:0:0:0:
448,112,323022,1,8,0:0:0:0:
448,112,323205,1,0,0:0:0:0:
362,159,323388,2,0,P|353:193|361:227,2,70.5500010226822,8|0|8,0:3|0:0|0:0,0:0:0:0:
448,112,323937,1,2,0:0:0:0:
380,48,324120,6,0,B|328:40|328:40|296:48,1,70.5500010226822,8|0,0:3|0:0,0:0:0:0:
236,104,324486,1,8,0:0:0:0:
236,104,324669,1,0,0:0:0:0:
160,44,324852,2,0,B|142:39|142:39|90:47,2,70.5500010226822,8|0|8,0:3|0:0|0:0,0:0:0:0:
236,104,325400,1,2,0:0:0:0:
156,176,325583,6,0,P|148:208|156:244,1,70.5500010226822,8|0,0:3|0:0,0:0:0:0:
232,304,325949,1,8,0:0:0:0:
232,304,326132,1,0,0:0:0:0:
156,244,326315,2,0,L|80:256,2,70.5500010226822,8|0|8,0:3|0:0|0:0,0:0:0:0:
232,304,326864,1,2,0:0:0:0:
312,244,327047,6,0,L|388:256,1,70.5500010226822,8|0,0:3|0:0,0:0:0:0:
464,216,327413,1,8,0:0:0:0:
464,216,327596,1,0,0:0:0:0:
368,132,327779,1,8,0:3:0:0:
368,132,327961,1,0,0:0:0:0:
488,24,328144,1,8,0:0:0:0:
488,24,328326,1,2,0:0:0:0:
280,44,328510,6,0,L|252:48,1,25.4999993920326,8|0,0:3|0:0,0:0:0:0:
