osu file format v14

[General]
AudioFilename: audio.mp3
AudioLeadIn: 0
PreviewTime: 37732
Countdown: 0
SampleSet: Soft
StackLeniency: 0.2
Mode: 0
LetterboxInBreaks: 0
WidescreenStoryboard: 0

[Editor]
DistanceSpacing: 1
BeatDivisor: 4
GridSize: 4
TimelineZoom: 1.8

[Metadata]
Title:Tomare! (TV Size)
TitleUnicode:Tomare! (TV Size)
Artist:Aya Hirano
ArtistUnicode:平野綾
Creator:Rin Desu
Version:Normal
Source:涼宮ハルヒの憂鬱
Tags:Haruhi no Yuuutsu Nao Tomori Naotoshi Cris- Minorsonek Parachute Suzumiya The Melancholy of Yuuko Gotou ending minori chihara tv size Squaretude M2Usonek Japanese Rock
BeatmapID:1663086
BeatmapSetID:792689

[Difficulty]
HPDrainRate:3
CircleSize:3.5
OverallDifficulty:4
ApproachRate:5
SliderMultiplier:0.999999999999999
SliderTickRate:1

[Events]
//Background and Video events
0,0,"bg.jpg",0,0
Video,0,"Suzumiya Haruhi no sound.mp4.mp4.m4v"
//Break Periods
//Storyboard Layer 0 (Background)
//Storyboard Layer 1 (Fail)
//Storyboard Layer 2 (Pass)
//Storyboard Layer 3 (Foreground)
//Storyboard Layer 4 (Overlay)
//Storyboard Sound Samples

[TimingPoints]
684,327.868852459016,4,2,3,65,1,0
2651,327.868852459016,4,2,3,65,1,0
39372,-100,4,2,3,75,0,1
62978,-100,4,2,3,75,0,0

[Colours]
Combo1 : 255,64,69
Combo2 : 51,235,255
Combo3 : 251,255,100
Combo4 : 255,170,11
Combo5 : 255,0,134
Combo6 : 79,167,255
Combo7 : 255,192,130

[HitObjects]
256,192,684,12,8,1995,0:0:0:0:
69,313,2651,6,0,P|69:262|44:197,1,99.9999999999999,6|8,0:0|0:3,0:0:0:0:
1,130,3306,2,0,P|49:117|100:127,1,99.9999999999999,2|8,0:0|0:3,0:0:0:0:
197,138,3962,2,0,P|189:87|204:35,1,99.9999999999999,4|8,0:0|0:3,0:0:0:0:
247,22,4454,2,0,P|293:35|331:68,1,99.9999999999999,6|2,0:0|0:0,0:0:0:0:
381,75,4946,1,8,0:3:0:0:
411,169,5273,5,12,0:0:0:0:
379,263,5601,1,8,0:0:0:0:
302,327,5929,2,0,P|291:357|291:395,2,50,8|2|8,0:0|0:0|0:0,0:0:0:0:
262,296,6421,1,4,3:2:0:0:
177,342,7896,5,6,0:0:0:0:
77,332,8224,2,0,L|70:269,1,50,8|2,3:2|3:2,0:0:0:0:
36,245,8552,2,0,P|23:201|43:135,1,99.9999999999999,2|8,0:0|0:0,0:0:0:0:
69,112,9044,1,2,0:0:0:0:
134,198,9372,1,2,0:0:0:0:
134,198,9536,1,8,0:0:0:0:
230,169,9864,1,0,0:0:0:0:
295,245,10191,2,0,L|405:230,1,99.9999999999999,8|2,0:0|0:0,0:0:0:0:
437,141,10847,6,0,L|387:136,1,50,8|2,3:2|3:2,0:0:0:0:
337,127,11175,2,0,P|342:78|306:25,1,99.9999999999999,2|8,0:0|0:0,0:0:0:0:
268,40,11667,2,0,L|218:44,1,50,2|0,0:0|0:0,0:0:0:0:
180,77,11995,2,0,L|130:73,1,50,2|8,0:0|0:0,0:0:0:0:
30,64,12487,2,0,L|22:8,2,50,0|2|8,0:0|0:0|0:0,0:0:0:0:
79,150,13142,1,2,0:0:0:0:
44,240,13470,6,0,L|58:303,1,50,8|2,3:2|3:2,0:0:0:0:
83,329,13798,2,0,P|127:350|198:346,1,99.9999999999999,2|8,0:0|0:0,0:0:0:0:
223,332,14290,2,0,P|246:287|236:227,1,99.9999999999999,2|2,0:0|0:0,0:0:0:0:
225,191,14782,1,8,0:0:0:0:
324,174,15110,1,2,0:0:0:0:
392,97,15437,1,8,0:0:0:0:
383,4,15765,5,6,0:0:0:0:
301,59,16093,1,8,0:0:0:0:
301,59,16257,1,2,0:0:0:0:
201,54,16585,2,0,P|176:50|151:48,2,50,2|8|2,0:0|0:0|0:0,0:0:0:0:
204,107,17077,5,12,0:0:0:0:
133,177,17405,1,8,0:0:0:0:
202,248,17732,2,0,L|273:240,2,50,8|12|12,0:0|0:3|0:3,0:0:0:0:
184,346,18388,5,4,0:0:0:0:
90,370,18716,1,8,3:2:0:0:
11,307,19044,2,0,P|12:256|2:186,1,99.9999999999999,2|8,0:0|3:2,0:0:0:0:
2,156,19536,2,0,P|47:167|103:138,1,99.9999999999999,2|2,0:0|0:0,0:0:0:0:
123,104,20028,2,0,P|117:76|101:49,1,50,8|2,3:2|0:0,0:0:0:0:
209,45,20519,1,0,0:0:0:0:
209,45,20683,1,8,3:2:0:0:
218,144,21011,1,2,0:0:0:0:
297,90,21339,6,0,P|323:100|359:89,1,50,8|2,3:2|0:0,0:0:0:0:
369,70,21667,2,0,P|405:49|479:59,1,99.9999999999999,2|8,0:0|3:2,0:0:0:0:
488,93,22159,2,0,P|501:143|487:204,1,99.9999999999999,2|2,0:0|0:0,0:0:0:0:
472,235,22650,1,8,3:2:0:0:
383,282,22978,2,0,B|371:248|371:248|377:190,2,74.9999999999999,8|8|8,3:3|3:3|3:3,0:0:0:0:
267,186,23962,6,0,L|197:193,1,50,8|2,3:2|0:0,0:0:0:0:
187,150,24290,2,0,L|78:138,1,99.9999999999999,2|8,0:2|3:2,0:0:0:0:
53,176,24782,2,0,P|37:222|54:283,2,99.9999999999999,2|2|2,0:2|0:0|0:0,0:0:0:0:
38,128,25601,1,2,0:2:0:0:
79,36,25929,1,8,3:2:0:0:
175,63,26257,6,0,P|228:57|295:68,1,99.9999999999999,6|8,0:0|3:2,0:0:0:0:
319,85,26749,2,0,P|368:91|418:85,1,99.9999999999999,2|2,0:0|0:0,0:0:0:0:
460,58,27241,1,8,3:2:0:0:
501,86,27405,2,0,L|498:204,1,99.9999999999999,2|2,0:0|0:0,0:0:0:0:
497,235,27896,1,8,3:2:0:0:
484,336,28224,1,8,0:0:0:0:
384,356,28552,1,8,0:0:0:0:
327,271,28880,6,0,P|306:233|310:162,1,99.9999999999999,12|8,0:0|0:3,0:0:0:0:
373,104,29536,1,2,0:0:0:0:
315,22,29864,1,8,0:3:0:0:
221,57,30191,2,0,P|176:64|109:57,1,99.9999999999999,0|8,0:0|0:3,0:0:0:0:
71,59,30683,2,0,P|56:115|76:175,1,99.9999999999999,2|2,0:0|0:0,0:0:0:0:
96,194,31175,1,8,0:3:0:0:
63,288,31503,6,0,P|111:293|165:263,1,99.9999999999999,2|8,0:0|0:3,0:0:0:0:
223,196,32159,2,0,P|251:236|258:286,1,99.9999999999999,2|8,0:0|0:3,0:0:0:0:
194,362,32814,2,0,P|233:383|307:370,1,99.9999999999999,0|8,0:0|0:3,0:0:0:0:
354,305,33470,5,2,0:0:0:0:
448,337,33798,1,8,0:3:0:0:
473,240,34126,2,0,P|482:184|465:128,1,99.9999999999999,4|8,0:0|0:0,0:0:0:0:
445,99,34618,2,0,P|417:57|375:30,1,99.9999999999999,4|8,0:0|0:0,0:0:0:0:
325,36,35110,2,0,P|285:52|207:55,1,99.9999999999999,4|8,0:0|0:0,0:0:0:0:
181,41,35601,2,0,P|134:23|84:19,1,99.9999999999999,4|8,0:0|0:0,0:0:0:0:
36,35,36093,5,4,0:0:0:0:
63,131,36421,1,8,0:0:0:0:
41,176,36585,2,0,P|42:221|77:262,1,99.9999999999999,6|8,0:0|0:0,0:0:0:0:
124,276,37077,1,8,0:0:0:0:
151,372,37405,1,8,0:3:0:0:
244,336,37732,1,8,0:0:0:0:
340,362,38060,6,0,L|423:367,2,74.9999999999999,12|8|8,0:3|0:0|0:0,0:0:0:0:
336,311,38716,1,8,0:0:0:0:
302,213,39044,1,8,0:0:0:0:
394,251,39372,6,0,P|400:194|382:153,1,99.9999999999999,6|8,0:0|0:3,0:0:0:0:
361,110,39864,1,2,0:0:0:0:
313,22,40191,1,2,0:0:0:0:
217,60,40519,6,0,P|39:53|13:162,1,300,4|0,0:0|0:0,0:0:0:0:
23,190,41667,1,0,0:0:0:0:
62,281,41995,1,6,0:0:0:0:
11,368,42323,1,8,0:3:0:0:
59,380,42487,2,0,P|111:366|149:320,1,99.9999999999999,2|2,0:0|0:0,0:0:0:0:
157,286,42978,1,8,3:3:0:0:
161,236,43142,6,0,P|252:250|270:348,1,200,6|2,0:0|0:0,0:0:0:0:
370,323,44126,2,0,P|398:323|436:340,2,50,2|8|8,0:0|3:2|3:2,0:0:0:0:
370,272,44618,5,12,0:0:0:0:
442,203,44946,1,8,0:3:0:0:
442,203,45110,1,2,0:0:0:0:
422,105,45437,2,0,L|359:104,1,50,2|8,0:0|3:3,0:0:0:0:
330,71,45765,2,0,P|291:57|234:58,1,99.9999999999999,2|2,0:0|0:0,0:0:0:0:
185,74,46257,1,8,0:0:0:0:
87,96,46585,1,2,0:0:0:0:
130,185,46913,1,8,3:3:0:0:
53,254,47241,6,0,L|66:326,1,50,4|0,0:0|0:0,0:0:0:0:
109,319,47569,2,0,L|177:324,1,50,8|2,3:3|0:0,0:0:0:0:
188,282,47896,2,0,L|237:278,1,50,8|2,3:2|0:0,0:0:0:0:
272,314,48224,2,0,L|321:317,1,50,8|8,3:2|0:0,0:0:0:0:
360,285,48552,2,0,P|348:218|365:171,1,99.9999999999999,12|8,3:2|3:2,0:0:0:0:
405,179,49044,2,0,P|455:171|467:111,1,99.9999999999999,12|8,3:2|0:0,0:0:0:0:
461,80,49536,1,8,0:3:0:0:
361,72,49864,5,6,0:0:0:0:
278,128,50191,1,8,3:3:0:0:
278,128,50355,1,2,0:0:0:0:
217,50,50683,2,0,L|154:56,1,50,2|8,0:0|3:3,0:0:0:0:
118,65,51011,2,0,P|103:131|170:268,1,200,6|2,0:0|0:0,0:0:0:0:
234,305,51995,2,0,L|218:379,2,50,2|8|2,0:0|0:0|0:0,0:0:0:0:
247,256,52487,5,6,0:0:0:0:
206,165,52814,1,8,3:0:0:0:
255,172,52978,2,0,L|318:181,1,50,2|8,0:0|3:3,0:0:0:0:
336,217,53306,1,0,0:0:0:0:
434,209,53634,2,0,P|479:266|457:353,1,150,4|8,0:0|3:2,0:0:0:0:
418,346,54290,6,0,L|348:335,1,50,2|8,0:0|3:2,0:0:0:0:
320,328,54618,2,0,L|299:373,2,50,2|8|8,0:0|3:2|0:0,0:0:0:0:
276,300,55110,1,4,0:0:0:0:
181,332,55437,1,8,0:3:0:0:
181,332,55601,1,2,0:0:0:0:
86,299,55929,6,0,L|28:289,1,50,2|8,0:0|0:3,0:0:0:0:
29,240,56257,2,0,P|35:191|70:156,1,99.9999999999999,6|2,0:0|0:0,0:0:0:0:
118,143,56749,1,8,0:3:0:0:
118,143,56913,1,2,0:0:0:0:
208,186,57241,2,0,L|257:177,2,50,2|8|2,0:0|0:0|0:0,0:0:0:0:
209,236,57732,6,0,P|218:292|207:337,1,99.9999999999999,6|8,0:0|0:3,0:0:0:0:
308,329,58388,2,0,L|357:320,1,50,8|8,0:0|0:0,0:0:0:0:
400,346,58716,2,0,L|449:354,1,50,8|2,0:3|0:0,0:0:0:0:
481,315,59044,5,4,3:2:0:0:
455,218,59372,2,0,P|453:186|444:143,1,50,8|6,0:0|3:2,0:0:0:0:
427,70,59864,1,8,0:0:0:0:
381,91,60028,2,0,P|342:102|273:94,1,99.9999999999999,4|0,3:2|0:0,0:0:0:0:
191,57,60683,1,8,0:0:0:0:
124,131,61011,2,0,L|139:188,2,50,2|2|8,0:0|0:0|0:0,0:0:0:0:
52,61,61667,6,0,P|35:85|25:116,1,50,12|0,3:2|0:0,0:0:0:0:
29,157,61995,1,2,0:0:0:0:
29,157,62159,1,12,3:2:0:0:
60,247,62487,1,8,0:0:0:0:
72,295,62650,2,0,P|71:345|31:385,1,99.9999999999999,6|0,3:2|0:0,0:0:0:0:
