osu file format v14

[General]
AudioFilename: audio.mp3
AudioLeadIn: 0
PreviewTime: 37732
Countdown: 0
SampleSet: Soft
StackLeniency: 0.3
Mode: 0
LetterboxInBreaks: 0
WidescreenStoryboard: 0

[Editor]
DistanceSpacing: 1.1
BeatDivisor: 4
GridSize: 4
TimelineZoom: 1.8

[Metadata]
Title:Tomare! (TV Size)
TitleUnicode:Tomare! (TV Size)
Artist:Aya Hirano
ArtistUnicode:平野綾
Creator:Rin Desu
Version:Easy
Source:涼宮ハルヒの憂鬱
Tags:Haruhi no Yuuutsu Nao Tomori Naotoshi Cris- Minorsonek Parachute Suzumiya The Melancholy of Yuuko Gotou ending minori chihara tv size Squaretude M2Usonek Japanese Rock
BeatmapID:1667620
BeatmapSetID:792689

[Difficulty]
HPDrainRate:1.5
CircleSize:3
OverallDifficulty:2
ApproachRate:3
SliderMultiplier:0.799999999999999
SliderTickRate:1

[Events]
//Background and Video events
0,0,"bg.jpg",0,0
Video,0,"Suzumiya Haruhi no sound.mp4.mp4.m4v"
//Break Periods
//Storyboard Layer 0 (Background)
//Storyboard Layer 1 (Fail)
//Storyboard Layer 2 (Pass)
//Storyboard Layer 3 (Foreground)
//Storyboard Layer 4 (Overlay)
//Storyboard Sound Samples

[TimingPoints]
684,327.868852459016,4,2,3,65,1,0
2651,327.868852459016,4,2,3,65,1,0
39372,-100,4,2,3,75,0,1
62978,-100,4,2,3,75,0,0

[Colours]
Combo1 : 255,64,69
Combo2 : 51,235,255
Combo3 : 251,255,100
Combo4 : 255,170,11
Combo5 : 255,0,134
Combo6 : 79,167,255
Combo7 : 255,192,130

[HitObjects]
95,23,2651,6,0,B|81:50|78:148|89:185,1,160,6|2,0:0|0:0,0:0:0:0:
172,155,3634,1,8,0:3:0:0:
215,231,3962,2,0,B|237:223|321:217|343:221,2,120,4|6|8,0:0|0:0|0:3,0:0:0:0:
131,257,5273,6,0,B|168:368|338:356|387:343,1,280,12|0,0:0|3:2,0:0:0:0:
332,48,7896,6,0,B|348:72|351:108|349:124,1,79.9999999999999,6|8,0:0|3:2,0:0:0:0:
325,209,8552,2,0,L|241:191,1,79.9999999999999,2|8,0:0|0:0,0:0:0:0:
160,172,9208,2,0,B|144:200|140:292|155:330,1,160,0|0,0:0|0:0,0:0:0:0:
238,348,10191,1,8,0:0:0:0:
314,303,10519,6,0,L|392:286,2,79.9999999999999,0|8|2,0:0|3:2|0:0,0:0:0:0:
238,348,11503,1,8,0:0:0:0:
238,259,11831,2,0,B|222:229|231:126|260:96,1,160,0|0,0:0|0:0,0:0:0:0:
339,124,12814,1,8,0:0:0:0:
425,105,13142,6,0,B|447:127|456:230|440:260,1,160,0|2,0:0|0:0,0:0:0:0:
356,284,14126,1,8,0:0:0:0:
298,350,14454,2,0,L|122:363,1,160,0|2,0:0|0:0,0:0:0:0:
50,370,15437,1,8,0:0:0:0:
87,290,15765,6,0,B|89:269|80:223|71:209,1,79.9999999999999,6|8,0:0|0:0,0:0:0:0:
37,131,16421,2,0,B|35:110|44:64|51:52,1,79.9999999999999,0|8,0:0|0:0,0:0:0:0:
140,49,17077,1,8,0:0:0:0:
226,30,17405,1,8,0:0:0:0:
298,79,17732,2,0,L|337:69,2,40,8|0|12,0:0|0:0|0:3,0:0:0:0:
251,153,18388,5,4,0:0:0:0:
298,227,18716,1,8,3:2:0:0:
366,171,19044,2,0,B|446:168|446:168|481:170|490:183,2,120,2|2|8,0:0|0:0|3:2,0:0:0:0:
298,227,20355,2,0,L|218:234,1,79.9999999999999,2|8,0:0|3:2,0:0:0:0:
205,322,21011,6,0,L|114:313,1,79.9999999999999,2|8,0:0|3:2,0:0:0:0:
37,304,21667,2,0,B|22:280|9:219|16:169,2,120,2|2|8,0:0|0:0|3:2,0:0:0:0:
125,314,22978,2,0,L|108:386,2,59.9999999999999,8|8|8,3:3|3:3|3:3,0:0:0:0:
248,267,23962,5,8,3:2:0:0:
299,196,24290,2,0,L|426:200,2,120,2|2|8,0:2|0:2|3:2,0:0:0:0:
299,107,25601,2,0,B|297:85|286:34|279:19,1,79.9999999999999,2|8,0:2|3:2,0:0:0:0:
195,27,26257,2,0,B|174:23|90:24|70:39,1,120,6|2,0:0|0:0,0:0:0:0:
41,117,27077,1,2,0:0:0:0:
91,189,27405,2,0,B|111:192|191:189|215:176,1,120,2|8,0:0|3:2,0:0:0:0:
285,134,28224,5,8,0:0:0:0:
286,222,28552,1,8,0:0:0:0:
227,288,28880,2,0,B|269:350|384:279|456:326,1,240,12|8,0:0|0:3,0:0:0:0:
471,238,30191,6,0,B|471:204|432:142|403:137,2,120,0|2|8,0:0|0:0|0:3,0:0:0:0:
456,325,31503,2,0,L|373:338,1,79.9999999999999,2|8,0:0|0:3,0:0:0:0:
290,355,32159,2,0,L|210:342,1,79.9999999999999,2|8,0:0|0:3,0:0:0:0:
123,352,32814,2,0,B|115:340|123:298|151:273,1,79.9999999999999,0|8,0:0|0:3,0:0:0:0:
169,198,33470,1,2,0:0:0:0:
196,116,33798,1,8,0:3:0:0:
255,182,34126,6,0,B|282:185|360:172|378:159,2,120,4|4|4,0:0|0:0|0:0,0:0:0:0:
196,116,35437,2,0,B|191:92|202:17|215:-1,2,120,8|8|8,0:0|0:0|0:0,0:0:0:0:
134,178,36749,6,0,L|82:188,2,40
175,256,37405,1,0,0:0:0:0:
161,342,37732,1,0,0:0:0:0:
247,359,38060,6,0,L|312:384,2,59.9999999999999,0|0|0,0:0|0:0|0:0,0:0:0:0:
323,250,39044,1,8,0:0:0:0:
398,296,39372,6,0,B|420:276|420:210|378:177,1,120,6|2,0:0|0:0,0:0:0:0:
330,118,40191,1,2,0:0:0:0:
240,101,40519,2,0,B|203:121|185:234|226:290,1,200,4|2,0:0|0:0,0:0:0:0:
308,310,41667,2,0,L|359:318,2,40,8|2|6,3:2|0:0|0:0,0:0:0:0:
243,370,42323,2,0,L|107:374,1,120,8|2,0:3|0:0,0:0:0:0:
35,372,43142,6,0,B|12:356|1:241|29:209,1,160,6|2,0:0|0:0,0:0:0:0:
79,150,44126,2,0,L|122:156,1,40,2|8,0:0|3:2,0:0:0:0:
204,173,44618,5,12,0:0:0:0:
243,94,44946,2,0,L|373:79,1,120,8|2,0:3|0:0,0:0:0:0:
435,30,45765,2,0,B|464:53|470:119|453:157,1,120,2|8,0:0|0:3,0:0:0:0:
411,217,46585,2,0,B|405:233|410:286|417:302,1,79.9999999999999,2|8,0:0|3:3,0:0:0:0:
481,353,47241,5,12,0:0:0:0:
397,381,47569,2,0,L|308:363,1,79.9999999999999,8|8,3:3|3:2,0:0:0:0:
264,295,48224,1,8,3:2:0:0:
204,359,48552,2,0,B|181:366|119:372|85:354,1,120,12|12,3:2|3:2,0:0:0:0:
128,277,49372,2,0,L|123:226,1,40,8|8,0:0|0:3,0:0:0:0:
46,194,49864,6,0,B|34:153|44:103|62:68,1,120,6|2,0:0|0:0,0:0:0:0:
141,103,50683,1,2,0:0:0:0:
212,51,51011,6,0,B|236:62|339:64|369:48,1,160,6|2,0:0|0:0,0:0:0:0:
455,27,51995,2,0,L|463:78,1,40,2|8,0:0|3:2,0:0:0:0:
400,130,52487,6,0,B|377:186|417:290|472:307,1,200,6|2,0:0|0:0,0:0:0:0:
394,361,53634,2,0,B|380:354|333:357|312:368,1,79.9999999999999,4|2,0:0|0:0,0:0:0:0:
239,320,54290,2,0,B|217:303|139:303|116:323,1,120,2|8,0:0|3:2,0:0:0:0:
41,353,55110,6,0,B|43:324|40:256|40:218,1,120,4|2,0:0|0:0,0:0:0:0:
41,144,55929,1,2,0:0:0:0:
30,56,56257,1,6,0:0:0:0:
110,20,56585,1,2,0:0:0:0:
157,93,56913,2,0,L|291:109,1,120,2|8,0:0|0:0,0:0:0:0:
364,110,57732,6,0,L|396:72,2,40,6|0|8,0:0|0:0|0:3,0:0:0:0:
320,187,58388,1,8,0:0:0:0:
362,264,58716,1,8,0:3:0:0:
292,318,59044,2,0,L|172:323,2,120,4|6|4,3:2|3:2|3:2,0:0:0:0:
162,198,60683,5,0,0:0:0:0:
85,154,61011,2,0,L|81:100,1,40
170,11,61667,6,0,L|285:45,2,120,12|12|6,3:2|3:2|3:2,0:0:0:0:
