osu file format v14

[General]
AudioFilename: Suzumiya_Haruhi_no_Yuuutsu_-_Hare_Hare_Yukai.mp3
AudioLeadIn: 0
PreviewTime: 48088
Countdown: 0
SampleSet: Normal
StackLeniency: 0.7
Mode: 0
LetterboxInBreaks: 0
WidescreenStoryboard: 1

[Editor]
Bookmarks: 14599,48088,78785,89948,123436,154134,176460,211343
DistanceSpacing: 1
BeatDivisor: 4
GridSize: 4
TimelineZoom: 1

[Metadata]
Title:Hare Hare Yukai
TitleUnicode:ハレ晴レユカイ
Artist:Aya Hirano
ArtistUnicode:平野綾
Creator:CDFA
Version:Insane
Source:涼宮ハルヒの憂鬱
Tags:Zero__wind UndeadCapulet jonathanlfj love frostmourne cheesiest reditum frostxE anime the dissapearance of haruhi suzumiya melancholy
BeatmapID:773184
BeatmapSetID:106499

[Difficulty]
HPDrainRate:6
CircleSize:4
OverallDifficulty:7
ApproachRate:8
SliderMultiplier:2
SliderTickRate:1

[Events]
//Background and Video events
0,0,"1450819974_809.jpg",0,0
//Break Periods
2,78985,89198
2,154334,164547
//Storyboard Layer 0 (Background)
//Storyboard Layer 1 (Fail)
//Storyboard Layer 2 (Pass)
//Storyboard Layer 3 (Foreground)
Sprite,Foreground,Centre,"Storyboard\CDFA.png",100,250 S,0,14425,14599,2,1 S,0,209984,210123,1,0
//Storyboard Sound Samples

[TimingPoints]
646.263110369147,348.837209302326,4,2,1,60,1,0
14599,-100,4,2,1,60,0,0
45297,-100,4,2,1,70,0,0
46518,-100,4,2,1,80,0,0
48088,-100,4,1,1,80,0,0
74948,-100,4,2,1,80,0,0
75820,-100,4,1,1,80,0,0
89948,-100,4,1,1,70,0,0
121867,-100,4,2,1,75,0,0
123262,-100,4,1,1,40,0,0
123436,-100,4,1,1,70,0,0
146809,-100,4,1,1,40,0,0
148204,-100,4,1,1,70,0,0
150297,-133.333333333333,4,1,1,70,0,0
150820,-100,4,1,1,70,0,0
174890,-100,4,2,1,70,0,0
176460,-104.166666666667,4,1,0,70,0,0
202448,-96.1538461538461,4,1,0,70,0,0
202971,-104.166666666667,4,1,0,70,0,0

[Colours]
Combo1 : 128,0,255
Combo2 : 255,0,128
Combo3 : 255,0,255
Combo4 : 128,0,64

[HitObjects]
52,72,14599,6,0,P|148:52|212:112,1,150,4|0,0:0|0:0,0:0:0:0:
208,124,14948,2,0,B|208:176|208:176|180:252,1,100,8|0,0:0|0:0,0:0:0:0:
112,284,15297,1,0,0:0:0:0:
204,320,15471,2,0,P|264:312|328:328,1,100,0|8,0:0|0:0,0:0:0:0:
400,348,15820,1,0,0:0:0:0:
464,272,15995,2,0,B|472:228|472:228|456:152,1,100
436,132,16256,1,2,0:0:0:0:
392,108,16343,2,0,P|336:104|264:128,1,100,8|0,0:0|0:0,0:0:0:0:
216,176,16692,2,0,P|156:184|92:168,2,100,0|0|8,0:0|0:0|0:0,0:0:0:0:
308,216,17216,5,0,0:0:0:0:
408,224,17390,2,0,P|388:280|240:296,1,200,2|8,0:0|0:0,0:0:0:0:
168,200,17913,2,0,P|251:150|308:216,1,200,2|0,0:0|0:0,0:0:0:0:
132,272,18436,2,0,P|88:208|116:152,1,100,8|0,0:0|0:0,0:0:0:0:
104,140,18698,1,0,0:0:0:0:
120,92,18785,6,0,B|132:32|132:32|112:-4,2,100,2|0|8,0:0|0:0|0:0,0:0:0:0:
208,144,19309,1,0,0:0:0:0:
208,144,19396,1,2,0:0:0:0:
208,144,19483,2,0,P|256:136|324:160,1,100
320,316,19832,2,0,P|308:260|336:208,1,100,8|0,0:0|0:0,0:0:0:0:
464,64,20181,6,0,P|436:136|372:164,1,150,4|0,0:0|0:0,0:0:0:0:
324,148,20529,2,8,B|272:148|272:148|216:164,1,100,8|0,0:0|0:0,0:0:0:0:
148,224,20878,2,0,B|104:240|100:240|100:240|32:224,2,100,0|0|8,0:0|0:0|0:0,0:0:0:0:
184,128,21402,2,0,P|148:228|200:340,1,200,2|0,0:0|0:0,0:0:0:0:
264,360,21925,1,8,0:0:0:0:
360,340,22099,1,0,0:0:0:0:
380,240,22274,2,0,P|368:196|400:92,1,150,2|0,0:0|0:0,0:0:0:0:
420,52,22623,2,0,B|368:24|368:24|304:24,1,100,8|0,0:0|0:0,0:0:0:0:
232,52,22971,2,0,B|180:56|180:56|136:36,2,100,2|0|8,0:0|0:0|0:0,0:0:0:0:
308,116,23495,1,0,0:0:0:0:
312,164,23582,1,0,0:0:0:0:
308,212,23669,2,0,B|268:228|268:228|212:220,2,100,2|0|8,0:0|0:0|0:0,0:0:0:0:
404,188,24192,6,0,P|424:244|336:356,1,200,4|0,0:0|0:0,0:0:0:0:
252,336,24716,1,8,0:0:0:0:
352,352,24890,1,0,0:0:0:0:
212,328,25064,1,8,0:0:0:0:
352,352,25239,1,0,0:0:0:0:
164,316,25413,1,8,0:0:0:0:
352,352,25588,1,0,0:0:0:0:
116,304,25762,2,0,P|104:252|120:180,1,100,4|0,0:0|0:0,0:0:0:0:
124,160,26024,1,0,0:0:0:0:
152,120,26111,6,0,B|184:84|184:84|184:24,1,100,8|0,0:0|0:0,0:0:0:0:
84,40,26460,2,0,B|40:88|40:88|40:148,1,100,2|0,0:0|0:0,0:0:0:0:
36,224,26809,1,8,0:0:0:0:
68,320,26983,1,0,0:0:0:0:
168,328,27157,2,0,P|220:320|300:324,1,100,2|0,0:0|0:0,0:0:0:0:
316,328,27419,1,0,0:0:0:0:
364,344,27506,2,0,P|404:348|440:296,1,100,8|0,0:0|0:0,0:0:0:0:
404,212,27855,2,0,P|396:160|408:96,1,100,2|0,0:0|0:0,0:0:0:0:
424,16,28204,1,8,0:0:0:0:
324,8,28378,1,0,0:0:0:0:
224,24,28553,6,0,P|172:48|152:200,1,200,2|8,0:0|0:0,0:0:0:0:
276,236,29076,2,0,P|152:204|92:240,1,200,2|0,0:0|0:0,0:0:0:0:
192,336,29599,1,8,0:0:0:0:
276,236,29774,1,0,0:0:0:0:
140,212,29948,2,0,P|168:180|168:20,1,200,2|8,0:0|0:0,0:0:0:0:
72,104,30471,1,0,0:0:0:0:
72,104,30559,1,0,0:0:0:0:
72,104,30646,2,0,B|60:152|60:152|52:212,1,100,2|0,0:0|0:0,0:0:0:0:
60,252,30907,1,0,0:0:0:0:
96,288,30995,2,0,P|144:296|204:276,2,100,8|0|4,0:0|0:0|0:0,0:0:0:0:
200,116,31692,5,8,0:0:0:0:
296,96,31867,1,0,0:0:0:0:
372,164,32041,2,0,P|384:208|344:316,1,150,2|0,0:0|0:0,0:0:0:0:
312,332,32390,2,0,P|260:328|212:344,1,100,8|0,0:0|0:0,0:0:0:0:
116,352,32739,1,2,0:0:0:0:
36,292,32913,1,0,0:0:0:0:
108,224,33088,2,0,P|120:184|120:104,1,100,8|0,0:0|0:0,0:0:0:0:
68,44,33436,2,0,P|136:32|212:92,1,150,2|0,0:0|0:0,0:0:0:0:
220,120,33785,2,0,B|264:156|264:156|344:152,1,100,8|0,0:0|0:0,0:0:0:0:
476,116,34134,6,0,B|444:80|444:80|368:80,2,100,2|0|8,0:0|0:0|0:0,0:0:0:0:
488,216,34657,1,0,0:0:0:0:
468,316,34832,2,0,P|416:332|340:312,1,100,2|0,0:0|0:0,0:0:0:0:
284,280,35181,2,0,P|228:260|168:280,1,100,8|0,0:0|0:0,0:0:0:0:
92,296,35529,5,4,0:0:0:0:
212,152,35704,1,0,0:0:0:0:
212,348,35878,1,4,0:0:0:0:
92,176,36053,1,0,0:0:0:0:
288,244,36227,1,4,0:0:0:0:
472,296,36402,1,0,0:0:0:0:
300,352,36576,1,8,1:3:0:0:
404,200,36750,1,4,0:3:0:0:
412,384,36925,1,4,0:0:0:0:
492,172,37186,5,2,0:0:0:0:
492,172,37274,2,0,P|496:128|472:72,1,100,2|0,0:0|0:0,0:0:0:0:
384,40,37623,2,0,P|328:48|264:32,1,100,0|0,1:0|0:0,0:0:0:0:
188,20,37971,1,0,0:0:0:0:
96,56,38146,1,0,0:0:0:0:
116,152,38320,2,0,P|128:196|104:264,1,100,2|0,0:0|1:0,0:0:0:0:
20,284,38669,2,0,P|116:252|248:300,1,200,0|0,0:0|1:0,0:0:0:0:
300,320,39192,5,0,0:0:0:0:
440,260,39367,1,0,1:0:0:0:
320,176,39541,1,0,0:0:0:0:
300,320,39716,2,0,P|236:332|160:232,1,200,2|0,0:0|0:0,0:0:0:0:
200,144,40239,1,0,0:0:0:0:
300,152,40413,2,0,P|356:160|408:140,2,100,0|0|0,1:0|0:0|0:0,0:0:0:0:
200,144,40936,2,0,B|148:136|148:136|72:152,1,100
64,240,41285,2,0,P|100:144|68:24,1,200,2|2,0:0|0:0,0:0:0:0:
284,36,41983,5,0,0:0:0:0:
284,36,42070,1,0,0:0:0:0:
284,36,42157,2,0,P|300:96|284:160,1,100,8|0,0:0|0:0,0:0:0:0:
240,216,42506,5,4,0:0:0:0:
148,356,42681,1,0,0:0:0:0:
112,224,42855,1,8,0:0:0:0:
288,344,43029,2,0,P|376:332|424:232,1,200,4|2,0:0|0:0,0:0:0:0:
328,136,43553,1,8,0:0:0:0:
224,40,43727,2,0,P|136:52|88:152,1,200,4|2,0:0|0:0,0:0:0:0:
184,248,44250,1,8,0:0:0:0:
328,136,44425,2,0,P|272:188|288:320,1,200,4|0,0:0|0:0,0:0:0:0:
420,348,44948,1,8,0:0:0:0:
484,196,45123,1,0,0:0:0:0:
424,56,45297,6,0,B|368:36|368:36|312:44,1,100,4|0,0:0|0:0,0:0:0:0:
276,304,45646,1,8,0:0:0:0:
316,180,45820,1,4,0:3:0:0:
316,180,45907,1,4,0:3:0:0:
316,180,45995,2,0,B|260:144|260:144|224:144,2,100,4|0|8,0:3|0:0|0:0,0:0:0:0:
416,304,46518,5,4,0:0:0:0:
76,192,46867,1,4,0:0:0:0:
328,32,47216,1,4,0:0:0:0:
328,32,47390,1,4,0:0:0:0:
48,48,48088,5,4,0:0:0:0:
148,36,48262,2,0,B|192:32|192:32|264:48,1,100,0|8,0:0|0:0,0:0:0:0:
304,124,48611,1,0,0:0:0:0:
276,220,48785,2,0,B|276:280|276:280|308:348,2,100,0|0|8,0:0|0:0|0:0,0:0:0:0:
376,200,49309,2,0,P|440:200|500:80,1,200
404,108,49832,1,8,0:0:0:0:
432,12,50006,2,0,P|368:12|308:132,1,200
260,208,50529,1,8,0:0:0:0:
200,288,50704,1,0,0:0:0:0:
200,288,50791,1,0,0:0:0:0:
200,288,50878,6,0,B|136:288|136:288|80:256,1,100,4|0,0:0|0:0,0:0:0:0:
72,176,51227,2,0,B|92:132|92:132|96:64,1,100,8|0,0:0|0:0,0:0:0:0:
12,24,51576,2,0,P|104:80|204:60,1,200,0|8,0:0|0:0,0:0:0:0:
436,80,52099,2,0,P|344:24|244:44,1,200
236,248,52623,1,8,0:0:0:0:
336,136,52797,2,0,B|288:144|288:144|232:88,2,100
436,80,53320,6,0,P|448:136|436:196,1,100,8|0,0:0|0:0,0:0:0:0:
320,325,53669,2,0,P|300:253|344:125,1,200,4|8,0:0|0:0,0:0:0:0:
320,325,54192,2,0,P|256:328|192:200,1,200,2|0,0:0|0:0,0:0:0:0:
256,112,54716,1,8,0:0:0:0:
368,232,54890,1,0,0:0:0:0:
192,325,55064,6,0,P|212:253|168:125,1,200,4|8,0:0|0:0,0:0:0:0:
192,325,55587,2,0,P|256:328|320:200,1,200,2|0,0:0|0:0,0:0:0:0:
256,112,56111,1,8,0:0:0:0:
104,56,56285,1,0,0:0:0:0:
44,204,56460,6,0,B|80:248|80:248|140:260,1,100,4|0,0:0|0:0,0:0:0:0:
318,186,56809,2,0,B|286:130|286:130|246:106,1,100,8|0,0:0|0:0,0:0:0:0:
280,312,57157,2,0,B|332:320|332:320|396:308,2,100,0|0|8,0:0|0:0|0:0,0:0:0:0:
156,180,57681,5,6,0:0:0:0:
352,64,58029,1,2,0:0:0:0:
400,288,58378,1,2,0:0:0:0:
156,180,58727,2,0,P|140:144|220:16,1,200,2|0,0:0|0:0,0:0:0:0:
256,108,59250,5,0,0:0:0:0:
299,17,59425,2,0,P|368:84|356:180,1,200
272,356,59948,2,0,P|232:316|256:180,1,200,0|8,0:0|0:0,0:0:0:0:
320,264,60471,2,0,L|108:268,1,200
44,204,60995,1,8,0:0:0:0:
32,104,61169,1,0,0:0:0:0:
108,36,61343,2,0,P|164:36|236:76,1,100
268,208,61692,2,0,P|240:176|244:108,1,100,8|0,0:0|0:0,0:0:0:0:
320,60,62041,5,4,0:0:0:0:
420,48,62216,1,0,0:0:0:0:
464,140,62390,2,0,B|468:192|468:192|440:264,1,100,8|0,0:0|0:0,0:0:0:0:
372,300,62739,2,0,P|304:324|212:236,1,200,0|8,0:0|0:0,0:0:0:0:
324,156,63262,2,0,P|392:132|484:220,1,200
372,300,63785,1,8,0:0:0:0:
296,236,63960,1,0,0:0:0:0:
256,208,64047,1,0,0:0:0:0:
216,176,64134,2,0,B|192:136|192:136|184:48,2,100,0|0|8,0:0|0:0|0:0,0:0:0:0:
208,328,64657,1,0,0:0:0:0:
32,296,64832,6,0,P|24:236|88:108,1,200,4|8,0:0|0:0,0:0:0:0:
312,140,65355,2,0,P|260:168|152:88,1,200,2|0,0:0|0:0,0:0:0:0:
328,52,65878,1,8,0:0:0:0:
480,296,66227,6,0,P|488:236|424:108,1,200,4|8,0:0|0:0,0:0:0:0:
200,140,66750,2,0,P|252:168|360:88,1,200,6|0,0:0|0:0,0:0:0:0:
184,52,67273,1,8,0:0:0:0:
184,52,67448,1,0,0:0:0:0:
184,52,67535,1,0,0:0:0:0:
184,52,67623,6,0,B|120:64|120:64|80:100,1,100,4|0,0:0|0:0,0:0:0:0:
224,272,67971,2,0,B|192:224|192:224|128:200,1,100,4|0,0:0|0:0,0:0:0:0:
272,360,68320,2,0,B|328:376|328:376|380:368,2,100,4|0|4,0:0|0:0|0:0,0:0:0:0:
108,224,68843,1,0,0:0:0:0:
248,96,69018,2,0,P|328:92|424:200,1,200,4|8,0:0|0:0,0:0:0:0:
352,320,69541,2,0,P|272:324|176:216,1,200,4|0,0:0|0:0,0:0:0:0:
132,48,70064,2,0,B|144:108|144:108|192:168,1,100,8|0,0:0|0:0,0:0:0:0:
256,184,70413,6,0,L|256:312,2,100,4|0|8,0:0|0:0|0:0,0:0:0:0:
328,116,70936,1,0,0:0:0:0:
328,116,71024,1,2,2:0:0:0:
328,116,71111,2,0,P|388:116|440:144,1,100
456,228,71460,1,8,0:0:0:0:
428,324,71634,1,0,0:0:0:0:
332,352,71809,2,0,B|280:356|280:356|216:344,2,100,0|0|8,0:0|0:0|0:0,0:0:0:0:
284,264,72332,2,0,P|224:220|224:136,1,150,0|2,0:0|2:0,0:0:0:0:
228,100,72681,2,0,B|204:48|204:48|164:16,2,100,0|8|0,0:0|0:0|0:0,0:0:0:0:
320,136,73204,5,4,0:0:0:0:
408,180,73378,1,0,0:0:0:0:
424,280,73553,1,8,0:0:0:0:
364,360,73727,1,0,0:0:0:0:
280,308,73902,2,0,P|240:304|176:316,1,100
24,368,74250,2,0,P|56:324|64:256,1,100,8|0,0:0|0:0,0:0:0:0:
24,112,74599,1,8,0:0:0:0:
444,72,75646,5,8,1:0:0:0:
444,72,75820,2,0,P|392:56|300:152,1,200,4|0,0:3|0:0,0:0:0:0:
172,300,76343,2,0,P|224:316|316:220,1,200,4|0,0:3|0:0,0:0:0:0:
176,80,76867,1,0,0:0:0:0:
72,224,77041,1,4,0:3:0:0:
256,172,77216,1,0,0:0:0:0:
64,128,77390,1,0,0:0:0:0:
192,264,77564,5,0,0:0:0:0:
336,296,77739,1,4,0:3:0:0:
368,160,77913,1,0,0:0:0:0:
220,140,78088,1,4,0:3:0:0:
192,264,78262,2,0,L|188:328,2,50,2|0|8,2:0|2:0|0:0,0:0:0:0:
300,112,78611,1,0,2:0:0:0:
336,296,78785,1,4,0:0:0:0:
72,48,89948,6,0,P|136:48|192:88,1,100,4|0,0:0|0:0,0:0:0:0:
224,144,90297,1,8,0:0:0:0:
256,240,90471,1,0,0:0:0:0:
292,332,90646,2,0,P|352:352|392:348,1,100
436,260,90995,2,0,B|436:200|436:200|464:132,2,100,8|0|0,0:0|0:0|0:0,0:0:0:0:
292,332,91605,5,2,2:0:0:0:
244,316,91692,2,0,P|200:300|136:296,1,100,8|0,0:0|0:0,0:0:0:0:
60,344,92041,1,0,0:0:0:0:
36,248,92216,2,0,P|64:192|60:124,2,100,0|8|0,0:0|0:0|0:0,0:0:0:0:
136,228,92739,6,0,P|188:220|344:288,1,200,0|8,0:0|0:0,0:0:0:0:
144,304,93262,2,0,L|120:80,1,200
52,32,93785,2,0,B|124:108|124:108|240:108,1,200,8|0,0:0|0:0,0:0:0:0:
408,44,94483,6,0,B|412:104|412:104|396:184,1,100,8|0,0:0|0:0,0:0:0:0:
364,172,94745,1,0,0:0:0:0:
316,172,94832,2,0,B|264:172|264:172|212:208,1,100,8|0,0:0|0:0,0:0:0:0:
192,348,95181,2,0,B|152:304|152:304|100:280,1,100,8|0,0:0|0:0,0:0:0:0:
16,360,95529,2,0,P|32:288|20:180,1,150,4|0,0:0|2:0,0:0:0:0:
12,164,95878,6,0,P|4:120|8:48,1,100,8|0,0:0|0:0,0:0:0:0:
92,16,96227,1,0,0:0:0:0:
176,72,96402,2,0,B|232:88|232:88|312:84,1,100,0|8,0:0|0:0,0:0:0:0:
368,60,96750,2,0,P|380:116|332:240,1,150,0|0,0:0|2:0,0:0:0:0:
328,244,97099,2,0,P|264:256|232:248,2,100,0|8|0,0:0|0:0|0:0,0:0:0:0:
244,172,97623,6,0,B|200:296|200:292|196:296|196:296|156:336,1,150
136,324,97971,2,0,P|76:324|24:292,1,100,8|0,0:0|0:0,0:0:0:0:
28,208,98320,2,0,P|36:164|24:84,2,100,0|0|8,0:0|0:0|0:0,0:0:0:0:
124,232,98843,1,0,0:0:0:0:
184,152,99018,2,0,P|244:136|308:148,1,100
352,272,99367,2,0,P|332:216|360:160,1,100,8|4,0:0|0:0,0:0:0:0:
476,24,99890,5,0,0:0:0:0:
412,152,100064,1,0,0:0:0:0:
320,16,100239,1,0,0:0:0:0:
472,100,100413,1,0,0:0:0:0:
328,208,100588,1,0,0:0:0:0:
220,60,100762,1,0,0:0:0:0:
372,80,100936,1,0,0:0:0:0:
492,204,101111,6,0,P|436:292|364:312,1,150,4|0,0:0|0:0,0:0:0:0:
348,300,101460,2,0,P|292:288|236:296,1,100,8|0,0:0|0:0,0:0:0:0:
152,312,101809,1,0,0:0:0:0:
120,216,101983,2,0,B|120:160|120:160|80:96,2,100,0|8|0,0:0|0:0|0:0,0:0:0:0:
152,312,102506,6,0,P|220:324|272:252,1,150
272,220,102855,2,0,P|268:160|252:112,1,100,8|0,0:0|0:0,0:0:0:0:
188,52,103204,1,0,0:0:0:0:
96,20,103378,2,0,B|40:0|40:0|-8:0,2,100,0|8|0,0:0|0:0|0:0,0:0:0:0:
32,100,103902,6,0,P|32:156|108:280,1,200,0|8,0:0|0:0,0:0:0:0:
259,228,104425,2,0,P|259:172|183:48,1,200
152,184,104948,1,8,0:0:0:0:
480,100,105297,6,0,P|480:156|404:280,1,200,0|8,0:0|0:0,0:0:0:0:
253,228,105820,2,0,P|253:172|329:48,1,200
360,184,106343,1,8,0:0:0:0:
460,204,106518,1,0,0:0:0:0:
460,204,106605,1,8,0:0:0:0:
460,204,106692,6,0,P|476:156|444:44,1,150,4|0,0:0|0:0,0:0:0:0:
420,28,107041,2,0,P|360:32|304:16,1,100,8|0,0:0|0:0,0:0:0:0:
220,32,107390,1,0,0:0:0:0:
140,92,107564,2,0,B|148:144|148:144|196:200,1,100,0|8,0:0|0:0,0:0:0:0:
264,236,107913,2,0,P|324:268|412:248,1,150,0|2,0:0|2:0,0:0:0:0:
412,204,108262,2,0,B|408:152|408:152|440:96,2,100,0|8|0,0:0|0:0|0:0,0:0:0:0:
468,288,108785,6,0,P|424:340|340:348,1,150
300,332,109134,2,0,P|248:316|196:320,1,100,8|0,0:0|0:0,0:0:0:0:
104,336,109483,2,0,P|132:268|108:116,1,200,0|8,0:0|0:0,0:0:0:0:
24,16,110006,2,0,P|100:44|232:20,1,200
348,12,110529,1,8,0:0:0:0:
365,268,110878,5,4,0:0:0:0:
305,159,111053,1,0,0:0:0:0:
398,175,111227,1,4,0:0:0:0:
277,238,111402,1,0,0:0:0:0:
176,139,111576,1,4,0:0:0:0:
253,93,111750,1,0,0:0:0:0:
184,219,111925,1,4,0:0:0:0:
107,90,112099,1,0,0:0:0:0:
305,159,112274,6,0,P|309:231|169:295,1,200,4|0,0:0|2:0,0:0:0:0:
116,308,112797,1,0,0:0:0:0:
64,224,112971,2,0,P|80:176|72:92,1,100,8|0,0:0|0:0,0:0:0:0:
40,36,113320,1,0,0:0:0:0:
140,32,113495,1,0,0:0:0:0:
208,104,113669,2,0,P|264:128|328:128,1,100,0|8,0:0|0:0,0:0:0:0:
356,44,114018,2,0,B|312:136|312:136|320:244,1,200,0|8,0:0|0:0,0:0:0:0:
476,356,114716,5,0,0:0:0:0:
384,316,114890,1,0,0:0:0:0:
288,336,115064,2,0,B|236:332|236:332|184:296,2,100,4|0|0,0:2|2:0|0:0,0:0:0:0:
316,240,115588,1,0,0:0:0:0:
252,164,115762,2,0,P|196:168|120:100,1,150,8|0,0:0|2:0,0:0:0:0:
104,68,116111,1,0,0:0:0:0:
204,84,116285,2,0,B|172:176|172:176|80:244,1,200
24,316,116809,1,8,0:0:0:0:
112,360,116983,2,0,P|192:364|288:264,1,200
312,192,117506,5,8,0:0:0:0:
316,92,117681,1,0,0:0:0:0:
124,104,117855,2,0,L|228:132,1,100,4|0,0:0|0:0,0:0:0:0:
264,264,118204,1,8,0:0:0:0:
114,294,118378,6,0,P|94:222|130:94,1,200,4|0,0:0|0:0,0:0:0:0:
256,48,118902,1,8,0:0:0:0:
398,90,119076,6,0,P|418:162|382:290,1,200,4|0,0:0|0:0,0:0:0:0:
240,340,119599,1,8,0:0:0:0:
160,180,119774,2,0,B|160:132|160:132|132:52,1,100,4|2,0:0|2:0,0:0:0:0:
32,192,120123,1,0,0:0:0:0:
32,192,120210,1,0,0:0:0:0:
32,192,120297,2,0,B|32:248|32:248|60:296,1,100,8|0,0:0|0:0,0:0:0:0:
240,340,120646,6,0,B|264:284|264:284|264:232,1,100,4|0,0:0|0:0,0:0:0:0:
192,36,120995,1,8,0:0:0:0:
8,176,121169,1,8,0:3:0:0:
8,176,121256,1,8,0:3:0:0:
8,176,121343,2,0,B|60:168|60:168|108:176,2,100,4|0|8,0:3|0:0|0:0,0:0:0:0:
160,328,121867,5,4,0:0:0:0:
40,88,122216,1,4,0:0:0:0:
316,164,122564,1,4,0:0:0:0:
316,164,122739,1,4,0:0:0:0:
60,60,123436,5,4,0:0:0:0:
152,24,123611,2,0,P|212:20|292:136,1,200
284,220,124134,2,0,P|328:280|456:252,1,200,0|8,0:0|0:0,0:0:0:0:
380,192,124657,2,0,L|168:252,1,200
88,268,125181,1,8,0:0:0:0:
32,188,125355,1,0,0:0:0:0:
116,136,125529,2,0,P|136:96|128:36,1,100
32,48,125878,2,0,L|248:36,1,200,8|4,0:0|0:0,0:0:0:0:
320,84,126402,5,0,0:0:0:0:
412,44,126576,1,8,0:0:0:0:
460,132,126750,1,0,0:0:0:0:
368,172,126925,2,0,B|316:236|316:236|256:200|196:256,1,200,0|8,0:0|0:0,0:0:0:0:
216,348,127448,2,0,L|196:132,1,200,2|0,0:0|0:0,0:0:0:0:
188,48,127971,1,8,0:0:0:0:
288,28,128146,1,0,0:0:0:0:
328,120,128320,2,0,P|368:168|416:168,1,100,2|0,0:0|0:0,0:0:0:0:
480,108,128669,2,0,L|304:252,1,200,8|4,0:0|0:0,0:0:0:0:
184,376,129367,5,8,0:0:0:0:
100,320,129541,2,0,P|56:216|104:108,1,200
164,80,130064,1,8,0:0:0:0:
412,319,130413,6,0,P|455:231|432:136,1,200,4|8,0:0|0:0,0:0:0:0:
348,80,130936,1,4,0:0:0:0:
256,260,131285,1,0,0:0:0:0:
204,176,131460,1,8,0:0:0:0:
256,92,131634,1,0,0:0:0:0:
312,176,131809,6,0,B|364:180|364:180|424:168,1,100,4|0,0:0|0:0,0:0:0:0:
464,88,132157,1,8,0:0:0:0:
364,88,132332,2,0,L|256:268,1,200
160,272,132855,1,8,0:0:0:0:
140,164,133029,6,0,B|140:112|140:112|116:48,1,100,6|0,0:0|0:0,0:0:0:0:
60,264,133378,2,0,B|116:272|116:272|204:272,1,100,2|0,0:0|0:0,0:0:0:0:
276,124,133727,2,0,B|228:172|228:172|224:220,1,100,2|0,0:0|0:0,0:0:0:0:
328,352,134076,2,0,P|376:276|352:132,1,200,2|0,0:0|0:0,0:0:0:0:
320,84,134599,5,0,0:0:0:0:
228,128,134774,2,0,P|124:156|76:52,1,200
164,48,135297,2,0,L|128:280,1,200,0|8,0:0|0:0,0:0:0:0:
64,316,135820,2,0,P|136:244|232:296,1,200
256,368,136343,1,8,0:0:0:0:
293,273,136518,2,0,P|384:245|448:316,1,200
356,352,137041,2,0,L|228:192,1,200,8|4,0:0|0:0,0:0:0:0:
220,96,137564,5,0,0:0:0:0:
316,128,137739,2,0,P|372:136|420:116,1,100,8|0,0:0|0:0,0:0:0:0:
432,24,138088,2,0,L|392:224,1,200,0|8,0:0|0:0,0:0:0:0:
360,316,138611,2,0,B|296:328|272:280|272:280|164:252,1,200
100,192,139134,1,8,0:0:0:0:
176,128,139309,2,0,P|192:76|156:8,1,100
80,24,139657,1,0,0:0:0:0:
16,104,139832,2,0,L|32:328,1,200,8|4,0:0|0:0,0:0:0:0:
216,384,140529,5,8,0:0:0:0:
304,340,140704,2,0,P|332:288|296:140,1,200
256,68,141227,1,8,0:0:0:0:
208,340,141576,2,0,P|180:288|216:140,1,200,4|8,0:0|0:0,0:0:0:0:
256,68,142099,1,4,0:0:0:0:
448,240,142448,1,4,0:0:0:0:
188,304,142797,1,8,0:3:0:0:
188,304,142884,1,8,0:3:0:0:
188,304,142971,6,0,B|156:260|156:260|160:204,1,100,4|0,0:0|0:0,0:0:0:0:
376,80,143320,2,0,P|336:132|272:116,1,100,4|0,0:0|0:0,0:0:0:0:
72,52,143669,2,0,P|136:32|192:40,1,100,4|0,0:0|0:0,0:0:0:0:
148,300,144018,2,0,P|128:240|148:192,1,100,4|0,0:0|0:0,0:0:0:0:
304,96,144367,1,4,0:0:0:0:
436,192,144541,1,0,0:0:0:0:
288,256,144716,1,8,0:0:0:0:
416,96,144890,2,0,P|304:96|248:8,1,200,4|0,0:0|0:0,0:0:0:0:
352,12,145413,1,8,0:0:0:0:
428,296,145762,6,0,P|356:248|224:296,1,200,4|8,0:0|0:0,0:0:0:0:
180,344,146285,2,0,P|112:296|112:156,1,200
180,60,146809,1,8,0:0:0:0:
236,212,146983,1,0,0:0:0:0:
84,88,147157,6,0,P|156:136|288:88,1,200,4|8,0:0|0:0,0:0:0:0:
332,40,147680,2,0,P|400:88|400:228,1,200
304,296,148204,5,8,0:0:0:0:
288,164,148378,1,0,0:0:0:0:
440,328,148553,2,0,B|500:276|500:276|536:216|472:160,1,200,4|8,0:0|0:0,0:0:0:0:
392,120,149076,2,0,P|312:168|216:108,1,200
240,24,149599,2,0,L|204:236,1,200,8|0,0:0|0:0,0:0:0:0:
48,332,150820,5,8,0:0:0:0:
144,112,151169,2,0,P|192:92|332:180,1,200
152,352,151692,2,0,P|140:292|220:188,1,200,0|8,0:0|0:0,0:0:0:0:
312,312,152216,1,0,0:0:0:0:
292,88,152390,2,0,P|368:80|456:176,1,200,0|8,0:0|0:0,0:0:0:0:
324,312,152913,1,0,0:0:0:0:
192,176,153088,1,0,0:0:0:0:
304,40,153262,1,0,0:0:0:0:
324,204,153437,1,0,0:0:0:0:
196,64,153611,1,0,0:0:0:0:
196,64,153698,1,0,0:0:0:0:
196,64,153786,2,0,P|148:60|100:96,1,100,8|0,0:0|0:0,0:0:0:0:
208,260,154134,5,4,0:0:0:0:
60,76,165297,6,0,P|112:72|208:192,1,200,4|2,0:0|2:0,0:0:0:0:
256,260,165820,1,0,0:0:0:0:
304,170,165995,2,0,P|356:88|452:76,1,200,8|2,0:0|2:0,0:0:0:0:
500,216,166605,1,0,0:0:0:0:
500,216,166692,2,0,P|488:272|440:312,1,100,2|0,0:2|0:0,0:0:0:0:
360,292,167041,2,0,B|308:280|308:280|228:292,1,100,0|0,0:0|2:0,0:0:0:0:
164,312,167390,2,0,P|100:312|56:184,1,200,8|0,0:0|0:0,0:0:0:0:
80,108,167913,5,0,0:0:0:0:
144,224,168088,2,0,P|208:208|320:280,1,200,4|0,0:2|0:0,0:0:0:0:
380,352,168611,1,0,0:0:0:0:
440,272,168785,2,0,B|448:216|448:216|432:152,1,100,8|0,0:0|0:0,0:0:0:0:
372,100,169134,1,0,0:0:0:0:
276,132,169309,2,0,B|220:136|220:136|152:124,1,100,2|0,0:2|2:0,0:0:0:0:
296,32,169657,2,0,P|272:136|292:252,1,200
320,320,170181,6,0,B|268:324|268:324|196:304,1,100,4|0,0:0|0:0,0:0:0:0:
180,280,170442,1,0,0:0:0:0:
176,232,170529,2,0,B|184:180|184:180|156:124,1,100,8|0,0:0|0:0,0:0:0:0:
45,44,170878,5,4,0:0:0:0:
100,192,171053,1,0,0:0:0:0:
224,76,171227,1,8,0:0:0:0:
45,44,171402,2,0,B|44:124|24:152|24:152|8:204|40:268,1,200,4|0,0:0|0:0,0:0:0:0:
136,320,171925,1,8,0:0:0:0:
232,224,172099,2,0,P|212:168|264:44,1,200,4|0,0:0|0:0,0:0:0:0:
432,60,172623,1,8,0:0:0:0:
412,248,172797,2,0,B|376:212|376:212|360:156,1,100,4|0,0:0|2:0,0:0:0:0:
496,144,173146,1,0,0:0:0:0:
468,320,173320,1,8,0:0:0:0:
296,228,173495,1,0,0:0:0:0:
328,56,173669,6,0,B|272:48|272:48|224:56,1,100,4|0,0:0|0:0,0:0:0:0:
120,276,174018,1,8,0:0:0:0:
296,140,174192,1,8,0:3:0:0:
296,140,174279,1,8,0:3:0:0:
296,140,174367,2,0,B|212:152|212:152|164:144,2,100,4|0|8,0:3|0:0|0:0,0:0:0:0:
440,124,174890,5,4,0:0:0:0:
280,348,175239,1,4,0:0:0:0:
132,136,175588,1,4,0:0:0:0:
132,136,175762,1,4,0:0:0:0:
256,36,176460,5,4,0:0:0:0:
220,124,176634,2,0,P|176:156|120:164,1,96.0000023437501,0|8,0:0|0:0,0:0:0:0:
56,112,176983,1,0,0:0:0:0:
144,72,177157,2,0,B|220:128|220:128|344:156,1,192.0000046875,0|8,0:0|0:0,0:0:0:0:
412,144,177681,2,0,B|424:200|424:200|416:272,1,96.0000023437501
248,256,178029,2,0,B|300:248|300:248|356:260,1,96.0000023437501,0|8,0:0|0:0,0:0:0:0:
372,348,178378,1,0,0:0:0:0:
276,360,178553,2,0,P|220:360|176:320,1,96.0000023437501
152,248,178902,2,0,P|156:200|112:120,1,96.0000023437501,8|0,0:0|0:0,0:0:0:0:
64,96,179250,5,4,0:0:0:0:
156,68,179425,2,0,B|204:68|204:68|284:100,1,96.0000023437501,0|8,0:0|0:0,0:0:0:0:
296,172,179774,1,0,0:0:0:0:
264,260,179948,2,0,P|308:280|380:292,2,96.0000023437501,0|0|8,0:0|0:0|0:0,0:0:0:0:
296,172,180471,6,0,P|352:152|356:20,1,192.0000046875
256,88,180995,1,8,0:0:0:0:
144,33,181169,2,0,P|137:124|216:172,1,192.0000046875
432,104,181692,2,0,P|380:88|324:96,1,96.0000023437501,8|0,0:0|0:0,0:0:0:0:
384,216,182041,6,0,P|364:268|208:280,1,192.0000046875,4|8,0:0|0:0,0:0:0:0:
256,160,182564,2,0,P|244:112|344:16,1,192.0000046875
396,136,183088,1,8,0:0:0:0:
128,216,183436,6,0,P|148:268|304:280,1,192.0000046875,4|8,0:0|0:0,0:0:0:0:
256,160,183959,2,0,P|268:112|168:16,1,192.0000046875,4|0,0:0|0:0,0:0:0:0:
116,136,184483,1,8,0:0:0:0:
212,272,184657,1,0,0:0:0:0:
40,292,184832,6,0,P|20:244|24:184,1,96.0000023437501,4|0,0:0|0:0,0:0:0:0:
203,98,185181,2,0,P|151:126|103:138,1,96.0000023437501,4|0,0:0|0:0,0:0:0:0:
216,20,185529,2,0,B|268:24|268:24|352:48,1,96.0000023437501,4|0,0:0|0:0,0:0:0:0:
376,180,185878,1,0,0:0:0:0:
232,272,186053,6,0,B|216:224|216:224|224:160,1,96.0000023437501,6|0,0:0|2:0,0:0:0:0:
364,100,186402,2,0,B|308:124|308:124|252:124,1,96.0000023437501,2|0,0:0|2:0,0:0:0:0:
48,12,186750,2,0,P|104:20|204:112,1,192.0000046875,2|2,0:0|0:0,0:0:0:0:
48,328,187623,5,0,2:0:0:0:
128,276,187797,2,0,P|184:264|236:280,1,96.0000023437501,0|12,0:0|0:0,0:0:0:0:
304,320,188146,1,0,0:0:0:0:
372,252,188320,2,0,B|392:208|392:208|396:148,2,96.0000023437501,0|0|8,0:0|0:0|0:0,0:0:0:0:
280,224,188843,2,0,P|244:176|272:44,1,192.0000046875
356,28,189367,1,8,0:0:0:0:
452,40,189541,1,0,0:0:0:0:
408,128,189716,2,0,B|416:180|416:180|440:232,1,96.0000023437501
472,308,190064,2,0,P|440:348|372:348,1,96.0000023437501,8|0,0:0|0:0,0:0:0:0:
308,316,190413,5,4,0:0:0:0:
212,296,190588,1,0,0:0:0:0:
120,316,190762,1,8,0:0:0:0:
40,264,190936,1,0,0:0:0:0:
64,172,191111,2,0,B|76:128|76:128|76:56,2,96.0000023437501,0|0|8,0:0|0:0|0:0,0:0:0:0:
144,224,191634,6,0,P|200:192|216:64,1,192.0000046875,4|0,0:0|0:0,0:0:0:0:
76,77,192157,1,8,0:0:0:0:
144,224,192332,2,0,B|192:276|192:320|192:320|216:352|272:348,1,192.0000046875,4|0,0:0|0:0,0:0:0:0:
360,336,192855,5,8,0:0:0:0:
448,200,193029,1,0,0:0:0:0:
292,192,193204,2,0,P|260:152|344:44,1,192.0000046875,4|8,0:0|0:0,0:0:0:0:
368,168,193727,2,0,P|292:192|228:300,1,192.0000046875
136,360,194250,1,8,0:3:0:0:
44,264,194425,1,4,0:3:0:0:
136,176,194599,6,0,P|152:132|56:16,1,192.0000046875,4|8,0:0|0:0,0:0:0:0:
36,172,195123,2,0,B|140:176|140:176|248:208,1,192.0000046875,4|0,0:0|0:0,0:0:0:0:
304,312,195646,1,8,0:0:0:0:
416,236,195820,1,0,0:0:0:0:
416,236,195907,1,0,0:0:0:0:
416,236,195995,6,0,P|400:172|416:120,1,96.0000023437501,4|0,0:0|0:0,0:0:0:0:
416,96,196256,1,0,0:0:0:0:
368,92,196343,2,0,B|316:88|316:88|256:64,2,96.0000023437501,0|0|4,0:0|0:0|0:0,0:0:0:0:
308,168,196867,1,0,0:0:0:0:
160,244,197041,1,0,0:0:0:0:
168,88,197216,1,0,0:0:0:0:
308,168,197390,6,0,P|312:224|248:348,1,192.0000046875,4|8,0:0|0:0,0:0:0:0:
88,296,197913,2,0,P|84:240|148:116,1,192.0000046875,4|0,0:0|0:0,0:0:0:0:
248,60,198436,2,0,P|296:48|348:52,1,96.0000023437501,8|0,0:0|0:0,0:0:0:0:
432,128,198785,6,0,P|440:184|356:332,1,192.0000046875,4|8,0:0|0:0,0:0:0:0:
176,204,199309,2,0,P|224:188|320:280,1,192.0000046875,2|0,0:0|0:0,0:0:0:0:
256,360,199832,1,8,0:0:0:0:
80,128,200181,6,0,P|72:184|156:332,1,192.0000046875,4|8,0:0|0:0,0:0:0:0:
336,204,200705,2,0,P|288:188|192:280,1,192.0000046875,2|0,0:0|0:0,0:0:0:0:
256,360,201228,1,8,0:0:0:0:
448,304,201576,6,0,P|460:252|416:116,1,192.0000046875,4|8,0:0|0:0,0:0:0:0:
200,180,202099,2,0,P|264:180|352:88,1,192.0000046875,2|0,0:0|0:0,0:0:0:0:
252,12,202623,1,8,0:0:0:0:
120,56,202798,1,0,0:0:0:0:
200,180,202971,1,8,0:0:0:0:
448,352,204192,6,0,P|456:296|404:144,1,192.0000046875,4|0,0:0|0:0,0:0:0:0:
196,248,204716,2,0,P|252:256|344:164,1,192.0000046875,8|0,0:0|0:0,0:0:0:0:
256,64,205239,1,0,0:0:0:0:
168,169,205413,2,0,P|223:244|316:248,1,192.0000046875,8|0,0:0|0:0,0:0:0:0:
292,120,205936,1,0,0:0:0:0:
136,84,206111,1,8,0:0:0:0:
100,248,206285,1,0,0:0:0:0:
272,292,206460,2,0,P|336:304|376:304,1,96.0000023437501
480,212,206809,6,0,P|424:188|276:188,1,192.0000046875,4|8,0:0|0:0,0:0:0:0:
148,312,207332,2,0,P|172:252|176:108,1,192.0000046875,4|0,0:0|0:0,0:0:0:0:
68,28,207855,1,8,0:0:0:0:
20,180,208029,1,4,0:0:0:0:
256,192,208204,12,4,210123,0:0:0:0:
