osu file format v14

[General]
AudioFilename: Suzumiya_Haruhi_no_Yuuutsu_-_Hare_Hare_Yukai.mp3
AudioLeadIn: 0
PreviewTime: 48088
Countdown: 0
SampleSet: Normal
StackLeniency: 0.7
Mode: 0
LetterboxInBreaks: 0
WidescreenStoryboard: 1

[Editor]
Bookmarks: 14599,48088,78785,89948,123436,154134,176460,211343
DistanceSpacing: 1
BeatDivisor: 4
GridSize: 8
TimelineZoom: 1

[Metadata]
Title:Hare Hare Yukai
TitleUnicode:ハレ晴レユカイ
Artist:Aya Hirano
ArtistUnicode:平野綾
Creator:CDFA
Version:Collab
Source:涼宮ハルヒの憂鬱
Tags:Zero__wind UndeadCapulet jonathanlfj love frostmourne cheesiest reditum frostxE anime the dissapearance of haruhi suzumiya melancholy
BeatmapID:281542
BeatmapSetID:106499

[Difficulty]
HPDrainRate:7
CircleSize:4
OverallDifficulty:7
ApproachRate:8.5
SliderMultiplier:2
SliderTickRate:1

[Events]
//Background and Video events
0,0,"1450819974_809.jpg",0,0
//Break Periods
2,78985,89244
//Storyboard Layer 0 (Background)
//Storyboard Layer 1 (Fail)
//Storyboard Layer 2 (Pass)
//Storyboard Layer 3 (Foreground)
Sprite,Foreground,Centre,"Storyboard\zerowind.png",120,250 S,0,14425,14599,2,1 S,0,47739,48088,1,0
Sprite,Foreground,Centre,"Storyboard\jonathanlfj.png",120,250 S,0,89774,89948,2,1 S,0,123088,123262,1,0
Sprite,Foreground,Centre,"Storyboard\tur00.png",120,250 S,0,47913,48088,2,1 S,0,78611,78785,1,0
Sprite,Foreground,Centre,"Storyboard\love.png",120,250 S,0,123262,123436,2,1 S,0,153785,153960,1,0
Sprite,Foreground,Centre,"Storyboard\frostmourne.png",120,250 S,0,153960,154134,2,1 S,0,176111,176285,1,0
Sprite,Foreground,Centre,"Storyboard\cheesiest.png",120,250 S,0,176285,176460,2,1 S,0,209984,210123,1,0
//Storyboard Sound Samples

[TimingPoints]
646.263110369147,348.837209302326,4,2,1,60,1,0
14599,-100,4,2,1,60,0,0
36925,-166.666666666667,4,2,1,60,0,0
41809,-100,4,2,1,60,0,0
45297,-100,4,2,1,70,0,0
46518,-100,4,2,1,80,0,0
48088,-100,4,1,1,80,0,0
74948,-100,4,2,1,80,0,0
75471,-166.666666666667,4,2,1,80,0,0
75820,-100,4,1,1,80,0,0
89774,-100,4,2,1,80,0,0
89948,-100,4,2,1,70,0,0
112274,-125,4,1,1,60,0,0
117855,-100,4,1,1,70,0,0
121867,-100,4,1,1,75,0,0
123262,-100,4,1,1,40,0,0
123436,-100,4,1,1,70,0,0
146809,-100,4,1,1,40,0,0
148204,-100,4,1,1,70,0,0
150297,-133.333333333333,4,1,1,70,0,0
150820,-100,4,1,1,70,0,0
165297,-166.666666666667,4,1,1,70,0,0
165384,-166.666666666667,4,1,1,45,0,0
170878,-125,4,1,1,60,0,0
176460,-104.166666666667,4,1,0,70,0,0
202448,-96.1538461538461,4,1,0,70,0,0
202971,-104.166666666667,4,1,0,70,0,0

[Colours]
Combo1 : 255,0,0
Combo2 : 255,128,128
Combo3 : 128,0,0
Combo4 : 128,0,64

[HitObjects]
108,124,14599,6,0,P|139:185|216:208,1,150,4|0,0:0|0:0,0:0:0:0:
297,264,14948,2,0,P|243:273|211:303,1,100,8|0,0:0|0:0,0:0:0:0:
208,108,15297,1,0,0:0:0:0:
340,8,15471,2,0,B|389:7|431:47,1,100,0|8,0:0|0:0,0:0:0:0:
352,156,15820,1,0,0:0:0:0:
352,256,15995,6,0,P|401:318|468:324,1,150
436,208,16343,2,0,P|448:160|440:104,1,100,8|0,0:0|0:0,0:0:0:0:
260,80,16692,1,0,0:0:0:0:
293,229,16867,2,0,P|329:207|352:156,2,100,0|8|0,0:0|0:0|0:0,0:0:0:0:
116,328,17390,6,0,P|43:283|32:224,1,150
53,152,17739,1,8,0:0:0:0:
204,20,17913,1,4,0:0:0:0:
204,20,18262,1,0,0:0:0:0:
53,47,18436,1,8,0:0:0:0:
204,179,18611,6,0,P|259:168|292:140,1,100,2|0,0:0|0:0,0:0:0:0:
147,256,18960,6,0,P|189:219|204:179,1,100,2|8,0:0|0:0,0:0:0:0:
136,352,19309,5,2,0:0:0:0:
136,352,19396,1,0,0:0:0:0:
136,352,19483,2,0,P|154:299|147:257,1,100,8|2,0:0|0:0,0:0:0:0:
20,296,19832,1,10,0:0:0:0:
136,352,20006,1,0,0:0:0:0:
174,364,20093,1,8,0:0:0:0:
214,371,20181,6,0,P|283:344|336:284,1,150,4|0,0:0|0:0,0:0:0:0:
433,292,20529,2,0,P|417:236|385:204,1,100,8|0,0:0|0:0,0:0:0:0:
224,244,20878,1,0,0:0:0:0:
308,140,21053,2,0,P|359:116|384:80,1,100,0|8,0:0|0:0,0:0:0:0:
267,19,21402,1,0,0:0:0:0:
281,33,21489,1,0,0:0:0:0:
295,48,21576,5,2,0:0:0:0:
456,168,21838,1,0,0:0:0:0:
490,147,21925,1,8,0:0:0:0:
412,40,22099,1,0,0:0:0:0:
308,140,22274,2,0,P|252:138|216:112,1,100
40,20,22623,2,0,P|66:69|61:113,1,100,8|0,0:0|0:0,0:0:0:0:
29,179,22884,1,0,0:0:0:0:
29,179,22971,6,0,P|42:251|100:300,1,150
184,352,23320,2,0,L|280:324,1,100,8|0,0:0|0:0,0:0:0:0:
280,324,23843,1,0,0:0:0:0:
432,200,24018,1,8,0:0:0:0:
368,276,24192,1,4,0:0:0:0:
368,276,24541,5,2,0:0:0:0:
432,200,24716,1,2,0:0:0:0:
408,88,24890,1,2,0:0:0:0:
304,10,25064,1,2,0:0:0:0:
159,14,25239,1,2,0:0:0:0:
40,121,25413,1,2,0:0:0:0:
80,292,25588,1,2,0:0:0:0:
257,359,25762,6,0,P|329:336|368:276,1,150,4|0,0:0|0:0,0:0:0:0:
348,177,26111,2,0,P|303:197|273:240,1,100,8|0,0:0|0:0,0:0:0:0:
352,345,26460,2,0,B|392:376|446:374,1,100
430,241,26809,1,10,0:0:0:0:
404,76,26983,2,0,L|360:52,1,50
269,12,27157,6,0,P|267:88|316:141,1,150
217,166,27506,2,0,P|163:149|132:116,1,100,8|0,0:0|0:0,0:0:0:0:
4,268,27855,1,0,0:0:0:0:
76,200,28029,1,0,0:0:0:0:
44,104,28204,1,10,0:0:0:0:
4,268,28378,2,0,L|48:292,1,50
99,348,28553,6,0,P|168:340|220:280,1,150
210,207,28902,1,8,0:0:0:0:
328,368,29076,1,4,0:0:0:0:
328,368,29425,1,0,0:0:0:0:
436,240,29599,1,8,0:0:0:0:
320,76,29774,2,0,P|274:49|226:49,1,100,2|0,0:0|0:0,0:0:0:0:
429,135,30123,6,0,P|475:108|499:67,1,100,2|8,0:0|0:0,0:0:0:0:
324,200,30471,5,2,0:0:0:0:
324,200,30559,1,0,0:0:0:0:
324,200,30646,2,0,P|323:253|347:294,1,100,8|2,0:0|0:0,0:0:0:0:
436,240,30995,1,10,0:0:0:0:
324,200,31169,1,0,0:0:0:0:
285,192,31256,1,8,0:0:0:0:
245,189,31343,6,0,P|169:208|131:265,1,150,4|0,0:0|0:0,0:0:0:0:
42,312,31692,2,0,P|81:353|124:365,1,100,8|0,0:0|0:0,0:0:0:0:
232,292,32041,1,0,0:0:0:0:
324,200,32216,2,0,P|350:151|348:104,1,100,0|8,0:0|0:0,0:0:0:0:
228,52,32564,1,0,0:0:0:0:
210,41,32651,1,0,0:0:0:0:
193,31,32738,5,2,0:0:0:0:
67,107,33000,1,0,0:0:0:0:
33,86,33087,1,8,0:0:0:0:
100,12,33262,1,0,0:0:0:0:
161,126,33436,2,0,P|142:179|108:208,1,100
224,372,33785,2,0,P|243:319|277:290,1,100,8|0,0:0|0:0,0:0:0:0:
350,303,34047,1,0,0:0:0:0:
350,303,34134,6,0,P|397:244|400:172,1,150
412,272,34483,2,0,L|488:344,1,100,8|0,0:0|0:0,0:0:0:0:
484,340,35006,1,0,0:0:0:0:
399,171,35181,1,8,0:0:0:0:
350,303,35355,1,0,0:0:0:0:
196,368,35529,6,0,P|138:351|112:320,1,100,4|0,0:0|0:0,0:0:0:0:
78,186,35878,1,8,0:0:0:0:
208,110,36053,1,0,3:0:0:0:
208,260,36227,1,8,0:0:0:0:
336,133,36402,1,8,0:0:0:0:
164,185,36576,1,8,0:0:0:0:
323,268,36750,1,8,0:0:0:0:
78,186,36925,6,0,P|77:100|140:32,1,179.999994506836,4|0,0:0|0:0,0:0:0:0:
240,68,37623,2,0,P|296:87|356:76,1,119.999996337891,8|2,0:0|0:0,0:0:0:0:
444,16,38146,1,0,0:0:0:0:
452,123,38320,2,0,B|478:211|426:211|452:299,1,179.999994506836,8|2,0:0|0:0,0:0:0:0:
391,356,39018,1,8,0:0:0:0:
368,276,39192,2,0,P|366:238|370:214,2,59.9999981689454,0|2|0,0:0|0:0|0:0,0:0:0:0:
391,356,39716,6,0,B|328:363|301:321|301:321|224:344,1,179.999994506836,8|0,0:0|0:0,0:0:0:0:
119,345,40413,2,0,P|139:281|178:247,1,119.999996337891,8|0,0:0|0:0,0:0:0:0:
268,132,40936,1,2,0:0:0:0:
65,202,41285,1,2,0:0:0:0:
226,343,41634,1,2,0:0:0:0:
226,343,41809,5,8,0:0:0:0:
332,216,42070,1,2,0:0:0:0:
332,216,42157,2,0,P|364:172|372:128,1,100,10|0,0:0|0:0,0:0:0:0:
232,216,42506,6,0,P|286:298|381:300,1,200,4|8,0:0|0:0,0:0:0:0:
451,93,43029,2,0,P|358:124|332:216,1,200,4|0,0:0|0:0,0:0:0:0:
389,314,43553,1,8,0:0:0:0:
168,292,43727,6,0,P|140:192|200:120,1,200,4|0,0:0|0:0,0:0:0:0:
252,216,44250,1,8,0:0:0:0:
124,372,44425,2,0,B|92:364|92:364|108:344|108:344|72:309|55:256|58:214,1,200,4|0,0:0|0:0,0:0:0:0:
155,13,44948,1,8,0:0:0:0:
252,216,45123,1,0,0:0:0:0:
252,216,45210,1,8,0:0:0:0:
252,216,45297,6,0,P|150:209|98:132,1,200,4|0,0:0|0:0,0:0:0:0:
292,20,45820,1,0,0:0:0:0:
292,20,45907,1,0,0:0:0:0:
292,20,45995,2,0,L|381:64,1,100
252,216,46343,1,8,0:0:0:0:
381,64,46518,5,4,0:0:0:0:
12,198,46867,1,4,0:0:0:0:
343,205,47216,1,4,0:0:0:0:
132,282,47390,5,4,0:0:0:0:
475,34,48088,5,4,0:0:0:0:
434,234,48262,2,0,P|368:223|334:195,1,100,0|8,0:0|0:0,0:0:0:0:
259,31,48611,1,0,0:0:0:0:
238,118,48785,2,0,P|187:88|169:37,1,100
0,156,49134,1,8,0:0:0:0:
34,237,49309,2,0,L|25:350,1,100
171,371,49657,1,0,0:0:0:0:
258,193,49832,1,8,0:0:0:0:
238,118,50006,2,0,L|213:17,1,100
363,293,50355,2,0,L|338:192,2,100,0|8|0,0:0|0:0|0:0,0:0:0:0:
448,315,50791,1,0,0:0:0:0:
448,315,50878,5,4,0:0:0:0:
417,143,51053,2,0,P|364:161|331:222,1,100,0|8,0:0|0:0,0:0:0:0:
202,354,51402,1,0,0:0:0:0:
110,343,51576,2,0,P|140:278|184:266,1,100
187,61,51925,1,8,0:0:0:0:
124,131,52099,2,0,P|95:67|100:36,1,100
369,28,52448,1,0,0:0:0:0:
442,153,52623,1,8,0:0:0:0:
375,353,52797,2,0,L|356:215,1,100
260,19,53146,1,0,0:0:0:0:
361,253,53320,1,8,0:0:0:0:
272,184,53495,1,0,0:0:0:0:
272,184,53582,1,0,0:0:0:0:
272,184,53669,6,0,P|207:214|67:200,1,200,4|8,0:0|0:0,0:0:0:0:
133,327,54192,2,0,P|200:362|239:360,2,100
120,114,54716,2,0,L|106:11,1,100,8|0,0:0|0:0,0:0:0:0:
240,184,55064,6,0,P|305:214|445:200,1,200,4|8,0:0|0:0,0:0:0:0:
265,8,55588,2,0,P|137:82|110:137,1,200,4|0,0:0|0:0,0:0:0:0:
292,353,56111,2,0,P|385:366|423:361,1,100,8|0,0:0|0:0,0:0:0:0:
209,311,56460,5,4,0:0:0:0:
101,293,56634,1,0,0:0:0:0:
41,195,56809,1,8,0:0:0:0:
160,155,56983,1,0,0:0:0:0:
160,155,57070,1,0,0:0:0:0:
160,155,57157,1,0,0:0:0:0:
45,95,57332,1,0,0:0:0:0:
145,27,57506,1,8,0:0:0:0:
232,72,57681,6,0,P|309:72|459:98,3,200,2|2|2|2,0:0|0:0|0:0|0:0,0:0:0:0:
424,296,58902,2,0,L|509:361,1,100
424,296,59250,5,0,0:0:0:0:
382,369,59425,2,0,B|351:360|344:331|344:331|337:344|337:344|320:308|334:234|402:215,1,200,4|0,0:0|0:0,0:0:0:0:
282,12,59948,2,0,L|292:135,1,100
163,337,60297,1,8,0:0:0:0:
95,288,60471,2,0,L|86:188,1,100
206,20,60820,1,0,0:0:0:0:
360,49,60995,1,8,0:0:0:0:
418,206,61169,2,0,L|408:323,1,100
486,32,61518,2,0,L|476:149,2,100,0|8|0,0:0|0:0|0:0,0:0:0:0:
412,12,61954,1,0,0:0:0:0:
412,12,62041,5,4,0:0:0:0:
418,206,62216,2,0,P|489:190|520:158,1,100,0|8,0:0|0:0,0:0:0:0:
201,79,62564,1,0,0:0:0:0:
126,43,62739,2,0,P|165:0|215:0,1,100
179,331,63088,1,8,0:0:0:0:
95,357,63262,2,0,P|91:308|115:265,1,100
53,194,63611,1,0,0:0:0:0:
247,240,63785,1,8,0:0:0:0:
466,164,63960,2,0,P|406:109|371:94,2,100
438,383,64483,1,8,0:0:0:0:
506,301,64657,1,0,0:0:0:0:
506,301,64745,1,0,0:0:0:0:
506,301,64832,6,0,P|482:168|489:89,1,200,4|8,0:0|0:0,0:0:0:0:
284,1,65355,2,0,P|303:92|301:138,2,100
110,268,65878,2,0,P|156:326|191:351,1,100,8|0,0:0|0:0,0:0:0:0:
212,94,66227,6,0,P|103:39|13:27,1,200,4|8,0:0|0:0,0:0:0:0:
300,290,66750,2,0,P|409:345|499:357,1,200,4|0,0:0|0:0,0:0:0:0:
177,170,67274,2,0,P|90:188|40:209,1,100,8|0,0:0|0:0,0:0:0:0:
77,268,67535,1,0,0:0:0:0:
77,268,67623,5,4,0:0:0:0:
206,343,67797,1,0,0:0:0:0:
393,221,67971,1,8,0:0:0:0:
229,256,68146,1,0,0:0:0:0:
229,256,68233,1,0,0:0:0:0:
229,256,68320,1,0,0:0:0:0:
145,138,68495,1,0,0:0:0:0:
250,49,68669,1,8,0:0:0:0:
336,158,68843,1,0,0:0:0:0:
336,158,68931,1,0,0:0:0:0:
336,158,69018,6,0,L|322:277,1,100
434,127,69367,2,0,L|445:27,1,100,8|0,0:0|0:0,0:0:0:0:
445,27,69628,1,0,0:0:0:0:
445,27,69716,1,8,0:0:0:0:
469,208,69890,2,0,L|475:340,1,100,0|8,0:0|0:0,0:0:0:0:
409,374,70239,1,0,0:0:0:0:
322,327,70413,6,0,P|325:237|385:169,1,150,4|0,0:0|0:0,0:0:0:0:
379,203,70762,1,8,0:0:0:0:
240,370,70936,2,0,P|184:341|114:201,1,200
203,23,71460,2,0,P|264:16|321:36,1,100,8|0,0:0|0:0,0:0:0:0:
211,244,71809,6,0,P|208:154|148:86,1,150
154,120,72158,1,8,0:0:0:0:
293,287,72332,2,0,P|349:258|419:118,1,200
304,10,72856,2,0,P|297:71|317:128,1,100,8|0,0:0|0:0,0:0:0:0:
216,163,73204,6,0,P|186:77|110:25,1,150,4|0,0:0|0:0,0:0:0:0:
132,77,73553,1,8,0:0:0:0:
178,304,73727,2,0,P|260:290|366:176,1,200
57,43,74250,2,0,P|52:106|95:164,2,100,8|0|0,0:0|0:0|0:0,0:0:0:0:
132,77,75471,6,0,L|192:89,1,59.9999981689454,0|8,0:0|0:0,0:0:0:0:
267,136,75820,6,0,L|485:119,1,200,4|0,0:0|0:0,0:0:0:0:
380,226,76343,1,8,0:0:0:0:
380,226,76518,2,0,L|501:245,1,100
487,326,76867,1,0,0:0:0:0:
325,311,77041,1,8,0:0:0:0:
325,311,77216,2,0,L|204:330,1,100
134,359,77564,2,0,L|145:240,1,100
57,296,77913,2,0,L|68:177,1,100,0|8,0:0|0:0,0:0:0:0:
44,35,78262,1,0,0:0:0:0:
252,146,78436,1,0,0:0:0:0:
458,50,78611,1,0,0:0:0:0:
472,30,78698,1,0,0:0:0:0:
497,18,78785,1,4,0:0:0:0:
256,192,89948,5,4,0:0:0:0:
256,192,90297,2,0,P|176:216|156:212,1,100,8|0,0:0|0:0,0:0:0:0:
264,88,90646,2,0,P|316:104|352:148,1,100
324,280,90995,1,8,0:0:0:0:
136,292,91169,1,0,0:0:0:0:
136,292,91256,1,0,0:0:0:0:
136,292,91343,6,0,P|188:332|272:332,1,150
324,280,91692,2,0,L|400:208,1,100,8|0,0:0|0:0,0:0:0:0:
384,112,92041,1,0,0:0:0:0:
488,243,92216,2,0,L|416:312,2,100,0|8|0,0:0|0:0|0:0,0:0:0:0:
384,112,92739,6,0,P|308:84|216:164,1,200,0|8,0:0|0:0,0:0:0:0:
244,344,93262,2,0,B|320:284|320:284|316:180,1,200
160,76,93785,1,8,0:0:0:0:
120,232,93960,1,0,0:0:0:0:
120,232,94047,1,0,0:0:0:0:
120,232,94134,6,0,P|168:240|224:224,1,100
392,152,94483,2,0,P|344:144|288:160,1,100,8|0,0:0|0:0,0:0:0:0:
130,284,94832,6,0,P|183:274|234:237,1,100,8|0,0:0|0:0,0:0:0:0:
381,99,95181,2,0,P|328:109|277:146,1,100,8|0,0:0|0:0,0:0:0:0:
272,168,95442,1,8,0:0:0:0:
272,208,95529,6,0,B|296:280|296:280|360:320,1,150,4|0,0:0|0:0,0:0:0:0:
424,276,95878,2,0,P|472:284|508:320,2,100,8|0|0,0:0|0:0|0:0,0:0:0:0:
256,344,96402,2,0,B|200:356|164:320|164:320|152:264|96:256,1,200
96,256,96838,1,0,0:0:0:0:
96,256,96925,1,0,0:0:0:0:
56,92,97099,5,0,0:0:0:0:
56,92,97186,1,0,0:0:0:0:
56,92,97274,2,0,L|156:112,1,100,8|0,0:0|0:0,0:0:0:0:
336,212,97623,2,0,L|184:184,2,150
168,264,98320,6,0,P|108:200|184:104,1,200,0|8,0:0|0:0,0:0:0:0:
368,286,98843,2,0,P|413:197|353:133,1,200,0|8,0:0|0:0,0:0:0:0:
256,276,99367,1,8,0:0:0:0:
256,276,99541,6,0,L|256:68,1,200,8|0,0:0|0:0,0:0:0:0:
184,36,100064,1,8,0:0:0:0:
336,52,100239,1,0,0:0:0:0:
172,40,100413,1,8,0:0:0:0:
336,128,100588,1,0,0:0:0:0:
160,44,100762,1,8,0:0:0:0:
336,204,100936,1,8,0:0:0:0:
148,48,101111,6,0,P|112:104|128:184,1,150,4|0,0:0|0:0,0:0:0:0:
200,208,101460,2,0,P|224:248|200:320,1,100,8|0,0:0|0:0,0:0:0:0:
64,332,101809,2,0,P|104:280|156:268,1,100
296,320,102157,1,8,0:0:0:0:
148,356,102332,1,0,0:0:0:0:
216,136,102506,6,0,P|288:176|300:248,1,150
296,320,102855,2,0,L|400:360,1,100,8|0,0:0|0:0,0:0:0:0:
216,224,103204,2,0,L|122:188,2,100,0|0|8,0:0|0:0|0:0,0:0:0:0:
388,220,103727,1,0,0:0:0:0:
388,220,103814,1,0,0:0:0:0:
388,220,103902,6,0,P|408:152|360:68,1,150
377,82,104250,1,8,0:0:0:0:
204,96,104425,2,0,B|240:164|316:160|316:160|300:188|300:220,1,200
372,348,104948,1,8,0:0:0:0:
216,284,105123,6,0,P|164:276|120:292,1,100
300,220,105471,2,0,P|352:212|396:228,1,100,0|8,0:0|0:0,0:0:0:0:
216,196,105820,1,0,0:0:0:0:
216,196,105907,1,0,0:0:0:0:
216,196,105995,2,0,L|204:88,1,100,8|0,0:0|0:0,0:0:0:0:
128,44,106343,1,8,0:0:0:0:
304,116,106518,1,8,0:0:0:0:
304,116,106605,1,0,0:0:0:0:
304,116,106692,6,0,P|372:100|416:32,1,150,4|0,0:0|0:0,0:0:0:0:
415,36,107041,2,0,L|488:112,2,100,8|0|0,0:0|0:0|0:0,0:0:0:0:
424,164,107564,2,0,L|480:360,1,200
344,296,108088,6,0,P|272:296|248:312,1,100
250,309,108349,1,0,0:0:0:0:
250,309,108436,2,0,P|192:304|152:272,1,100,8|0,0:0|0:0,0:0:0:0:
124,136,108785,2,0,P|200:172|228:236,2,150
76,220,109483,6,0,B|172:200|172:200|220:108,1,200,0|8,0:0|0:0,0:0:0:0:
412,88,110006,2,0,B|316:108|316:108|268:200,1,200,0|0,0:0|0:0,0:0:0:0:
296,352,110529,1,8,0:0:0:0:
428,244,110704,1,0,0:0:0:0:
428,244,110791,1,0,0:0:0:0:
428,244,110878,6,0,L|320:268,1,100,4|0,0:0|0:0,0:0:0:0:
352,156,111227,2,0,L|244:132,1,100,8|0,0:0|0:0,0:0:0:0:
372,284,111576,6,0,L|264:308,1,100,8|8,0:0|0:0,0:0:0:0:
300,112,111925,2,0,L|192:88,1,100,12|0,0:0|0:0,0:0:0:0:
72,240,112274,6,0,P|132:244|200:176,1,160,4|0,0:0|0:0,0:0:0:0:
202,90,112797,1,0,0:0:0:0:
202,90,112971,1,0,0:0:0:0:
268,32,113146,2,0,P|312:28|344:40,2,80,0|8|0,0:0|0:0|0:0,0:0:0:0:
300,112,113669,6,0,L|328:188,1,80
327,187,113931,1,0,0:0:0:0:
327,187,114018,1,0,0:0:0:0:
256,316,114192,2,0,L|228:240,1,80
116,120,114541,1,0,0:0:0:0:
144,276,114716,1,8,0:0:0:0:
202,90,114890,1,0,0:0:0:0:
327,187,115064,6,0,B|400:216|454:172|454:172|424:152,1,160
300,112,115588,1,0,0:0:0:0:
300,112,115762,2,0,P|252:156|276:248,1,160,0|8,0:0|0:0,0:0:0:0:
376,272,116285,6,0,B|452:296|452:296|496:368,2,160
192,328,117157,2,0,P|128:324|104:308,1,80
104,180,117506,1,8,0:0:0:0:
120,184,117593,1,0,0:0:0:0:
136,188,117681,1,0,0:0:0:0:
152,192,117768,1,0,0:0:0:0:
168,196,117855,6,0,L|260:148,1,100,4|0,0:0|0:0,0:0:0:0:
384,84,118204,1,8,0:0:0:0:
440,216,118378,1,4,0:0:0:0:
440,216,118727,5,0,0:0:0:0:
296,304,118901,1,8,0:0:0:0:
168,196,119076,1,4,0:0:0:0:
168,196,119425,5,0,0:0:0:0:
264,32,119599,1,8,0:0:0:0:
168,196,119774,2,0,P|96:208|16:100,1,200,4|0,0:0|0:0,0:0:0:0:
160,28,120297,1,8,0:0:0:0:
256,140,120471,1,0,0:0:0:0:
256,140,120559,1,8,0:0:0:0:
256,140,120646,6,0,L|264:240,1,100,4|0,0:3|0:0,0:0:0:0:
432,280,120995,1,8,0:0:0:0:
340,160,121169,1,0,0:0:0:0:
340,160,121256,1,0,0:0:0:0:
340,160,121343,2,0,L|348:260,2,100,8|0|8,0:3|0:0|0:0,0:0:0:0:
256,28,121867,5,4,0:0:0:0:
256,356,122216,1,8,0:0:0:0:
256,192,122564,1,0,0:0:0:0:
188,160,122739,6,0,P|236:264|324:160,1,300,8|0,0:0|0:0,0:0:0:0:
300,64,123436,5,6,0:0:0:0:
300,64,123611,2,0,L|392:108,1,100,2|8,0:0|0:0,0:0:0:0:
192,124,123960,1,2,0:0:0:0:
192,124,124135,2,0,L|284:168,1,100,10|0,0:0|0:0,0:0:0:0:
288,268,124483,1,10,0:0:0:0:
96,168,124657,6,0,P|40:244|96:324,1,200,2|0,0:0|0:0,0:0:0:0:
184,364,125181,1,10,0:0:0:0:
234,254,125355,2,0,P|288:204|392:248,1,200,2|0,0:0|0:0,0:0:0:0:
184,364,125878,1,10,0:0:0:0:
332,348,126053,1,2,0:0:0:0:
108,280,126227,5,6,0:0:0:0:
108,280,126402,2,0,L|80:180,1,100,2|8,0:0|0:0,0:0:0:0:
208,40,126750,1,2,0:0:0:0:
208,40,126925,2,0,L|234:136,1,100,10|0,0:0|0:0,0:0:0:0:
372,192,127274,1,10,0:0:0:0:
164,196,127448,6,0,P|92:176|96:52,1,200,2|2,0:0|0:0,0:0:0:0:
160,24,127971,1,10,0:0:0:0:
72,212,128146,2,0,P|132:292|220:272,1,200,2|0,0:0|0:0,0:0:0:0:
256,180,128669,1,10,0:0:0:0:
272,196,128756,1,0,0:0:0:0:
288,212,128843,1,10,0:0:0:0:
304,228,128931,1,0,0:0:0:0:
320,244,129018,6,0,P|420:252|440:168,1,200,6|8,0:0|0:0,0:0:0:0:
512,240,129541,2,0,P|452:324|356:344,1,200,2|0,0:0|0:0,0:0:0:0:
264,324,130064,1,10,0:0:0:0:
208,240,130239,1,2,0:0:0:0:
192,140,130413,6,0,P|92:132|72:216,1,200,6|8,0:0|0:0,0:0:0:0:
0,144,130936,2,0,P|60:60|156:40,1,200,6|0,0:0|0:0,0:0:0:0:
248,64,131460,2,0,L|328:128,1,100,10|2,0:0|0:0,0:0:0:0:
344,140,131721,1,0,0:0:0:0:
364,156,131809,6,0,L|380:208,3,50
400,216,132157,2,0,L|416:268,3,50,2|0|2|0,0:0|0:0|0:0|0:0,0:0:0:0:
432,284,132506,1,0,0:0:0:0:
312,352,132681,1,2,0:0:0:0:
152,300,132855,1,8,0:0:0:0:
48,132,133029,5,14,0:0:0:0:
148,112,133378,5,10,0:0:0:0:
240,68,133727,5,10,0:0:0:0:
316,4,134076,5,10,0:0:0:0:
316,4,134250,1,8,0:0:0:0:
316,4,134425,1,8,0:0:0:0:
388,72,134599,6,0,L|412:176,2,100,2|2|12,0:0|0:0|0:0,0:0:0:0:
316,204,135123,1,2,0:0:0:0:
316,204,135297,2,0,L|340:308,1,100,10|0,0:0|0:0,0:0:0:0:
428,344,135646,1,10,0:0:0:0:
244,272,135820,6,0,P|136:284|92:356,1,200,2|0,0:0|0:0,0:0:0:0:
92,355,136343,1,10,0:0:0:0:
40,244,136518,2,0,P|20:148|88:80,1,200,2|0,0:0|0:0,0:0:0:0:
176,96,137041,2,0,L|276:116,1,100,10|0,0:0|0:0,0:0:0:0:
274,115,137303,1,8,0:0:0:0:
274,115,137390,5,14,0:0:0:0:
368,88,137564,2,0,L|464:52,1,100,2|8,0:0|0:0,0:0:0:0:
320,196,137913,1,2,0:0:0:0:
226,223,138087,2,0,L|130:259,1,100,10|0,0:0|0:0,0:0:0:0:
328,296,138436,1,10,0:0:0:0:
412,240,138611,6,0,P|471:156|439:68,1,200,2|2,0:0|0:0,0:0:0:0:
256,104,139134,1,10,0:0:0:0:
100,144,139309,2,0,P|41:228|73:316,1,200,2|0,0:0|0:0,0:0:0:0:
172,304,139832,2,0,L|284:280,1,100,10|2,0:0|0:0,0:0:0:0:
269,283,140093,1,8,0:0:0:0:
269,283,140181,6,0,B|336:320|336:320|408:320|456:272,1,200,6|10,0:0|0:0,0:0:0:0:
376,148,140704,2,0,B|309:111|309:111|237:111|189:159,1,200,2|0,0:0|0:0,0:0:0:0:
136,344,141227,2,0,L|168:248,1,100,10|0,0:0|0:0,0:0:0:0:
164,64,141576,6,0,B|72:100|72:100|28:192,1,200,6|10,0:0|0:0,0:0:0:0:
256,244,142099,2,0,B|348:200|348:200|384:108,1,200,6|2,0:0|0:0,0:0:0:0:
412,12,142623,1,8,0:0:0:0:
488,76,142797,1,0,0:0:0:0:
488,76,142884,1,8,0:0:0:0:
488,76,142971,6,0,L|504:176,1,100,6|2,0:0|0:0,0:0:0:0:
436,364,143320,2,0,L|420:265,1,100,10|0,0:0|0:0,0:0:0:0:
396,252,143582,1,0,0:0:0:0:
376,240,143669,2,0,L|360:141,1,100,2|0,0:0|0:0,0:0:0:0:
176,64,144018,2,0,L|191:162,1,100,10|2,0:0|0:0,0:0:0:0:
216,176,144280,1,8,0:0:0:0:
236,188,144367,6,0,L|251:286,2,100,10|2|10,0:0|0:0|0:0,0:0:0:0:
176,360,144890,2,0,P|76:364|28:284,1,200,2|0,0:0|0:0,0:0:0:0:
96,96,145413,2,0,L|56:188,1,100,10|0,0:0|0:0,0:0:0:0:
188,52,145762,6,0,P|280:20|360:32,1,150,6|0,0:0|0:0,0:0:0:0:
356,32,146111,1,8,0:0:0:0:
448,72,146285,2,0,P|484:168|420:228,1,200,2|0,0:0|0:0,0:0:0:0:
512,276,146809,2,0,L|416:320,1,100,10|0,0:0|0:0,0:0:0:0:
324,332,147157,6,0,P|244:320|176:340,1,150,2|0,0:0|0:0,0:0:0:0:
156,352,147506,1,8,0:0:0:0:
64,312,147680,2,0,P|108:224|72:136,1,200,2|2,0:0|0:0,0:0:0:0:
0,108,148204,2,2,L|96:64,1,100,10|0,0:0|0:0,0:0:0:0:
184,32,148553,6,0,P|160:120|188:176,1,150,6|0,0:0|0:0,0:0:0:0:
200,188,148902,1,8,0:0:0:0:
288,308,149076,2,0,P|188:272|124:332,1,200,2|2,0:0|0:0,0:0:0:0:
320,340,149599,2,0,L|424:328,2,100,10|0|10,0:0|0:0|0:0,0:0:0:0:
328,236,150297,6,0,P|256:216|184:236,1,150.000005722046
108,296,150820,2,0,L|48:200,1,100,2|8,0:0|0:0,0:0:0:0:
55,211,151169,1,10,0:0:0:0:
100,80,151518,5,2,0:0:0:0:
100,80,151692,2,0,L|148:168,1,100,2|0,0:0|0:0,0:0:0:0:
244,196,152041,1,8,0:0:0:0:
256,48,152216,1,2,0:0:0:0:
256,48,152390,2,0,L|304:136,1,100,2|0,0:0|0:0,0:0:0:0:
400,164,152739,5,8,0:0:0:0:
496,196,152913,2,0,P|476:244|436:276,1,100,8|10,0:0|0:0,0:0:0:0:
396,132,153262,2,0,P|416:84|456:52,1,100,10|10,0:0|0:0,0:0:0:0:
344,224,153611,2,0,L|376:320,2,100,0|8|0,0:0|0:0|0:0,0:0:0:0:
282,144,154134,6,0,B|200:168|192:256|192:256,1,150,6|0,0:0|0:0,0:0:0:0:
196,268,154483,1,2,0:0:0:0:
272,316,154657,2,0,L|484:280,1,200,2|2,0:0|0:0,0:0:0:0:
488,104,155181,1,2,0:0:0:0:
392,176,155355,1,0,0:0:0:0:
392,176,155442,1,0,0:0:0:0:
392,176,155529,2,0,B|329:176|329:176|262:201|262:201|190:201,1,200,2|2,0:0|0:0,0:0:0:0:
44,140,156053,6,0,B|109:140|109:140|176:115|176:115|239:115,1,200,2|2,0:0|0:0,0:0:0:0:
480,188,156576,1,2,0:0:0:0:
268,316,156750,1,2,0:0:0:0:
264,300,156838,1,0,0:0:0:0:
260,284,156925,2,0,B|248:208|260:128|260:128,1,150,2|0,0:0|0:0,0:0:0:0:
259,134,157274,2,0,L|380:116,1,100,2|0,0:0|0:0,0:0:0:0:
451,170,157623,6,0,B|347:190|259:134|259:134,1,200,2|2,0:0|0:0,0:0:0:0:
104,48,158146,1,0,0:0:0:0:
104,48,158320,2,0,B|64:144|140:144|92:248,1,200,2|0,0:0|0:0,0:0:0:0:
20,188,158843,5,2,0:0:0:0:
20,188,158931,1,0,0:0:0:0:
20,188,159018,1,2,0:0:0:0:
88,344,159192,1,0,0:0:0:0:
184,240,159367,1,4,0:2:0:0:
240,336,159541,1,0,0:0:0:0:
396,296,159716,6,0,P|347:282|288:272,1,100,6|0,0:0|0:0,0:0:0:0:
292,260,159977,1,0,0:0:0:0:
290,245,160064,1,0,0:0:0:0:
399,102,160239,2,0,B|447:202|395:298|395:298,1,200,6|2,0:0|0:0,0:0:0:0:
240,176,160762,5,2,0:0:0:0:
477,297,160936,2,0,B|476:300|528:204|480:104,1,200,6|2,0:0|0:0,0:0:0:0:
288,56,161460,1,2,0:0:0:0:
104,196,161634,2,0,B|164:196|164:196|240:176|240:176|312:176,1,200,6|2,0:0|0:0,0:0:0:0:
301,176,162157,5,0,0:0:0:0:
196,88,162332,1,2,0:0:0:0:
196,88,162419,1,0,0:0:0:0:
196,88,162506,1,4,0:0:0:0:
108,104,162681,1,0,0:0:0:0:
36,52,162855,5,0,0:0:0:0:
104,196,163029,1,0,0:0:0:0:
104,196,163117,1,0,0:0:0:0:
104,196,163204,1,0,0:0:0:0:
156,268,163378,1,0,0:0:0:0:
96,336,163553,5,0,0:0:0:0:
244,248,163727,1,0,0:0:0:0:
244,248,163814,1,0,0:0:0:0:
244,248,163902,1,6,0:0:0:0:
220,336,164076,5,0,0:0:0:0:
328,284,164250,1,2,0:0:0:0:
484,264,164425,5,0,0:0:0:0:
368,208,164599,1,2,0:0:0:0:
188,180,164774,5,0,0:0:0:0:
316,120,164948,1,2,0:0:0:0:
456,172,165123,1,2,0:0:0:0:
408,328,165297,6,0,B|348:336|288:312|288:312,1,119.999996337891,4|0,0:0|0:0,0:0:0:0:
220,276,165820,2,0,B|160:268|100:292|100:292,1,119.999996337891,0|0,0:0|0:0,0:0:0:0:
36,252,166343,1,8,0:0:0:0:
60,176,166518,1,0,0:0:0:0:
84,100,166692,2,0,L|228:100,1,119.999996337891
280,124,167216,2,0,B|340:140|412:104|412:104,1,119.999996337891
397,110,167739,5,12,0:2:0:0:
316,276,167913,1,0,0:0:0:0:
384,312,168088,6,0,B|425:255|403:193|403:193,1,119.999996337891
328,192,168611,1,0,0:0:0:0:
256,220,168785,2,0,L|128:220,1,119.999996337891,0|12,0:0|0:2,0:0:0:0:
72,264,169309,1,0,0:0:0:0:
20,116,169657,1,0,0:0:0:0:
144,296,170006,1,0,0:0:0:0:
144,296,170181,2,0,L|272:296,1,119.999996337891,0|12,0:0|0:2,0:0:0:0:
404,128,170704,1,0,0:0:0:0:
352,188,170878,5,4,0:0:0:0:
384,52,171053,1,0,0:0:0:0:
484,148,171227,1,0,0:0:0:0:
400,276,171402,6,0,B|328:276|328:276|234:221,1,160,4|0,0:0|0:0,0:0:0:0:
296,64,171925,1,0,0:0:0:0:
116,168,172099,2,0,B|188:120|272:144|272:144,1,160,4|0,0:0|0:0,0:0:0:0:
352,188,172623,1,0,0:0:0:0:
256,376,172797,2,0,B|304:304|280:220|280:220,1,160,4|0,0:0|0:0,0:0:0:0:
212,60,173320,5,0,0:0:0:0:
116,168,173495,1,0,0:0:0:0:
112,148,173582,1,0,0:0:0:0:
109,128,173669,1,4,0:0:0:0:
108,108,173756,1,0,0:0:0:0:
109,88,173843,1,0,0:0:0:0:
28,216,174018,5,0,0:0:0:0:
180,296,174192,1,0,0:0:0:0:
187,277,174279,1,0,0:0:0:0:
194,259,174367,1,4,0:0:0:0:
200,240,174454,1,0,0:0:0:0:
207,221,174541,2,0,L|242:118,1,80
256,36,174890,5,6,0:0:0:0:
256,348,175239,1,2,0:0:0:0:
312,164,175588,5,2,0:0:0:0:
116,220,175762,1,2,0:0:0:0:
115,220,176460,5,4,0:0:0:0:
164,300,176634,2,0,B|208:324|256:300|256:300|304:276|348:300,1,192.0000046875
397,380,177157,2,0,P|440:280|397:220,1,192.0000046875,0|8,0:0|0:0,0:0:0:0:
336,144,177681,2,0,P|236:101|176:144,1,192.0000046875
256,196,178204,1,8,0:0:0:0:
256,4,178378,2,0,P|184:18|96:94,1,192.0000046875
68,190,178902,1,8,0:0:0:0:
88,283,179076,1,0,0:0:0:0:
150,355,179250,5,4,0:0:0:0:
244,364,179425,2,0,B|288:388|336:364|336:364|384:340|428:364,1,192.0000046875
291,286,179948,2,0,B|247:262|199:286|199:286|151:310|107:286,1,192.0000046875,0|8,0:0|0:0,0:0:0:0:
64,200,180471,2,0,P|52:116|148:52,1,192.0000046875
140,148,180995,1,8,0:0:0:0:
212,4,181169,2,0,P|300:16|340:108,1,192.0000046875
282,179,181692,2,0,P|260:156|244:96,1,96.0000023437501,8|0,0:0|0:0,0:0:0:0:
376,192,182041,6,0,P|308:272|212:248,1,192.0000046875,4|8,0:0|0:0,0:0:0:0:
216,352,182564,2,0,P|345:349|456:229,1,288.00000703125,0|8,0:0|0:0,0:0:0:0:
460,148,183262,1,0,0:0:0:0:
380,92,183436,6,0,B|336:116|288:92|288:92|240:68|196:92,1,192.0000046875,4|8,0:0|0:0,0:0:0:0:
246,173,183960,2,0,B|287:144|287:91|287:91|288:37|329:9,1,192.0000046875,4|0,0:0|0:0,0:0:0:0:
424,8,184483,2,0,P|456:36|472:108,1,96.0000023437501,8|0,0:0|0:0,0:0:0:0:
468,120,184745,1,0,0:0:0:0:
456,152,184832,6,0,B|432:196|456:244|456:244|480:292|456:336,1,192.0000046875,4|8,0:0|0:0,0:0:0:0:
370,382,185355,1,0,0:0:0:0:
361,360,185442,1,0,0:0:0:0:
358,337,185529,1,0,0:0:0:0:
361,313,185616,1,0,0:0:0:0:
370,290,185703,1,0,0:0:0:0:
164,32,186053,5,4,0:0:0:0:
56,336,186402,1,2,0:0:0:0:
456,335,186750,1,2,0:0:0:0:
140,96,187099,1,2,0:0:0:0:
149,73,187186,1,0,0:0:0:0:
152,49,187273,1,0,0:0:0:0:
149,26,187360,1,0,0:0:0:0:
140,4,187447,1,0,0:0:0:0:
54,51,187623,5,0,0:0:0:0:
59,147,187797,2,0,P|123:191|220:149,1,192.0000046875,4|0,0:0|0:0,0:0:0:0:
140,96,188320,2,0,L|136:312,1,192.0000046875,0|8,0:0|0:0,0:0:0:0:
200,356,188843,2,0,B|244:380|292:356|292:356|340:332|384:356,1,192.0000046875
480,340,189367,1,8,0:0:0:0:
500,248,189541,1,0,0:0:0:0:
464,160,189716,2,0,P|420:140|340:160,1,96.0000023437501
312,216,190064,2,0,P|356:236|436:216,1,96.0000023437501,8|0,0:0|0:0,0:0:0:0:
280,124,190413,5,4,0:0:0:0:
216,196,190588,1,0,0:0:0:0:
148,264,190762,2,0,P|120:308|128:368,1,96.0000023437501,8|0,0:0|0:0,0:0:0:0:
24,368,191111,2,0,P|22:283|78:195,1,192.0000046875,0|8,0:0|0:0,0:0:0:0:
148,128,191634,2,0,P|230:101|310:200,1,192.0000046875
290,258,192157,1,8,0:0:0:0:
216,196,192332,2,0,L|416:124,1,192.0000046875
488,164,192855,2,0,P|464:200|396:228,1,96.0000023437501,8|0,0:0|0:0,0:0:0:0:
310,86,193204,6,0,P|382:35|472:70,1,192.0000046875,4|8,0:0|0:0,0:0:0:0:
488,164,193727,2,0,P|420:224|320:192,1,192.0000046875,0|0,0:0|0:0,0:0:0:0:
244,156,194250,1,8,0:0:0:0:
148,172,194425,1,0,0:0:0:0:
208,248,194599,2,0,P|244:156|164:76,1,192.0000046875,4|8,0:0|0:0,0:0:0:0:
96,92,195123,1,4,0:0:0:0:
368,192,195471,1,0,0:0:0:0:
96,292,195820,1,0,0:0:0:0:
96,292,195907,1,4,0:0:0:0:
96,292,195995,6,0,P|40:272|8:224,1,96.0000023437501
100,196,196343,2,0,P|156:216|188:264,1,96.0000023437501,8|0,0:0|0:0,0:0:0:0:
188,276,196605,1,0,0:0:0:0:
192,308,196692,1,0,0:0:0:0:
264,372,196867,1,0,0:0:0:0:
360,360,197041,1,8,0:0:0:0:
412,280,197216,1,0,0:0:0:0:
376,192,197390,6,0,P|400:136|432:116,1,96.0000023437501,4|0,0:0|0:0,0:0:0:0:
472,204,197739,1,8,0:0:0:0:
412,280,197913,2,0,P|312:264|292:148,1,192.0000046875,4|0,0:0|0:0,0:0:0:0:
216,112,198436,2,0,P|256:92|307:93,1,96.0000023437501,8|0,0:0|0:0,0:0:0:0:
188,208,198785,6,0,B|144:232|96:208|96:208|48:184|4:208,1,192.0000046875,4|8,0:0|0:0,0:0:0:0:
49,293,199309,1,0,0:0:0:0:
143,123,199657,2,0,B|236:144|236:144|256:92|312:80,1,192.0000046875
324,176,200181,6,0,B|368:152|416:176|416:176|464:200|508:176,1,192.0000046875,0|8,0:0|0:0,0:0:0:0:
463,91,200705,1,0,0:0:0:0:
369,261,201053,1,0,0:0:0:0:
276,240,201227,2,0,B|256:292|200:304,1,96.0000023437501,8|0,0:0|0:0,0:0:0:0:
188,208,201576,6,0,P|256:148|362:207,1,192.0000046875,4|8,0:0|0:0,0:0:0:0:
369,261,202099,1,0,0:0:0:0:
320,60,202448,2,0,P|236:60|92:224,1,311.999998095703,0|2,0:0|0:0,0:0:0:0:
276,240,203843,5,0,0:0:0:0:
276,240,204018,1,8,0:0:0:0:
276,240,204192,2,0,P|236:288|112:264,1,192.0000046875,4|0,0:0|0:0,0:0:0:0:
188,208,204716,1,0,0:0:0:0:
300,52,205064,5,0,0:0:0:0:
300,52,205239,1,0,0:0:0:0:
300,52,205413,2,0,B|344:28|392:52|392:52|440:76|484:52,1,192.0000046875
504,148,205936,5,0,0:0:0:0:
464,236,206111,2,0,P|408:252|356:236,1,96.0000023437501
276,240,206460,1,0,0:0:0:0:
276,240,206809,6,0,P|272:152|164:104,1,192.0000046875,4|8,0:0|0:0,0:0:0:0:
100,160,207332,2,0,P|104:248|212:296,1,192.0000046875
276,336,207855,1,8,0:0:0:0:
188,200,208029,6,0,L|16:308,1,192.0000046875,2|0,0:0|0:0,0:0:0:0:
0,192,208553,1,8,0:0:0:0:
44,108,208727,6,0,B|88:84|136:108|136:108|184:132|228:108,1,192.0000046875,2|0,0:0|0:0,0:0:0:0:
272,24,209250,1,8,0:0:0:0:
177,25,209425,6,0,B|136:53|135:107|135:107|135:160|94:189,1,192.0000046875,2|2,0:0|0:0,0:0:0:0:
436,364,210123,5,6,0:0:0:0:
