osu file format v14

[General]
AudioFilename: audio.mp3
AudioLeadIn: 0
PreviewTime: 65871
Countdown: 0
SampleSet: Soft
StackLeniency: 0.2
Mode: 0
LetterboxInBreaks: 0
WidescreenStoryboard: 0

[Editor]
DistanceSpacing: 2.8
BeatDivisor: 4
GridSize: 8
TimelineZoom: 1

[Metadata]
Title:God Knows [Short ver.]
TitleUnicode:God Knows [Short ver.]
Artist:Aya Hirano
ArtistUnicode:Aya Hirano
Creator:rockstarrzz
Version:Insane
Source:The Melancholy of Haruhi Suzumiya
Tags:
BeatmapID:2063474
BeatmapSetID:986321

[Difficulty]
HPDrainRate:5
CircleSize:4.5
OverallDifficulty:7.5
ApproachRate:9.5
SliderMultiplier:1.8
SliderTickRate:1

[Events]
//Background and Video events
0,0,"anime_anime_girls_brunette_redhead_short_hair_yellow_eyes_smiling_looking_at_viewer-53224.png",0,0
//Break Periods
//Storyboard Layer 0 (Background)
//Storyboard Layer 1 (Fail)
//Storyboard Layer 2 (Pass)
//Storyboard Layer 3 (Foreground)
//Storyboard Sound Samples

[TimingPoints]
671,400,4,2,0,100,1,0
671,-100,4,2,0,40,0,0
2271,-80,4,2,0,40,0,0
27871,-100,4,2,0,40,0,0
40671,-90.9090909090909,4,2,0,40,0,0
53471,-80,4,2,0,40,0,0
66271,-71.4285714285714,4,2,0,40,0,1
69271,-62.5,4,2,0,40,0,1
72671,-71.4285714285714,4,2,0,40,0,1
82071,-66.6666666666667,4,2,0,40,0,1
83671,-62.5,4,2,0,40,0,1
85471,-71.4285714285714,4,2,0,40,0,1
94871,-71.4285714285714,4,2,0,40,0,0

[HitObjects]
120,40,671,6,0,L|130:99,1,45
280,88,1071,2,0,L|272:141,1,45
12,206,1471,2,0,P|64:217|112:254,1,90
146,314,1771,1,0,0:0:0:0:
182,349,1871,1,0,0:0:0:0:
231,367,1971,1,0,0:0:0:0:
281,362,2071,1,0,0:0:0:0:
373,298,2271,5,0,0:0:0:0:
456,221,2471,1,0,0:0:0:0:
456,221,2571,1,0,0:0:0:0:
456,221,2671,2,0,L|440:93,1,112.5
340,25,3071,1,0,0:0:0:0:
245,126,3271,1,0,0:0:0:0:
145,43,3471,2,0,P|82:33|-1:74,1,112.5
35,47,3871,5,0,0:0:0:0:
114,157,4071,1,0,0:0:0:0:
28,271,4271,1,0,0:0:0:0:
179,281,4471,1,0,0:0:0:0:
179,281,4571,1,0,0:0:0:0:
179,281,4671,2,0,L|310:266,2,112.5
28,271,5271,1,0,0:0:0:0:
35,47,5471,5,0,0:0:0:0:
186,15,5671,1,0,0:0:0:0:
96,174,5871,1,0,0:0:0:0:
272,145,6071,1,0,0:0:0:0:
272,145,6171,1,0,0:0:0:0:
272,145,6271,2,0,P|325:163|370:218,1,112.5
363,203,6671,1,0,0:0:0:0:
89,322,6871,6,0,B|115:329|127:343|127:343|161:319|230:323,1,112.5
304,321,7271,1,0,0:0:0:0:
153,241,7471,1,0,0:0:0:0:
421,192,7671,2,0,B|471:174|486:221|462:261|417:267|382:151|282:219,1,225
315,204,8271,1,0,0:0:0:0:
248,57,8471,1,0,0:0:0:0:
83,209,8671,6,0,L|90:341,2,112.5
139,51,9271,1,0,0:0:0:0:
139,51,9371,1,0,0:0:0:0:
139,51,9471,2,0,P|212:65|267:47,1,112.5
374,29,9871,1,0,0:0:0:0:
315,204,10071,1,0,0:0:0:0:
489,128,10271,6,0,L|503:248,2,112.5
310,104,10871,1,0,0:0:0:0:
272,108,10971,1,0,0:0:0:0:
244,132,11071,1,0,0:0:0:0:
171,273,11271,1,0,0:0:0:0:
14,160,11471,2,0,P|78:148|142:173,1,112.5
319,242,11871,5,0,0:0:0:0:
350,256,11971,1,0,0:0:0:0:
383,270,12071,1,0,0:0:0:0:
416,284,12171,1,0,0:0:0:0:
452,300,12271,2,0,L|505:238,3,56.25
245,302,12671,5,0,0:0:0:0:
242,267,12771,1,0,0:0:0:0:
237,232,12871,1,0,0:0:0:0:
233,196,12971,1,0,0:0:0:0:
229,157,13071,2,0,L|149:144,3,56.25
323,163,13471,5,0,0:0:0:0:
216,31,13671,1,0,0:0:0:0:
84,137,13871,1,0,0:0:0:0:
191,269,14071,1,0,0:0:0:0:
323,163,14271,2,0,L|334:82,2,56.25
362,296,14671,2,0,P|418:284|501:322,1,112.5
267,366,14971,1,0,0:0:0:0:
271,371,15071,6,0,L|281:241,1,112.5
293,60,15471,1,0,0:0:0:0:
431,170,15671,1,0,0:0:0:0:
431,170,15771,1,0,0:0:0:0:
431,170,15871,2,0,P|366:154|306:170,1,112.5
322,162,16271,1,0,0:0:0:0:
188,246,16471,1,0,0:0:0:0:
51,154,16671,6,0,L|40:266,2,112.5
160,55,17271,1,0,0:0:0:0:
160,55,17371,1,0,0:0:0:0:
160,55,17471,2,0,P|221:63|305:43,1,112.5
271,55,17871,1,0,0:0:0:0:
255,236,18071,1,0,0:0:0:0:
413,225,18271,6,0,B|413:176|413:176|422:155|422:155|424:77,1,112.5
350,272,18571,6,0,B|337:224|337:224|340:202|340:202|322:126,1,112.5
302,337,18871,6,0,B|277:294|277:294|274:271|274:271|237:203,1,112.5
176,65,19271,1,0,0:0:0:0:
129,197,19471,1,0,0:0:0:0:
33,35,19671,1,0,0:0:0:0:
108,306,19871,6,0,P|128:253|129:197,1,112.5
15,224,20271,1,0,0:0:0:0:
188,78,20471,1,0,0:0:0:0:
210,60,20571,1,0,0:0:0:0:
235,45,20671,2,0,L|359:56,2,112.5
144,162,21271,1,0,0:0:0:0:
272,267,21471,6,0,P|327:259|370:224,1,112.5
411,123,21871,1,0,0:0:0:0:
482,345,22071,1,0,0:0:0:0:
482,345,22171,1,0,0:0:0:0:
482,345,22271,2,0,L|487:230,2,112.5
347,343,22871,1,0,0:0:0:0:
237,268,23071,6,0,P|179:258|125:280,1,112.5
37,349,23471,1,0,0:0:0:0:
35,225,23671,1,0,0:0:0:0:
30,186,23771,1,0,0:0:0:0:
27,149,23871,1,0,0:0:0:0:
12,25,24071,1,0,0:0:0:0:
138,89,24271,2,0,P|215:103|281:71,1,112.5
376,40,24671,5,0,0:0:0:0:
390,70,24771,1,0,0:0:0:0:
407,102,24871,1,0,0:0:0:0:
422,135,24971,1,0,0:0:0:0:
440,169,25071,2,0,L|520:156,3,56.25
390,268,25471,1,0,0:0:0:0:
341,256,25571,1,0,0:0:0:0:
291,258,25671,1,0,0:0:0:0:
244,275,25771,1,0,0:0:0:0:
210,311,25871,2,0,L|222:391,3,56.25
62,175,26271,6,0,B|174:132|166:234|302:167,1,225
472,120,26871,1,0,0:0:0:0:
469,148,26971,1,0,0:0:0:0:
466,173,27071,2,0,L|453:293,1,112.5
453,284,27471,2,0,P|375:253|291:279,1,168.75
224,336,27871,6,0,B|208:312|208:312|208:216,1,90
280,48,28271,2,0,B|296:72|296:72|296:168,1,90
112,168,28671,2,0,B|136:152|136:152|232:152,1,90
392,216,29071,2,0,B|368:232|368:232|272:232,1,90
48,48,29471,5,0,0:0:0:0:
464,48,29871,1,0,0:0:0:0:
48,48,30271,1,0,0:0:0:0:
464,48,30671,1,0,0:0:0:0:
136,256,31071,6,0,P|96:184|104:160,1,90
376,128,31471,2,0,P|416:200|408:224,1,90
192,72,31871,2,0,P|264:32|288:40,1,90
320,312,32271,2,0,P|247:352|224:344,1,90
48,336,32671,5,0,0:0:0:0:
464,336,33071,1,0,0:0:0:0:
48,336,33471,1,0,0:0:0:0:
464,336,33871,1,0,0:0:0:0:
64,64,34271,6,0,L|72:176,1,90
192,136,34671,2,0,L|184:248,1,90
320,136,35071,2,0,L|328:248,1,90
448,64,35471,2,0,L|440:176,1,90
256,344,35871,5,0,0:0:0:0:
256,40,36271,1,0,0:0:0:0:
256,344,36671,1,0,0:0:0:0:
256,40,37071,1,0,0:0:0:0:
96,224,37471,6,0,P|192:192|208:192,1,90
416,224,37871,2,0,P|320:192|304:192,1,90
16,208,38271,2,0,P|83:132|96:124,1,90
488,200,38671,1,0,0:0:0:0:
352,72,38871,6,0,B|314:41|308:19|308:19|320:88|272:146,1,180
192,216,39471,1,0,0:0:0:0:
192,48,39671,1,0,0:0:0:0:
488,200,39871,2,0,B|456:184|456:184|448:216|448:216|384:192|360:216|312:232,1,180
192,216,40471,1,0,0:0:0:0:
192,216,40671,6,0,P|176:120|160:96,1,99.0000030212403
152,312,41071,2,0,P|248:296|272:280,1,99.0000030212403
56,272,41471,2,0,P|72:368|88:392,1,99.0000030212403
96,176,41871,2,0,P|0:192|-24:208,1,99.0000030212403
240,80,42271,6,0,L|112:96,1,99.0000030212403
320,168,42671,2,0,L|221:155,1,99.0000030212403
392,240,43071,2,0,L|264:256,1,99.0000030212403
472,328,43471,2,0,L|373:315,1,99.0000030212403
321,64,43871,6,0,P|336:110|336:159,1,99.0000030212403
145,136,44271,2,0,P|191:120|240:120,1,99.0000030212403
448,152,44671,6,0,L|464:248,3,49.5000015106202
400,264,45071,2,0,L|384:360,3,49.5000015106202
240,200,45471,1,0,0:0:0:0:
207,196,45571,1,0,0:0:0:0:
176,208,45671,1,0,0:0:0:0:
155,233,45771,1,0,0:0:0:0:
144,272,45871,2,0,L|136:328,3,49.5000015106202
240,288,46271,5,0,0:0:0:0:
292,265,46371,1,0,0:0:0:0:
327,221,46471,1,0,0:0:0:0:
337,166,46571,1,0,0:0:0:0:
328,112,46671,2,0,L|320:62,3,49.5000015106202
224,24,47071,5,0,0:0:0:0:
224,24,47271,1,0,0:0:0:0:
144,96,47471,1,0,0:0:0:0:
144,96,47671,1,0,0:0:0:0:
224,176,47871,1,0,0:0:0:0:
224,176,48071,1,0,0:0:0:0:
144,248,48271,1,0,0:0:0:0:
144,248,48471,1,0,0:0:0:0:
256,352,48671,5,0,0:0:0:0:
272,240,48871,1,0,0:0:0:0:
336,320,49071,1,0,0:0:0:0:
352,208,49271,1,0,0:0:0:0:
416,288,49471,1,0,0:0:0:0:
432,176,49671,1,0,0:0:0:0:
496,256,49871,1,0,0:0:0:0:
512,144,50071,1,0,0:0:0:0:
480,40,50271,6,0,L|368:24,1,99.0000030212403
136,144,50671,2,0,L|248:128,1,99.0000030212403
376,120,51071,2,0,L|392:184,3,49.5000015106202
336,304,51471,2,0,L|320:368,3,49.5000015106202
232,296,51871,5,0,0:0:0:0:
184,274,51971,1,0,0:0:0:0:
132,269,52071,1,0,0:0:0:0:
80,281,52171,1,0,0:0:0:0:
40,312,52271,5,0,0:0:0:0:
43,258,52371,1,0,0:0:0:0:
47,204,52471,1,0,0:0:0:0:
52,150,52571,1,0,0:0:0:0:
64,96,52671,2,0,L|72:32,1,49.5000015106202
160,8,52871,2,0,L|153:57,1,49.5000015106202
128,160,53071,2,0,B|200:136|184:200|280:160,1,148.50000453186
352,24,53471,6,0,L|368:152,1,112.5
392,320,53871,1,0,0:0:0:0:
392,320,54071,1,0,0:0:0:0:
280,224,54271,2,0,P|192:216|144:240,1,112.5
56,336,54671,1,0,0:0:0:0:
56,336,54871,1,0,0:0:0:0:
48,192,55071,6,0,L|32:40,1,112.5
176,120,55471,1,0,0:0:0:0:
176,120,55671,1,0,0:0:0:0:
176,224,55871,1,0,0:0:0:0:
72,120,56071,1,0,0:0:0:0:
176,17,56271,1,0,0:0:0:0:
279,120,56471,1,0,0:0:0:0:
176,224,56671,6,0,L|24:232,1,112.5
336,264,57071,1,0,0:0:0:0:
336,264,57271,1,0,0:0:0:0:
184,114,57471,2,0,L|32:122,1,112.5
376,336,57871,1,0,0:0:0:0:
376,336,58071,1,0,0:0:0:0:
368,112,58271,6,0,L|352:-8,1,112.5
136,312,58671,1,0,0:0:0:0:
136,312,58871,1,0,0:0:0:0:
176,136,59071,1,0,0:0:0:0:
320,232,59271,1,0,0:0:0:0:
232,40,59471,1,0,0:0:0:0:
281,335,59671,1,0,0:0:0:0:
416,24,59871,5,0,0:0:0:0:
408,128,60071,1,0,0:0:0:0:
400,232,60271,1,0,0:0:0:0:
392,336,60471,1,0,0:0:0:0:
392,336,60571,1,0,0:0:0:0:
392,336,60671,2,0,P|312:328|248:352,1,112.5
281,335,61071,1,0,0:0:0:0:
136,352,61271,1,0,0:0:0:0:
136,352,61471,6,0,L|144:208,1,112.5
152,80,61871,1,0,0:0:0:0:
152,80,62071,1,0,0:0:0:0:
272,128,62271,1,0,0:0:0:0:
112,176,62471,1,0,0:0:0:0:
352,184,62671,1,0,0:0:0:0:
58,114,62871,1,0,0:0:0:0:
432,136,63071,6,0,B|445:195|445:195|425:264,2,112.5
288,48,63671,1,0,0:0:0:0:
288,48,63871,1,0,0:0:0:0:
175,238,64071,1,0,0:0:0:0:
378,150,64271,1,0,0:0:0:0:
162,102,64471,1,0,0:0:0:0:
309,268,64671,5,0,0:0:0:0:
309,268,64871,1,0,0:0:0:0:
312,288,64971,1,0,0:0:0:0:
315,310,65071,1,0,0:0:0:0:
98,358,65271,1,0,0:0:0:0:
102,325,65371,1,0,0:0:0:0:
105,291,65471,1,0,0:0:0:0:
109,257,65571,1,0,0:0:0:0:
113,223,65671,1,0,0:0:0:0:
127,72,65871,5,0,0:0:0:0:
177,97,65971,1,0,0:0:0:0:
232,107,66071,1,0,0:0:0:0:
288,101,66171,1,0,0:0:0:0:
340,80,66271,6,0,L|332:228,1,125.999996154785
321,347,66671,1,0,0:0:0:0:
157,266,66871,1,0,0:0:0:0:
157,266,66971,1,0,0:0:0:0:
157,266,67071,2,0,P|226:250|319:296,1,125.999996154785
278,263,67471,1,0,0:0:0:0:
340,80,67671,1,0,0:0:0:0:
186,77,67871,5,0,0:0:0:0:
332,213,68071,1,0,0:0:0:0:
161,241,68271,1,0,0:0:0:0:
330,127,68471,1,0,0:0:0:0:
351,122,68571,1,0,0:0:0:0:
367,119,68671,2,0,L|506:117,2,125.999996154785
157,98,69271,6,0,B|96:46|45:52|45:52|75:91,1,144
112,232,69671,1,0,0:0:0:0:
208,344,69871,1,0,0:0:0:0:
224,192,70071,2,0,B|226:151|257:126|257:126|249:81|275:31,1,144
376,104,70471,1,0,0:0:0:0:
304,320,70671,1,0,0:0:0:0:
488,232,70871,2,0,B|432:222|432:222|406:233|406:233|335:221,1,144,0|0,0:0|0:0,0:3:0:0:
224,192,71271,2,0,P|248:136|256:184,1,144
168,328,71671,2,0,B|150:354|150:354|136:243,1,144
104,24,72071,1,0,0:0:0:0:
248,72,72271,1,0,0:0:0:0:
128,160,72471,1,0,0:0:0:0:
248,72,72671,6,0,P|328:56|389:96,1,125.999996154785
304,152,73071,1,0,0:0:0:0:
480,24,73271,2,0,B|491:80|491:80|467:144,2,125.999996154785
304,152,73871,1,0,0:0:0:0:
272,272,74071,1,0,0:0:0:0:
388,294,74271,6,0,P|333:264|271:271,1,125.999996154785
160,336,74671,1,0,0:0:0:0:
96,168,74871,1,0,0:0:0:0:
88,128,74971,1,0,0:0:0:0:
80,88,75071,2,0,L|217:69,1,125.999996154785
434,193,75471,2,0,L|297:174,1,125.999996154785
96,168,75871,5,0,0:0:0:0:
203,69,76071,1,0,0:0:0:0:
310,176,76271,1,0,0:0:0:0:
203,282,76471,1,0,0:0:0:0:
203,282,76571,1,0,0:0:0:0:
203,282,76671,1,0,0:0:0:0:
203,69,76871,1,0,0:0:0:0:
200,360,77071,1,0,0:0:0:0:
310,176,77271,6,0,P|233:159|168:186,1,125.999996154785
392,352,77671,1,0,0:0:0:0:
392,352,77871,2,0,L|400:208,1,125.999996154785
400,112,78171,1,0,0:0:0:0:
400,96,78271,2,0,P|472:88|512:32,2,125.999996154785
232,48,78871,1,0,0:0:0:0:
232,48,78971,1,0,0:0:0:0:
232,48,79071,6,0,L|85:33,2,125.999996154785
152,144,79671,1,0,0:0:0:0:
150,159,79771,1,0,0:0:0:0:
148,175,79871,1,0,0:0:0:0:
144,328,80071,1,0,0:0:0:0:
249,272,80271,2,0,P|320:248|401:290,1,125.999996154785
464,360,80671,6,0,L|480:232,2,125.999996154785
344,328,81271,1,0,0:0:0:0:
329,326,81371,1,0,0:0:0:0:
313,324,81471,1,0,0:0:0:0:
184,312,81671,1,0,0:0:0:0:
288,200,81871,1,0,0:0:0:0:
112,40,82071,6,0,B|88:56|88:56|176:48|248:88,1,135.000005149842
392,136,82471,1,0,0:0:0:0:
392,136,82571,1,0,0:0:0:0:
392,136,82671,2,0,B|384:184|384:184|384:224|384:224|372:275,1,135.000005149842
288,192,82971,1,0,0:0:0:0:
288,200,83071,2,0,B|224:184|232:224|152:200,1,135.000005149842
104,40,83471,1,0,0:0:0:0:
264,32,83671,6,0,P|344:64|376:160,1,144
160,352,84071,6,0,P|80:320|48:224,1,144
184,112,84471,1,0,0:0:0:0:
186,135,84571,1,0,0:0:0:0:
188,159,84671,1,0,0:0:0:0:
192,256,84871,1,0,0:0:0:0:
176,24,85071,1,0,0:0:0:0:
320,224,85271,1,0,0:0:0:0:
56,232,85471,6,0,L|47:89,1,125.999996154785
176,24,85871,1,0,0:0:0:0:
368,48,86071,1,0,0:0:0:0:
368,72,86171,1,0,0:0:0:0:
368,104,86271,2,0,P|288:88|216:128,1,125.999996154785
96,264,86671,5,0,0:0:0:0:
304,175,86871,1,0,0:0:0:0:
186,369,87071,1,0,0:0:0:0:
167,143,87271,1,0,0:0:0:0:
316,314,87471,1,0,0:0:0:0:
304,24,87671,1,0,0:0:0:0:
304,24,87771,1,0,0:0:0:0:
304,24,87871,1,0,0:0:0:0:
208,248,88071,1,0,0:0:0:0:
112,64,88271,2,0,P|211:62|246:81,1,125.999996154785
328,264,88671,5,0,0:0:0:0:
400,48,88871,1,0,0:0:0:0:
440,264,89071,1,0,0:0:0:0:
304,56,89271,1,0,0:0:0:0:
304,56,89371,1,0,0:0:0:0:
304,56,89471,1,0,0:0:0:0:
224,264,89671,1,0,0:0:0:0:
152,72,89871,2,0,P|70:68|8:103,1,125.999996154785
24,224,90271,5,0,0:0:0:0:
219,181,90471,1,0,0:0:0:0:
160,344,90671,2,0,B|224:360|224:360|323:331,1,125.999996154785
480,144,91071,2,0,B|416:128|416:128|317:157,1,125.999996154785
224,272,91471,1,0,0:0:0:0:
192,24,91671,1,0,0:0:0:0:
200,40,91771,1,0,0:0:0:0:
208,56,91871,6,0,L|224:224,2,125.999996154785
103,251,92471,1,0,0:0:0:0:
103,251,92571,1,0,0:0:0:0:
103,251,92671,2,0,P|164:275|242:265,1,125.999996154785
472,304,93071,2,0,L|310:322,1,125.999996154785
192,344,93471,5,0,0:0:0:0:
117,121,93671,1,0,0:0:0:0:
344,320,93871,1,0,0:0:0:0:
344,80,94071,1,0,0:0:0:0:
344,80,94171,1,0,0:0:0:0:
344,80,94271,1,0,0:0:0:0:
256,248,94471,1,0,0:0:0:0:
192,160,94671,5,0,0:0:0:0:
210,143,94771,1,0,0:0:0:0:
232,137,94871,1,0,0:0:0:0:
