osu file format v14

[General]
AudioFilename: audio.mp3
AudioLeadIn: 0
PreviewTime: -1
Countdown: 1
SampleSet: Soft
StackLeniency: 0.7
Mode: 0
LetterboxInBreaks: 0
WidescreenStoryboard: 0

[Editor]
DistanceSpacing: 0.7
BeatDivisor: 4
GridSize: 4
TimelineZoom: 1

[Metadata]
Title:Bits & Bobs
TitleUnicode:Bits & Bobs
Artist:Axel Boy
ArtistUnicode:Axel Boy
Creator:Aqu4
Version:Easy
Source:
Tags:
BeatmapID:1793541
BeatmapSetID:858196

[Difficulty]
HPDrainRate:5
CircleSize:4
OverallDifficulty:5
ApproachRate:9
SliderMultiplier:1.4
SliderTickRate:1

[Events]
//Background and Video events
//Break Periods
//Storyboard Layer 0 (Background)
//Storyboard Layer 1 (Fail)
//Storyboard Layer 2 (Pass)
//Storyboard Layer 3 (Foreground)
//Storyboard Sound Samples

[TimingPoints]
0,60,4,2,0,100,1,0

[HitObjects]
155,174,90,5,0,0:0:0:0:
317,177,270,1,0,0:0:0:0:
286,132,375,1,0,0:0:0:0:
360,170,375,1,0,0:0:0:0:
325,253,630,1,0,0:0:0:0:
236,221,690,1,0,0:0:0:0:
201,152,855,1,0,0:0:0:0:
217,118,990,1,0,0:0:0:0:
217,118,1155,1,0,0:0:0:0:
151,97,1320,1,0,0:0:0:0:
133,155,1455,1,0,0:0:0:0:
145,194,1635,1,0,0:0:0:0:
235,203,1800,1,0,0:0:0:0:
318,147,2115,1,0,0:0:0:0:
274,104,2265,1,0,0:0:0:0:
229,103,2430,1,0,0:0:0:0:
180,142,2595,1,0,0:0:0:0:
202,195,2775,1,0,0:0:0:0:
254,230,2940,1,0,0:0:0:0:
321,172,3105,1,0,0:0:0:0:
261,110,3300,1,0,0:0:0:0:
205,85,3450,1,0,0:0:0:0:
171,135,3615,1,0,0:0:0:0:
211,221,3810,1,0,0:0:0:0:
314,239,3990,1,0,0:0:0:0:
359,187,4170,1,0,0:0:0:0:
283,111,4350,1,0,0:0:0:0:
194,95,4500,1,0,0:0:0:0:
68,164,4710,1,0,0:0:0:0:
136,212,4875,1,0,0:0:0:0:
236,212,5055,1,0,0:0:0:0:
308,171,5250,1,0,0:0:0:0:
261,123,5400,1,0,0:0:0:0:
181,99,5565,1,0,0:0:0:0:
132,134,5730,1,0,0:0:0:0:
189,206,5910,1,0,0:0:0:0:
292,199,6090,1,0,0:0:0:0:
360,150,6270,1,0,0:0:0:0:
232,74,6435,1,0,0:0:0:0:
83,62,6615,1,0,0:0:0:0:
104,154,6795,1,0,0:0:0:0:
250,246,6975,1,0,0:0:0:0:
314,197,7155,1,0,0:0:0:0:
299,148,7335,1,0,0:0:0:0:
143,78,7485,1,0,0:0:0:0:
130,114,7665,1,0,0:0:0:0:
108,149,7830,1,0,0:0:0:0:
132,169,7995,1,0,0:0:0:0:
139,172,8160,1,0,0:0:0:0:
144,169,8325,1,0,0:0:0:0:
144,169,8475,1,0,0:0:0:0:
144,169,8625,1,0,0:0:0:0:
144,169,8805,1,0,0:0:0:0:
144,169,8970,1,0,0:0:0:0:
144,169,9135,1,0,0:0:0:0:
183,176,9315,1,0,0:0:0:0:
244,193,9465,1,0,0:0:0:0:
250,191,9630,1,0,0:0:0:0:
254,154,9810,1,0,0:0:0:0:
253,135,9945,1,0,0:0:0:0:
209,114,10140,1,0,0:0:0:0:
182,117,10290,1,0,0:0:0:0:
166,183,10485,1,0,0:0:0:0:
182,212,10650,1,0,0:0:0:0:
225,234,10815,1,0,0:0:0:0:
312,221,10995,1,0,0:0:0:0:
362,169,11190,1,0,0:0:0:0:
298,94,11385,1,0,0:0:0:0:
126,49,11550,1,0,0:0:0:0:
70,107,11760,1,0,0:0:0:0:
91,202,11940,1,0,0:0:0:0:
166,254,12120,1,0,0:0:0:0:
274,254,12300,1,0,0:0:0:0:
386,187,12480,1,0,0:0:0:0:
354,128,12675,1,0,0:0:0:0:
236,78,12855,1,0,0:0:0:0:
138,115,13035,1,0,0:0:0:0:
137,205,13215,1,0,0:0:0:0:
196,257,13410,1,0,0:0:0:0:
279,263,13590,1,0,0:0:0:0:
412,194,13785,1,0,0:0:0:0:
421,107,13965,1,0,0:0:0:0:
180,24,14175,1,0,0:0:0:0:
16,93,14340,1,0,0:0:0:0:
181,287,14550,1,0,0:0:0:0:
369,258,14745,1,0,0:0:0:0:
354,126,14925,1,0,0:0:0:0:
86,276,15105,1,0,0:0:0:0:
268,209,15285,1,0,0:0:0:0:
81,46,15465,1,0,0:0:0:0:
112,106,15660,1,0,0:0:0:0:
280,241,15855,1,0,0:0:0:0:
336,179,16050,1,0,0:0:0:0:
210,78,16215,1,0,0:0:0:0:
116,193,16410,1,0,0:0:0:0:
168,278,16590,1,0,0:0:0:0:
302,199,16785,1,0,0:0:0:0:
232,110,16995,1,0,0:0:0:0:
111,134,17160,1,0,0:0:0:0:
208,252,17370,1,0,0:0:0:0:
315,167,17580,1,0,0:0:0:0:
256,64,17760,1,0,0:0:0:0:
129,105,17955,1,0,0:0:0:0:
216,201,18135,1,0,0:0:0:0:
275,186,18330,1,0,0:0:0:0:
184,95,18540,1,0,0:0:0:0:
127,162,18705,1,0,0:0:0:0:
237,190,18885,1,0,0:0:0:0:
247,130,18990,1,0,0:0:0:0:
262,135,19170,1,0,0:0:0:0:
317,72,19305,1,0,0:0:0:0:
466,160,19470,1,0,0:0:0:0:
492,252,19605,1,0,0:0:0:0:
377,298,19785,1,0,0:0:0:0:
275,288,19935,1,0,0:0:0:0:
160,235,20115,1,0,0:0:0:0:
129,178,20265,1,0,0:0:0:0:
153,143,20415,1,0,0:0:0:0:
256,115,20595,1,0,0:0:0:0:
284,94,20760,1,0,0:0:0:0:
247,52,20910,1,0,0:0:0:0:
161,112,21075,1,0,0:0:0:0:
195,176,21255,1,0,0:0:0:0:
257,260,21435,1,0,0:0:0:0:
354,258,21600,1,0,0:0:0:0:
405,184,21780,1,0,0:0:0:0:
374,124,21945,1,0,0:0:0:0:
47,103,22095,1,0,0:0:0:0:
113,256,22260,1,0,0:0:0:0:
204,239,22440,1,0,0:0:0:0:
236,192,22605,1,0,0:0:0:0:
213,132,22785,1,0,0:0:0:0:
169,146,22965,1,0,0:0:0:0:
214,220,23145,1,0,0:0:0:0:
268,237,23325,1,0,0:0:0:0:
302,189,23505,1,0,0:0:0:0:
295,153,23670,1,0,0:0:0:0:
149,125,23880,1,0,0:0:0:0:
149,125,24015,1,0,0:0:0:0:
270,83,24180,1,0,0:0:0:0:
298,77,24315,1,0,0:0:0:0:
394,137,24495,1,0,0:0:0:0:
359,199,24645,1,0,0:0:0:0:
272,241,24810,1,0,0:0:0:0:
216,233,24960,1,0,0:0:0:0:
193,230,25110,1,0,0:0:0:0:
168,143,25290,1,0,0:0:0:0:
247,102,25455,1,0,0:0:0:0:
309,71,25605,1,0,0:0:0:0:
252,46,25755,1,0,0:0:0:0:
178,93,25920,1,0,0:0:0:0:
414,189,25950,1,0,0:0:0:0:
418,183,26115,1,0,0:0:0:0:
410,142,26280,1,0,0:0:0:0:
407,132,26445,1,0,0:0:0:0:
420,214,26610,1,0,0:0:0:0:
405,247,26790,1,0,0:0:0:0:
269,256,26955,1,0,0:0:0:0:
237,249,27120,1,0,0:0:0:0:
183,214,27285,1,0,0:0:0:0:
177,172,27465,1,0,0:0:0:0:
188,138,27630,1,0,0:0:0:0:
208,117,27795,1,0,0:0:0:0:
215,111,27945,1,0,0:0:0:0:
270,89,28110,1,0,0:0:0:0:
314,98,28260,1,0,0:0:0:0:
339,124,28425,1,0,0:0:0:0:
359,165,28590,1,0,0:0:0:0:
358,191,28740,1,0,0:0:0:0:
311,225,28920,1,0,0:0:0:0:
252,251,29070,1,0,0:0:0:0:
206,250,29265,1,0,0:0:0:0:
132,207,29445,1,0,0:0:0:0:
119,126,29610,1,0,0:0:0:0:
171,97,29805,1,0,0:0:0:0:
274,85,29970,1,0,0:0:0:0:
317,121,30135,1,0,0:0:0:0:
321,182,30300,1,0,0:0:0:0:
269,234,30495,1,0,0:0:0:0:
202,246,30675,1,0,0:0:0:0:
119,186,30855,1,0,0:0:0:0:
143,112,31035,1,0,0:0:0:0:
232,74,31215,1,0,0:0:0:0:
308,90,31410,1,0,0:0:0:0:
327,194,31605,1,0,0:0:0:0:
390,176,31800,1,0,0:0:0:0:
403,130,31995,1,0,0:0:0:0:
347,97,32175,1,0,0:0:0:0:
223,98,32355,1,0,0:0:0:0:
179,183,32565,1,0,0:0:0:0:
194,235,32745,1,0,0:0:0:0:
207,264,32925,1,0,0:0:0:0:
268,300,33120,1,0,0:0:0:0:
340,293,33315,1,0,0:0:0:0:
366,237,33495,1,0,0:0:0:0:
329,170,33705,1,0,0:0:0:0:
251,114,33885,1,0,0:0:0:0:
207,93,34095,1,0,0:0:0:0:
179,100,34275,1,0,0:0:0:0:
143,203,34455,1,0,0:0:0:0:
162,255,34650,1,0,0:0:0:0:
228,261,34845,1,0,0:0:0:0:
301,224,35055,1,0,0:0:0:0:
306,181,35220,1,0,0:0:0:0:
297,122,35415,1,0,0:0:0:0:
269,80,35595,1,0,0:0:0:0:
137,71,35775,1,0,0:0:0:0:
145,186,35970,1,0,0:0:0:0:
245,273,36195,1,0,0:0:0:0:
380,291,36390,1,0,0:0:0:0:
423,284,36600,1,0,0:0:0:0:
426,257,36780,1,0,0:0:0:0:
434,246,36960,1,0,0:0:0:0:
269,129,37155,1,0,0:0:0:0:
256,120,37320,1,0,0:0:0:0:
0,31,37470,1,0,0:0:0:0:
37,148,37650,1,0,0:0:0:0:
78,246,37815,1,0,0:0:0:0:
144,278,37980,1,0,0:0:0:0:
246,278,38130,1,0,0:0:0:0:
311,220,38310,1,0,0:0:0:0:
314,176,38490,1,0,0:0:0:0:
282,123,38700,1,0,0:0:0:0:
206,100,38910,1,0,0:0:0:0:
172,137,39075,1,0,0:0:0:0:
174,215,39255,1,0,0:0:0:0:
202,243,39420,1,0,0:0:0:0:
280,223,39600,1,0,0:0:0:0:
296,175,39780,1,0,0:0:0:0:
282,121,39945,1,0,0:0:0:0:
384,133,40125,1,0,0:0:0:0:
409,211,40305,1,0,0:0:0:0:
414,279,40500,1,0,0:0:0:0:
367,97,40635,1,0,0:0:0:0:
321,111,40785,1,0,0:0:0:0:
221,161,40980,1,0,0:0:0:0:
198,92,41160,1,0,0:0:0:0:
247,96,41325,1,0,0:0:0:0:
297,102,41490,1,0,0:0:0:0:
372,136,41670,1,0,0:0:0:0:
385,188,41805,1,0,0:0:0:0:
385,227,41970,1,0,0:0:0:0:
338,271,42120,1,0,0:0:0:0:
251,272,42300,1,0,0:0:0:0:
220,250,42465,1,0,0:0:0:0:
192,212,42615,1,0,0:0:0:0:
182,173,42780,1,0,0:0:0:0:
187,164,42930,1,0,0:0:0:0:
202,110,43095,1,0,0:0:0:0:
214,86,43260,1,0,0:0:0:0:
215,78,43410,1,0,0:0:0:0:
359,156,43590,1,0,0:0:0:0:
391,213,43770,1,0,0:0:0:0:
363,241,43935,1,0,0:0:0:0:
202,210,44100,1,0,0:0:0:0:
185,197,44265,1,0,0:0:0:0:
185,197,44430,1,0,0:0:0:0:
185,197,44580,1,0,0:0:0:0:
185,197,44745,1,0,0:0:0:0:
185,197,44880,1,0,0:0:0:0:
185,197,45045,1,0,0:0:0:0:
185,197,45195,1,0,0:0:0:0:
185,197,45360,1,0,0:0:0:0:
185,197,45540,1,0,0:0:0:0:
185,197,45705,1,0,0:0:0:0:
185,197,45870,1,0,0:0:0:0:
185,197,46035,1,0,0:0:0:0:
185,197,46185,1,0,0:0:0:0:
185,197,46350,1,0,0:0:0:0:
185,197,46500,1,0,0:0:0:0:
185,197,46680,1,0,0:0:0:0:
185,197,46830,1,0,0:0:0:0:
185,197,47010,1,0,0:0:0:0:
185,197,47175,1,0,0:0:0:0:
185,197,47340,1,0,0:0:0:0:
185,197,47490,1,0,0:0:0:0:
185,197,47655,1,0,0:0:0:0:
185,197,47835,1,0,0:0:0:0:
185,197,48000,1,0,0:0:0:0:
185,197,48165,1,0,0:0:0:0:
185,197,48330,1,0,0:0:0:0:
185,197,48480,1,0,0:0:0:0:
185,197,48645,1,0,0:0:0:0:
185,197,48810,1,0,0:0:0:0:
185,197,48990,1,0,0:0:0:0:
185,197,49170,1,0,0:0:0:0:
185,197,49335,1,0,0:0:0:0:
185,197,49515,1,0,0:0:0:0:
185,197,49680,1,0,0:0:0:0:
185,197,49860,1,0,0:0:0:0:
185,197,50040,1,0,0:0:0:0:
185,197,50220,1,0,0:0:0:0:
185,197,50400,1,0,0:0:0:0:
185,197,50580,1,0,0:0:0:0:
185,197,50745,1,0,0:0:0:0:
185,197,50925,1,0,0:0:0:0:
185,197,51105,1,0,0:0:0:0:
185,197,51270,1,0,0:0:0:0:
185,197,51480,1,0,0:0:0:0:
185,197,51645,1,0,0:0:0:0:
185,197,51825,1,0,0:0:0:0:
185,197,52005,1,0,0:0:0:0:
185,197,52185,1,0,0:0:0:0:
185,197,52380,1,0,0:0:0:0:
185,197,52575,1,0,0:0:0:0:
185,197,52740,1,0,0:0:0:0:
185,197,52905,1,0,0:0:0:0:
185,197,53100,1,0,0:0:0:0:
185,197,53280,1,0,0:0:0:0:
185,197,53460,1,0,0:0:0:0:
185,197,53640,1,0,0:0:0:0:
185,197,53835,1,0,0:0:0:0:
185,197,54015,1,0,0:0:0:0:
185,197,54210,1,0,0:0:0:0:
185,197,54390,1,0,0:0:0:0:
185,197,54585,1,0,0:0:0:0:
185,197,54765,1,0,0:0:0:0:
185,197,54930,1,0,0:0:0:0:
185,197,55125,1,0,0:0:0:0:
185,197,55335,1,0,0:0:0:0:
185,197,55530,1,0,0:0:0:0:
185,197,55710,1,0,0:0:0:0:
185,197,55890,1,0,0:0:0:0:
185,197,56070,1,0,0:0:0:0:
185,197,56265,1,0,0:0:0:0:
239,124,56445,1,0,0:0:0:0:
309,84,56640,1,0,0:0:0:0:
379,114,56835,1,0,0:0:0:0:
388,187,56985,1,0,0:0:0:0:
345,275,57180,1,0,0:0:0:0:
247,300,57375,1,0,0:0:0:0:
151,254,57555,1,0,0:0:0:0:
80,181,57750,1,0,0:0:0:0:
110,125,57915,1,0,0:0:0:0:
365,176,58275,1,0,0:0:0:0:
366,171,58440,1,0,0:0:0:0:
271,61,58590,1,0,0:0:0:0:
213,118,58755,1,0,0:0:0:0:
199,243,58995,1,0,0:0:0:0:
234,258,59205,1,0,0:0:0:0:
293,215,59385,1,0,0:0:0:0:
314,174,59550,1,0,0:0:0:0:
282,124,60045,1,0,0:0:0:0:
228,140,60210,1,0,0:0:0:0:
182,218,60390,1,0,0:0:0:0:
78,219,60555,1,0,0:0:0:0:
92,118,60765,1,0,0:0:0:0:
144,82,60945,1,0,0:0:0:0:
257,197,61170,1,0,0:0:0:0:
303,231,61350,1,0,0:0:0:0:
364,188,61545,1,0,0:0:0:0:
351,148,61725,1,0,0:0:0:0:
260,113,61905,1,0,0:0:0:0:
207,132,62085,1,0,0:0:0:0:
137,207,62265,1,0,0:0:0:0:
121,221,62460,1,0,0:0:0:0:
117,177,62655,1,0,0:0:0:0:
193,151,62850,1,0,0:0:0:0:
248,215,63045,1,0,0:0:0:0:
296,221,63255,1,0,0:0:0:0:
313,185,63435,1,0,0:0:0:0:
281,142,63645,1,0,0:0:0:0:
201,121,63840,1,0,0:0:0:0:
126,178,64050,1,0,0:0:0:0:
138,238,64245,1,0,0:0:0:0:
173,264,64440,1,0,0:0:0:0:
275,273,64665,1,0,0:0:0:0:
339,235,64860,1,0,0:0:0:0:
352,196,65055,1,0,0:0:0:0:
342,152,65250,1,0,0:0:0:0:
293,114,65445,1,0,0:0:0:0:
220,106,65625,1,0,0:0:0:0:
121,104,65835,1,0,0:0:0:0:
98,152,66030,1,0,0:0:0:0:
120,221,66240,1,0,0:0:0:0:
138,254,66435,1,0,0:0:0:0:
204,276,66660,1,0,0:0:0:0:
310,266,66840,1,0,0:0:0:0:
354,225,67035,1,0,0:0:0:0:
359,184,67245,1,0,0:0:0:0:
348,127,67440,1,0,0:0:0:0:
297,78,67650,1,0,0:0:0:0:
212,54,67875,1,0,0:0:0:0:
97,77,68055,1,0,0:0:0:0:
81,136,68280,1,0,0:0:0:0:
95,221,68475,1,0,0:0:0:0:
138,275,68700,1,0,0:0:0:0:
181,295,68910,1,0,0:0:0:0:
313,215,69240,1,0,0:0:0:0:
339,182,69435,1,0,0:0:0:0:
334,130,69615,1,0,0:0:0:0:
253,84,69825,1,0,0:0:0:0:
177,81,69990,1,0,0:0:0:0:
122,118,70170,1,0,0:0:0:0:
123,176,70380,1,0,0:0:0:0:
150,223,70575,1,0,0:0:0:0:
207,249,70785,1,0,0:0:0:0:
289,246,70980,1,0,0:0:0:0:
342,212,71175,1,0,0:0:0:0:
355,157,71385,1,0,0:0:0:0:
313,97,71610,1,0,0:0:0:0:
262,69,71805,1,0,0:0:0:0:
90,69,72000,1,0,0:0:0:0:
73,136,72195,1,0,0:0:0:0:
91,235,72420,1,0,0:0:0:0:
165,259,72615,1,0,0:0:0:0:
234,248,72810,1,0,0:0:0:0:
169,267,73020,1,0,0:0:0:0:
290,180,73020,1,0,0:0:0:0:
236,182,73185,1,0,0:0:0:0:
326,247,73215,1,0,0:0:0:0:
297,144,73230,1,0,0:0:0:0:
297,174,73380,1,0,0:0:0:0:
309,193,73380,1,0,0:0:0:0:
277,95,73425,1,0,0:0:0:0:
144,126,73560,1,0,0:0:0:0:
320,143,73560,1,0,0:0:0:0:
183,62,73605,1,0,0:0:0:0:
202,108,73710,1,0,0:0:0:0:
403,267,73725,1,0,0:0:0:0:
64,72,73800,1,0,0:0:0:0:
202,97,73845,1,0,0:0:0:0:
441,338,73905,1,0,0:0:0:0:
202,97,73965,1,0,0:0:0:0:
54,147,74025,1,0,0:0:0:0:
285,230,74085,1,0,0:0:0:0:
199,92,74115,1,0,0:0:0:0:
204,170,74235,1,0,0:0:0:0:
90,233,74235,1,0,0:0:0:0:
200,90,74250,1,0,0:0:0:0:
241,140,74400,1,0,0:0:0:0:
118,259,74415,1,0,0:0:0:0:
200,90,74430,1,0,0:0:0:0:
393,175,74565,1,0,0:0:0:0:
200,90,74565,1,0,0:0:0:0:
194,287,74625,1,0,0:0:0:0:
200,90,74715,1,0,0:0:0:0:
280,56,74730,1,0,0:0:0:0:
271,267,74745,1,0,0:0:0:0:
289,274,74820,1,0,0:0:0:0:
191,81,74835,1,0,0:0:0:0:
341,83,74910,1,0,0:0:0:0:
121,167,74925,1,0,0:0:0:0:
190,77,74985,1,0,0:0:0:0:
417,237,75015,1,0,0:0:0:0:
365,104,75075,1,0,0:0:0:0:
447,174,75090,1,0,0:0:0:0:
190,77,75135,1,0,0:0:0:0:
430,187,75240,1,0,0:0:0:0:
271,118,75255,1,0,0:0:0:0:
192,161,75270,1,0,0:0:0:0:
190,77,75285,1,0,0:0:0:0:
422,124,75405,1,0,0:0:0:0:
356,97,75435,1,0,0:0:0:0:
232,211,75450,1,0,0:0:0:0:
279,141,75465,1,0,0:0:0:0:
316,246,75600,1,0,0:0:0:0:
287,148,75615,1,0,0:0:0:0:
4,157,75630,1,0,0:0:0:0:
285,66,75645,1,0,0:0:0:0:
292,153,75750,1,0,0:0:0:0:
182,361,75780,1,0,0:0:0:0:
149,146,75810,1,0,0:0:0:0:
114,60,75840,1,0,0:0:0:0:
212,161,75900,1,0,0:0:0:0:
180,135,75990,1,0,0:0:0:0:
339,214,76020,1,0,0:0:0:0:
212,161,76035,1,0,0:0:0:0:
60,134,76080,1,0,0:0:0:0:
183,138,76125,1,0,0:0:0:0:
378,302,76155,1,0,0:0:0:0:
481,282,76170,1,0,0:0:0:0:
314,64,76215,1,0,0:0:0:0:
195,117,76260,1,0,0:0:0:0:
87,243,76290,1,0,0:0:0:0:
483,137,76365,1,0,0:0:0:0:
264,136,76395,1,0,0:0:0:0:
464,59,76470,1,0,0:0:0:0:
186,295,76485,1,0,0:0:0:0:
277,170,76545,1,0,0:0:0:0:
273,295,76575,1,0,0:0:0:0:
253,193,76695,1,0,0:0:0:0:
287,294,76695,1,0,0:0:0:0:
147,53,76710,1,0,0:0:0:0:
182,100,76770,1,0,0:0:0:0:
400,226,76800,1,0,0:0:0:0:
211,189,76845,1,0,0:0:0:0:
281,263,76905,1,0,0:0:0:0:
258,188,76935,1,0,0:0:0:0:
352,252,76935,1,0,0:0:0:0:
400,226,76980,1,0,0:0:0:0:
149,149,76995,1,0,0:0:0:0:
336,82,77115,1,0,0:0:0:0:
400,193,77115,1,0,0:0:0:0:
421,153,77130,1,0,0:0:0:0:
155,134,77145,1,0,0:0:0:0:
474,172,77205,1,0,0:0:0:0:
342,233,77265,1,0,0:0:0:0:
178,118,77265,1,0,0:0:0:0:
425,105,77295,1,0,0:0:0:0:
397,119,77325,1,0,0:0:0:0:
360,174,77430,1,0,0:0:0:0:
168,119,77490,1,0,0:0:0:0:
280,255,77505,1,0,0:0:0:0:
286,58,77535,1,0,0:0:0:0:
376,233,77595,1,0,0:0:0:0:
141,142,77670,1,0,0:0:0:0:
342,66,77715,1,0,0:0:0:0:
305,267,77745,1,0,0:0:0:0:
176,49,77760,1,0,0:0:0:0:
106,221,77835,1,0,0:0:0:0:
342,66,77880,1,0,0:0:0:0:
164,245,77895,1,0,0:0:0:0:
108,108,77970,1,0,0:0:0:0:
160,192,78030,1,0,0:0:0:0:
205,85,78045,1,0,0:0:0:0:
249,15,78060,1,0,0:0:0:0:
184,179,78180,1,0,0:0:0:0:
281,51,78225,1,0,0:0:0:0:
112,225,78240,1,0,0:0:0:0:
196,66,78255,1,0,0:0:0:0:
218,166,78330,1,0,0:0:0:0:
364,164,78390,1,0,0:0:0:0:
155,120,78465,1,0,0:0:0:0:
144,278,78465,1,0,0:0:0:0:
236,154,78480,1,0,0:0:0:0:
296,288,78570,1,0,0:0:0:0:
216,85,78615,1,0,0:0:0:0:
143,192,78630,1,0,0:0:0:0:
182,298,78705,1,0,0:0:0:0:
178,316,78735,1,0,0:0:0:0:
216,85,78780,1,0,0:0:0:0:
187,268,78810,1,0,0:0:0:0:
151,199,78915,1,0,0:0:0:0:
266,275,78915,1,0,0:0:0:0:
266,148,78960,1,0,0:0:0:0:
331,227,78990,1,0,0:0:0:0:
329,206,79110,1,0,0:0:0:0:
218,93,79125,1,0,0:0:0:0:
340,222,79125,1,0,0:0:0:0:
349,153,79155,1,0,0:0:0:0:
304,244,79275,1,0,0:0:0:0:
273,68,79305,1,0,0:0:0:0:
327,145,79335,1,0,0:0:0:0:
306,106,79350,1,0,0:0:0:0:
253,220,79455,1,0,0:0:0:0:
147,60,79530,1,0,0:0:0:0:
214,110,79560,1,0,0:0:0:0:
268,187,79605,1,0,0:0:0:0:
176,214,79695,1,0,0:0:0:0:
127,241,79710,1,0,0:0:0:0:
185,178,79755,1,0,0:0:0:0:
277,170,79785,1,0,0:0:0:0:
465,294,79905,1,0,0:0:0:0:
261,110,79905,1,0,0:0:0:0:
281,181,80010,1,0,0:0:0:0:
477,204,80070,1,0,0:0:0:0:
143,119,80070,1,0,0:0:0:0:
282,115,80220,1,0,0:0:0:0:
59,258,80250,1,0,0:0:0:0:
417,154,80280,1,0,0:0:0:0:
158,104,80370,1,0,0:0:0:0:
106,89,80430,1,0,0:0:0:0:
216,278,80430,1,0,0:0:0:0:
169,267,80475,1,0,0:0:0:0:
290,180,80475,1,0,0:0:0:0:
172,214,80610,1,0,0:0:0:0:
359,207,80625,1,0,0:0:0:0:
236,182,80640,1,0,0:0:0:0:
326,247,80670,1,0,0:0:0:0:
297,144,80685,1,0,0:0:0:0:
309,193,80835,1,0,0:0:0:0:
297,174,80835,1,0,0:0:0:0:
277,95,80880,1,0,0:0:0:0:
320,143,81015,1,0,0:0:0:0:
144,126,81015,1,0,0:0:0:0:
183,62,81060,1,0,0:0:0:0:
202,108,81165,1,0,0:0:0:0:
403,267,81180,1,0,0:0:0:0:
290,180,81195,1,0,0:0:0:0:
169,267,81195,1,0,0:0:0:0:
64,72,81255,1,0,0:0:0:0:
202,97,81300,1,0,0:0:0:0:
441,338,81360,1,0,0:0:0:0:
236,182,81360,1,0,0:0:0:0:
326,247,81390,1,0,0:0:0:0:
297,144,81405,1,0,0:0:0:0:
202,97,81420,1,0,0:0:0:0:
54,147,81480,1,0,0:0:0:0:
285,230,81540,1,0,0:0:0:0:
297,174,81555,1,0,0:0:0:0:
309,193,81555,1,0,0:0:0:0:
199,92,81570,1,0,0:0:0:0:
277,95,81600,1,0,0:0:0:0:
90,233,81690,1,0,0:0:0:0:
204,170,81690,1,0,0:0:0:0:
200,90,81705,1,0,0:0:0:0:
144,126,81735,1,0,0:0:0:0:
320,143,81735,1,0,0:0:0:0:
183,62,81780,1,0,0:0:0:0:
241,140,81855,1,0,0:0:0:0:
118,259,81870,1,0,0:0:0:0:
200,90,81885,1,0,0:0:0:0:
202,108,81885,1,0,0:0:0:0:
403,267,81900,1,0,0:0:0:0:
64,72,81975,1,0,0:0:0:0:
393,175,82020,1,0,0:0:0:0:
200,90,82020,1,0,0:0:0:0:
202,97,82020,1,0,0:0:0:0:
194,287,82080,1,0,0:0:0:0:
441,338,82080,1,0,0:0:0:0:
202,97,82140,1,0,0:0:0:0:
200,90,82170,1,0,0:0:0:0:
280,56,82185,1,0,0:0:0:0:
271,267,82200,1,0,0:0:0:0:
54,147,82200,1,0,0:0:0:0:
285,230,82260,1,0,0:0:0:0:
289,274,82275,1,0,0:0:0:0:
191,81,82290,1,0,0:0:0:0:
199,92,82290,1,0,0:0:0:0:
341,83,82365,1,0,0:0:0:0:
121,167,82380,1,0,0:0:0:0:
204,170,82410,1,0,0:0:0:0:
90,233,82410,1,0,0:0:0:0:
200,90,82425,1,0,0:0:0:0:
190,77,82440,1,0,0:0:0:0:
417,237,82470,1,0,0:0:0:0:
365,104,82530,1,0,0:0:0:0:
447,174,82545,1,0,0:0:0:0:
241,140,82575,1,0,0:0:0:0:
190,77,82590,1,0,0:0:0:0:
118,259,82590,1,0,0:0:0:0:
200,90,82605,1,0,0:0:0:0:
430,187,82695,1,0,0:0:0:0:
271,118,82710,1,0,0:0:0:0:
192,161,82725,1,0,0:0:0:0:
190,77,82740,1,0,0:0:0:0:
200,90,82740,1,0,0:0:0:0:
393,175,82740,1,0,0:0:0:0:
194,287,82800,1,0,0:0:0:0:
422,124,82860,1,0,0:0:0:0:
356,97,82890,1,0,0:0:0:0:
200,90,82890,1,0,0:0:0:0:
232,211,82905,1,0,0:0:0:0:
280,56,82905,1,0,0:0:0:0:
279,141,82920,1,0,0:0:0:0:
271,267,82920,1,0,0:0:0:0:
289,274,82995,1,0,0:0:0:0:
191,81,83010,1,0,0:0:0:0:
316,246,83055,1,0,0:0:0:0:
287,148,83070,1,0,0:0:0:0:
4,157,83085,1,0,0:0:0:0:
341,83,83085,1,0,0:0:0:0:
285,66,83100,1,0,0:0:0:0:
121,167,83100,1,0,0:0:0:0:
190,77,83160,1,0,0:0:0:0:
417,237,83190,1,0,0:0:0:0:
292,153,83205,1,0,0:0:0:0:
182,361,83235,1,0,0:0:0:0:
365,104,83250,1,0,0:0:0:0:
149,146,83265,1,0,0:0:0:0:
447,174,83265,1,0,0:0:0:0:
114,60,83295,1,0,0:0:0:0:
190,77,83310,1,0,0:0:0:0:
212,161,83355,1,0,0:0:0:0:
430,187,83415,1,0,0:0:0:0:
271,118,83430,1,0,0:0:0:0:
180,135,83445,1,0,0:0:0:0:
192,161,83445,1,0,0:0:0:0:
190,77,83460,1,0,0:0:0:0:
339,214,83475,1,0,0:0:0:0:
212,161,83490,1,0,0:0:0:0:
60,134,83535,1,0,0:0:0:0:
183,138,83580,1,0,0:0:0:0:
422,124,83580,1,0,0:0:0:0:
378,302,83610,1,0,0:0:0:0:
356,97,83610,1,0,0:0:0:0:
481,282,83625,1,0,0:0:0:0:
232,211,83625,1,0,0:0:0:0:
279,141,83640,1,0,0:0:0:0:
314,64,83670,1,0,0:0:0:0:
195,117,83715,1,0,0:0:0:0:
87,243,83745,1,0,0:0:0:0:
316,246,83775,1,0,0:0:0:0:
287,148,83790,1,0,0:0:0:0:
4,157,83805,1,0,0:0:0:0:
483,137,83820,1,0,0:0:0:0:
285,66,83820,1,0,0:0:0:0:
264,136,83850,1,0,0:0:0:0:
464,59,83925,1,0,0:0:0:0:
292,153,83925,1,0,0:0:0:0:
186,295,83940,1,0,0:0:0:0:
182,361,83955,1,0,0:0:0:0:
149,146,83985,1,0,0:0:0:0:
277,170,84000,1,0,0:0:0:0:
114,60,84015,1,0,0:0:0:0:
273,295,84030,1,0,0:0:0:0:
212,161,84075,1,0,0:0:0:0:
253,193,84150,1,0,0:0:0:0:
287,294,84150,1,0,0:0:0:0:
147,53,84165,1,0,0:0:0:0:
180,135,84165,1,0,0:0:0:0:
339,214,84195,1,0,0:0:0:0:
212,161,84210,1,0,0:0:0:0:
182,100,84225,1,0,0:0:0:0:
400,226,84255,1,0,0:0:0:0:
60,134,84255,1,0,0:0:0:0:
211,189,84300,1,0,0:0:0:0:
183,138,84300,1,0,0:0:0:0:
378,302,84330,1,0,0:0:0:0:
481,282,84345,1,0,0:0:0:0:
281,263,84360,1,0,0:0:0:0:
258,188,84390,1,0,0:0:0:0:
352,252,84390,1,0,0:0:0:0:
314,64,84390,1,0,0:0:0:0:
400,226,84435,1,0,0:0:0:0:
195,117,84435,1,0,0:0:0:0:
149,149,84450,1,0,0:0:0:0:
87,243,84465,1,0,0:0:0:0:
483,137,84540,1,0,0:0:0:0:
400,193,84570,1,0,0:0:0:0:
336,82,84570,1,0,0:0:0:0:
264,136,84570,1,0,0:0:0:0:
421,153,84585,1,0,0:0:0:0:
155,134,84600,1,0,0:0:0:0:
464,59,84645,1,0,0:0:0:0:
474,172,84660,1,0,0:0:0:0:
186,295,84660,1,0,0:0:0:0:
178,118,84720,1,0,0:0:0:0:
342,233,84720,1,0,0:0:0:0:
277,170,84720,1,0,0:0:0:0:
425,105,84750,1,0,0:0:0:0:
273,295,84750,1,0,0:0:0:0:
397,119,84780,1,0,0:0:0:0:
287,294,84870,1,0,0:0:0:0:
253,193,84870,1,0,0:0:0:0:
360,174,84885,1,0,0:0:0:0:
147,53,84885,1,0,0:0:0:0:
168,119,84945,1,0,0:0:0:0:
182,100,84945,1,0,0:0:0:0:
280,255,84960,1,0,0:0:0:0:
400,226,84975,1,0,0:0:0:0:
286,58,84990,1,0,0:0:0:0:
211,189,85020,1,0,0:0:0:0:
376,233,85050,1,0,0:0:0:0:
281,263,85080,1,0,0:0:0:0:
352,252,85110,1,0,0:0:0:0:
258,188,85110,1,0,0:0:0:0:
141,142,85125,1,0,0:0:0:0:
400,226,85155,1,0,0:0:0:0:
342,66,85170,1,0,0:0:0:0:
149,149,85170,1,0,0:0:0:0:
305,267,85200,1,0,0:0:0:0:
176,49,85215,1,0,0:0:0:0:
106,221,85290,1,0,0:0:0:0:
336,82,85290,1,0,0:0:0:0:
400,193,85290,1,0,0:0:0:0:
421,153,85305,1,0,0:0:0:0:
155,134,85320,1,0,0:0:0:0:
342,66,85335,1,0,0:0:0:0:
164,245,85350,1,0,0:0:0:0:
474,172,85380,1,0,0:0:0:0:
108,108,85425,1,0,0:0:0:0:
342,233,85440,1,0,0:0:0:0:
178,118,85440,1,0,0:0:0:0:
425,105,85470,1,0,0:0:0:0:
160,192,85485,1,0,0:0:0:0:
205,85,85500,1,0,0:0:0:0:
397,119,85500,1,0,0:0:0:0:
249,15,85515,1,0,0:0:0:0:
360,174,85605,1,0,0:0:0:0:
184,179,85635,1,0,0:0:0:0:
168,119,85665,1,0,0:0:0:0:
281,51,85680,1,0,0:0:0:0:
280,255,85680,1,0,0:0:0:0:
112,225,85695,1,0,0:0:0:0:
196,66,85710,1,0,0:0:0:0:
286,58,85710,1,0,0:0:0:0:
376,233,85770,1,0,0:0:0:0:
218,166,85785,1,0,0:0:0:0:
364,164,85845,1,0,0:0:0:0:
141,142,85845,1,0,0:0:0:0:
342,66,85890,1,0,0:0:0:0:
155,120,85920,1,0,0:0:0:0:
144,278,85920,1,0,0:0:0:0:
305,267,85920,1,0,0:0:0:0:
236,154,85935,1,0,0:0:0:0:
176,49,85935,1,0,0:0:0:0:
106,221,86010,1,0,0:0:0:0:
296,288,86025,1,0,0:0:0:0:
342,66,86055,1,0,0:0:0:0:
216,85,86070,1,0,0:0:0:0:
164,245,86070,1,0,0:0:0:0:
143,192,86085,1,0,0:0:0:0:
108,108,86145,1,0,0:0:0:0:
182,298,86160,1,0,0:0:0:0:
178,316,86190,1,0,0:0:0:0:
160,192,86205,1,0,0:0:0:0:
205,85,86220,1,0,0:0:0:0:
216,85,86235,1,0,0:0:0:0:
249,15,86235,1,0,0:0:0:0:
187,268,86265,1,0,0:0:0:0:
184,179,86355,1,0,0:0:0:0:
266,275,86370,1,0,0:0:0:0:
151,199,86370,1,0,0:0:0:0:
281,51,86400,1,0,0:0:0:0:
266,148,86415,1,0,0:0:0:0:
112,225,86415,1,0,0:0:0:0:
196,66,86430,1,0,0:0:0:0:
331,227,86445,1,0,0:0:0:0:
218,166,86505,1,0,0:0:0:0:
329,206,86565,1,0,0:0:0:0:
364,164,86565,1,0,0:0:0:0:
218,93,86580,1,0,0:0:0:0:
340,222,86580,1,0,0:0:0:0:
349,153,86610,1,0,0:0:0:0:
144,278,86640,1,0,0:0:0:0:
155,120,86640,1,0,0:0:0:0:
236,154,86655,1,0,0:0:0:0:
304,244,86730,1,0,0:0:0:0:
296,288,86745,1,0,0:0:0:0:
273,68,86760,1,0,0:0:0:0:
327,145,86790,1,0,0:0:0:0:
216,85,86790,1,0,0:0:0:0:
306,106,86805,1,0,0:0:0:0:
143,192,86805,1,0,0:0:0:0:
182,298,86880,1,0,0:0:0:0:
253,220,86910,1,0,0:0:0:0:
178,316,86910,1,0,0:0:0:0:
216,85,86955,1,0,0:0:0:0:
147,60,86985,1,0,0:0:0:0:
187,268,86985,1,0,0:0:0:0:
214,110,87015,1,0,0:0:0:0:
268,187,87060,1,0,0:0:0:0:
151,199,87090,1,0,0:0:0:0:
266,275,87090,1,0,0:0:0:0:
266,148,87135,1,0,0:0:0:0:
176,214,87150,1,0,0:0:0:0:
127,241,87165,1,0,0:0:0:0:
331,227,87165,1,0,0:0:0:0:
185,178,87210,1,0,0:0:0:0:
277,170,87240,1,0,0:0:0:0:
329,206,87285,1,0,0:0:0:0:
340,222,87300,1,0,0:0:0:0:
218,93,87300,1,0,0:0:0:0:
349,153,87330,1,0,0:0:0:0:
261,110,87360,1,0,0:0:0:0:
465,294,87360,1,0,0:0:0:0:
304,244,87450,1,0,0:0:0:0:
281,181,87465,1,0,0:0:0:0:
273,68,87480,1,0,0:0:0:0:
327,145,87510,1,0,0:0:0:0:
143,119,87525,1,0,0:0:0:0:
477,204,87525,1,0,0:0:0:0:
306,106,87525,1,0,0:0:0:0:
253,220,87630,1,0,0:0:0:0:
282,115,87675,1,0,0:0:0:0:
59,258,87705,1,0,0:0:0:0:
147,60,87705,1,0,0:0:0:0:
417,154,87735,1,0,0:0:0:0:
214,110,87735,1,0,0:0:0:0:
268,187,87780,1,0,0:0:0:0:
158,104,87825,1,0,0:0:0:0:
176,214,87870,1,0,0:0:0:0:
216,278,87885,1,0,0:0:0:0:
106,89,87885,1,0,0:0:0:0:
127,241,87885,1,0,0:0:0:0:
185,178,87930,1,0,0:0:0:0:
277,170,87960,1,0,0:0:0:0:
172,214,88065,1,0,0:0:0:0:
359,207,88080,1,0,0:0:0:0:
465,294,88080,1,0,0:0:0:0:
261,110,88080,1,0,0:0:0:0:
281,181,88185,1,0,0:0:0:0:
477,204,88245,1,0,0:0:0:0:
143,119,88245,1,0,0:0:0:0:
282,115,88395,1,0,0:0:0:0:
59,258,88425,1,0,0:0:0:0:
417,154,88455,1,0,0:0:0:0:
158,104,88545,1,0,0:0:0:0:
106,89,88605,1,0,0:0:0:0:
216,278,88605,1,0,0:0:0:0:
169,267,88755,1,0,0:0:0:0:
290,180,88755,1,0,0:0:0:0:
172,214,88785,1,0,0:0:0:0:
359,207,88800,1,0,0:0:0:0:
236,182,88920,1,0,0:0:0:0:
326,247,88950,1,0,0:0:0:0:
297,144,88965,1,0,0:0:0:0:
309,193,89115,1,0,0:0:0:0:
297,174,89115,1,0,0:0:0:0:
277,95,89160,1,0,0:0:0:0:
320,143,89295,1,0,0:0:0:0:
144,126,89295,1,0,0:0:0:0:
183,62,89340,1,0,0:0:0:0:
202,108,89445,1,0,0:0:0:0:
403,267,89460,1,0,0:0:0:0:
64,72,89535,1,0,0:0:0:0:
202,97,89580,1,0,0:0:0:0:
441,338,89640,1,0,0:0:0:0:
202,97,89700,1,0,0:0:0:0:
54,147,89760,1,0,0:0:0:0:
285,230,89820,1,0,0:0:0:0:
199,92,89850,1,0,0:0:0:0:
90,233,89970,1,0,0:0:0:0:
204,170,89970,1,0,0:0:0:0:
200,90,89985,1,0,0:0:0:0:
241,140,90135,1,0,0:0:0:0:
118,259,90150,1,0,0:0:0:0:
200,90,90165,1,0,0:0:0:0:
393,175,90300,1,0,0:0:0:0:
200,90,90300,1,0,0:0:0:0:
194,287,90360,1,0,0:0:0:0:
200,90,90450,1,0,0:0:0:0:
280,56,90465,1,0,0:0:0:0:
271,267,90480,1,0,0:0:0:0:
289,274,90555,1,0,0:0:0:0:
191,81,90570,1,0,0:0:0:0:
341,83,90645,1,0,0:0:0:0:
121,167,90660,1,0,0:0:0:0:
190,77,90720,1,0,0:0:0:0:
417,237,90750,1,0,0:0:0:0:
365,104,90810,1,0,0:0:0:0:
447,174,90825,1,0,0:0:0:0:
190,77,90870,1,0,0:0:0:0:
430,187,90975,1,0,0:0:0:0:
271,118,90990,1,0,0:0:0:0:
192,161,91005,1,0,0:0:0:0:
190,77,91020,1,0,0:0:0:0:
422,124,91140,1,0,0:0:0:0:
356,97,91170,1,0,0:0:0:0:
232,211,91185,1,0,0:0:0:0:
279,141,91200,1,0,0:0:0:0:
316,246,91335,1,0,0:0:0:0:
287,148,91350,1,0,0:0:0:0:
4,157,91365,1,0,0:0:0:0:
285,66,91380,1,0,0:0:0:0:
292,153,91485,1,0,0:0:0:0:
182,361,91515,1,0,0:0:0:0:
149,146,91545,1,0,0:0:0:0:
114,60,91575,1,0,0:0:0:0:
212,161,91635,1,0,0:0:0:0:
180,135,91725,1,0,0:0:0:0:
339,214,91755,1,0,0:0:0:0:
212,161,91770,1,0,0:0:0:0:
60,134,91815,1,0,0:0:0:0:
183,138,91860,1,0,0:0:0:0:
378,302,91890,1,0,0:0:0:0:
481,282,91905,1,0,0:0:0:0:
314,64,91950,1,0,0:0:0:0:
195,117,91995,1,0,0:0:0:0:
87,243,92025,1,0,0:0:0:0:
483,137,92100,1,0,0:0:0:0:
264,136,92130,1,0,0:0:0:0:
464,59,92205,1,0,0:0:0:0:
186,295,92220,1,0,0:0:0:0:
277,170,92280,1,0,0:0:0:0:
273,295,92310,1,0,0:0:0:0:
253,193,92430,1,0,0:0:0:0:
287,294,92430,1,0,0:0:0:0:
147,53,92445,1,0,0:0:0:0:
182,100,92505,1,0,0:0:0:0:
400,226,92535,1,0,0:0:0:0:
211,189,92580,1,0,0:0:0:0:
281,263,92640,1,0,0:0:0:0:
258,188,92670,1,0,0:0:0:0:
352,252,92670,1,0,0:0:0:0:
400,226,92715,1,0,0:0:0:0:
149,149,92730,1,0,0:0:0:0:
400,193,92850,1,0,0:0:0:0:
336,82,92850,1,0,0:0:0:0:
421,153,92865,1,0,0:0:0:0:
155,134,92880,1,0,0:0:0:0:
474,172,92940,1,0,0:0:0:0:
178,118,93000,1,0,0:0:0:0:
342,233,93000,1,0,0:0:0:0:
425,105,93030,1,0,0:0:0:0:
397,119,93060,1,0,0:0:0:0:
360,174,93165,1,0,0:0:0:0:
168,119,93225,1,0,0:0:0:0:
280,255,93240,1,0,0:0:0:0:
286,58,93270,1,0,0:0:0:0:
376,233,93330,1,0,0:0:0:0:
141,142,93405,1,0,0:0:0:0:
342,66,93450,1,0,0:0:0:0:
305,267,93480,1,0,0:0:0:0:
176,49,93495,1,0,0:0:0:0:
106,221,93570,1,0,0:0:0:0:
342,66,93615,1,0,0:0:0:0:
164,245,93630,1,0,0:0:0:0:
108,108,93705,1,0,0:0:0:0:
160,192,93765,1,0,0:0:0:0:
205,85,93780,1,0,0:0:0:0:
249,15,93795,1,0,0:0:0:0:
184,179,93915,1,0,0:0:0:0:
281,51,93960,1,0,0:0:0:0:
112,225,93975,1,0,0:0:0:0:
196,66,93990,1,0,0:0:0:0:
218,166,94065,1,0,0:0:0:0:
364,164,94125,1,0,0:0:0:0:
155,120,94200,1,0,0:0:0:0:
144,278,94200,1,0,0:0:0:0:
236,154,94215,1,0,0:0:0:0:
296,288,94305,1,0,0:0:0:0:
216,85,94350,1,0,0:0:0:0:
143,192,94365,1,0,0:0:0:0:
182,298,94440,1,0,0:0:0:0:
178,316,94470,1,0,0:0:0:0:
216,85,94515,1,0,0:0:0:0:
187,268,94545,1,0,0:0:0:0:
266,275,94650,1,0,0:0:0:0:
151,199,94650,1,0,0:0:0:0:
266,148,94695,1,0,0:0:0:0:
331,227,94725,1,0,0:0:0:0:
329,206,94845,1,0,0:0:0:0:
218,93,94860,1,0,0:0:0:0:
340,222,94860,1,0,0:0:0:0:
349,153,94890,1,0,0:0:0:0:
304,244,95010,1,0,0:0:0:0:
273,68,95040,1,0,0:0:0:0:
327,145,95070,1,0,0:0:0:0:
306,106,95085,1,0,0:0:0:0:
253,220,95190,1,0,0:0:0:0:
147,60,95265,1,0,0:0:0:0:
214,110,95295,1,0,0:0:0:0:
268,187,95340,1,0,0:0:0:0:
176,214,95430,1,0,0:0:0:0:
127,241,95445,1,0,0:0:0:0:
185,178,95490,1,0,0:0:0:0:
277,170,95520,1,0,0:0:0:0:
261,110,95640,1,0,0:0:0:0:
465,294,95640,1,0,0:0:0:0:
281,181,95745,1,0,0:0:0:0:
143,119,95805,1,0,0:0:0:0:
477,204,95805,1,0,0:0:0:0:
282,115,95955,1,0,0:0:0:0:
59,258,95985,1,0,0:0:0:0:
417,154,96015,1,0,0:0:0:0:
158,104,96105,1,0,0:0:0:0:
216,278,96165,1,0,0:0:0:0:
106,89,96165,1,0,0:0:0:0:
172,214,96345,1,0,0:0:0:0:
359,207,96360,1,0,0:0:0:0:
290,180,96360,1,0,0:0:0:0:
169,267,96360,1,0,0:0:0:0:
236,182,96525,1,0,0:0:0:0:
326,247,96555,1,0,0:0:0:0:
297,144,96570,1,0,0:0:0:0:
297,174,96720,1,0,0:0:0:0:
309,193,96720,1,0,0:0:0:0:
277,95,96765,1,0,0:0:0:0:
144,126,96900,1,0,0:0:0:0:
320,143,96900,1,0,0:0:0:0:
183,62,96945,1,0,0:0:0:0:
202,108,97050,1,0,0:0:0:0:
403,267,97065,1,0,0:0:0:0:
64,72,97140,1,0,0:0:0:0:
202,97,97185,1,0,0:0:0:0:
441,338,97245,1,0,0:0:0:0:
202,97,97305,1,0,0:0:0:0:
54,147,97365,1,0,0:0:0:0:
285,230,97425,1,0,0:0:0:0:
199,92,97455,1,0,0:0:0:0:
204,170,97575,1,0,0:0:0:0:
90,233,97575,1,0,0:0:0:0:
200,90,97590,1,0,0:0:0:0:
241,140,97740,1,0,0:0:0:0:
118,259,97755,1,0,0:0:0:0:
200,90,97770,1,0,0:0:0:0:
200,90,97905,1,0,0:0:0:0:
393,175,97905,1,0,0:0:0:0:
194,287,97965,1,0,0:0:0:0:
200,90,98055,1,0,0:0:0:0:
280,56,98070,1,0,0:0:0:0:
271,267,98085,1,0,0:0:0:0:
289,274,98160,1,0,0:0:0:0:
191,81,98175,1,0,0:0:0:0:
341,83,98250,1,0,0:0:0:0:
121,167,98265,1,0,0:0:0:0:
190,77,98325,1,0,0:0:0:0:
417,237,98355,1,0,0:0:0:0:
365,104,98415,1,0,0:0:0:0:
447,174,98430,1,0,0:0:0:0:
190,77,98475,1,0,0:0:0:0:
430,187,98580,1,0,0:0:0:0:
271,118,98595,1,0,0:0:0:0:
192,161,98610,1,0,0:0:0:0:
190,77,98625,1,0,0:0:0:0:
422,124,98745,1,0,0:0:0:0:
356,97,98775,1,0,0:0:0:0:
232,211,98790,1,0,0:0:0:0:
279,141,98805,1,0,0:0:0:0:
316,246,98940,1,0,0:0:0:0:
287,148,98955,1,0,0:0:0:0:
4,157,98970,1,0,0:0:0:0:
285,66,98985,1,0,0:0:0:0:
292,153,99090,1,0,0:0:0:0:
182,361,99120,1,0,0:0:0:0:
149,146,99150,1,0,0:0:0:0:
114,60,99180,1,0,0:0:0:0:
212,161,99240,1,0,0:0:0:0:
180,135,99330,1,0,0:0:0:0:
339,214,99360,1,0,0:0:0:0:
212,161,99375,1,0,0:0:0:0:
60,134,99420,1,0,0:0:0:0:
183,138,99465,1,0,0:0:0:0:
378,302,99495,1,0,0:0:0:0:
481,282,99510,1,0,0:0:0:0:
314,64,99555,1,0,0:0:0:0:
195,117,99600,1,0,0:0:0:0:
87,243,99630,1,0,0:0:0:0:
483,137,99705,1,0,0:0:0:0:
264,136,99735,1,0,0:0:0:0:
464,59,99810,1,0,0:0:0:0:
186,295,99825,1,0,0:0:0:0:
277,170,99885,1,0,0:0:0:0:
273,295,99915,1,0,0:0:0:0:
287,294,100035,1,0,0:0:0:0:
253,193,100035,1,0,0:0:0:0:
147,53,100050,1,0,0:0:0:0:
182,100,100110,1,0,0:0:0:0:
400,226,100140,1,0,0:0:0:0:
211,189,100185,1,0,0:0:0:0:
281,263,100245,1,0,0:0:0:0:
352,252,100275,1,0,0:0:0:0:
258,188,100275,1,0,0:0:0:0:
400,226,100320,1,0,0:0:0:0:
149,149,100335,1,0,0:0:0:0:
336,82,100455,1,0,0:0:0:0:
400,193,100455,1,0,0:0:0:0:
421,153,100470,1,0,0:0:0:0:
155,134,100485,1,0,0:0:0:0:
474,172,100545,1,0,0:0:0:0:
342,233,100605,1,0,0:0:0:0:
178,118,100605,1,0,0:0:0:0:
425,105,100635,1,0,0:0:0:0:
397,119,100665,1,0,0:0:0:0:
404,189,100680,5,0,0:0:0:0:
360,174,100770,1,0,0:0:0:0:
168,119,100830,1,0,0:0:0:0:
280,255,100845,1,0,0:0:0:0:
286,58,100875,1,0,0:0:0:0:
301,74,100935,1,0,0:0:0:0:
376,233,100935,1,0,0:0:0:0:
141,142,101010,1,0,0:0:0:0:
342,66,101055,1,0,0:0:0:0:
305,267,101085,1,0,0:0:0:0:
176,49,101100,1,0,0:0:0:0:
245,53,101130,1,0,0:0:0:0:
106,221,101175,1,0,0:0:0:0:
342,66,101220,1,0,0:0:0:0:
164,245,101235,1,0,0:0:0:0:
108,108,101310,1,0,0:0:0:0:
174,296,101370,1,0,0:0:0:0:
160,192,101370,1,0,0:0:0:0:
205,85,101385,1,0,0:0:0:0:
249,15,101400,1,0,0:0:0:0:
184,179,101520,1,0,0:0:0:0:
281,51,101565,1,0,0:0:0:0:
112,225,101580,1,0,0:0:0:0:
196,66,101595,1,0,0:0:0:0:
218,166,101670,1,0,0:0:0:0:
364,164,101730,1,0,0:0:0:0:
144,278,101805,1,0,0:0:0:0:
155,120,101805,1,0,0:0:0:0:
236,154,101820,1,0,0:0:0:0:
162,112,101850,1,0,0:0:0:0:
296,288,101910,1,0,0:0:0:0:
216,85,101955,1,0,0:0:0:0:
143,192,101970,1,0,0:0:0:0:
182,298,102045,1,0,0:0:0:0:
292,270,102060,1,0,0:0:0:0:
178,316,102075,1,0,0:0:0:0:
216,85,102120,1,0,0:0:0:0:
187,268,102150,1,0,0:0:0:0:
151,199,102255,1,0,0:0:0:0:
266,275,102255,1,0,0:0:0:0:
426,129,102300,1,0,0:0:0:0:
266,148,102300,1,0,0:0:0:0:
331,227,102330,1,0,0:0:0:0:
329,206,102450,1,0,0:0:0:0:
340,222,102465,1,0,0:0:0:0:
218,93,102465,1,0,0:0:0:0:
349,153,102495,1,0,0:0:0:0:
236,101,102540,1,0,0:0:0:0:
304,244,102615,1,0,0:0:0:0:
273,68,102645,1,0,0:0:0:0:
327,145,102675,1,0,0:0:0:0:
306,106,102690,1,0,0:0:0:0:
212,211,102735,1,0,0:0:0:0:
253,220,102795,1,0,0:0:0:0:
147,60,102870,1,0,0:0:0:0:
168,207,102900,1,0,0:0:0:0:
214,110,102900,1,0,0:0:0:0:
268,187,102945,1,0,0:0:0:0:
176,214,103035,1,0,0:0:0:0:
61,96,103050,1,0,0:0:0:0:
127,241,103050,1,0,0:0:0:0:
185,178,103095,1,0,0:0:0:0:
277,170,103125,1,0,0:0:0:0:
465,294,103245,1,0,0:0:0:0:
261,110,103245,1,0,0:0:0:0:
340,95,103260,1,0,0:0:0:0:
281,181,103350,1,0,0:0:0:0:
477,204,103410,1,0,0:0:0:0:
143,119,103410,1,0,0:0:0:0:
397,104,103440,1,0,0:0:0:0:
282,115,103560,1,0,0:0:0:0:
59,258,103590,1,0,0:0:0:0:
241,57,103620,1,0,0:0:0:0:
417,154,103620,1,0,0:0:0:0:
158,104,103710,1,0,0:0:0:0:
106,89,103770,1,0,0:0:0:0:
216,278,103770,1,0,0:0:0:0:
234,184,103800,1,0,0:0:0:0:
172,214,103950,1,0,0:0:0:0:
359,207,103965,1,0,0:0:0:0:
281,274,103980,1,0,0:0:0:0:
