osu file format v14

[General]
AudioFilename: audio.mp3
AudioLeadIn: 0
PreviewTime: 45443
Countdown: 0
SampleSet: Soft
StackLeniency: 0.5
Mode: 0
LetterboxInBreaks: 1
WidescreenStoryboard: 1

[Editor]
Bookmarks: 22854,34148,45442,59559,83205,94499,125205,136499,146381,153439,164733,176028
DistanceSpacing: 0.8
BeatDivisor: 2
GridSize: 4
TimelineZoom: 1.4

[Metadata]
Title:Sakimori Renka (Long Version)
TitleUnicode:防人恋歌 (Long Version)
Artist:Ax feat.Natsukawa Yoko
ArtistUnicode:Ax feat.夏川陽子
Creator:Seikatu
Version:Normal Collab
Source:pop'n music 18 せんごく列伝
Tags:onoken kyubey ryuu felys jubeat plus saucer manyouka 万葉歌
BeatmapID:1036068
BeatmapSetID:477999

[Difficulty]
HPDrainRate:4
CircleSize:3.5
OverallDifficulty:4
ApproachRate:5
SliderMultiplier:0.9
SliderTickRate:1

[Events]
//Background and Video events
0,0,"bg.jpg",0,0
//Break Periods
2,136499,145181
//Storyboard Layer 0 (Background)
//Storyboard Layer 1 (Fail)
//Storyboard Layer 2 (Pass)
//Storyboard Layer 3 (Foreground)
Sprite,Foreground,Centre,"Kyubey2.png",320,240 M,0,22854,,78.86452,401.8581 F,0,22854,23206,0,1 S,0,22854,23206,0.3393549,1 R,0,22854,23206,5.532903,0 F,0,23206,33442,1 S,0,23206,33442,1 F,0,33442,34148,1,0 S,0,33442,34148,1,0.1
Sprite,Foreground,Centre,"Seikatu2.png",320,240 M,0,620,,78.86452,401.8581 F,0,620,972,0,1 S,0,620,972,0.3393549,1 R,0,620,972,5.532903,0 F,0,972,22149,1,0.9943182 S,0,972,22149,1 F,0,22149,22854,0.9943182,0 S,0,22149,22854,1,0.1
Sprite,Foreground,Centre,"Seikatu2.png",320,240 M,0,59559,,78.86452,401.8581 F,0,59559,59911,0,1 S,0,59559,59911,0.3393549,1 R,0,59559,59911,5.532903,0 F,0,59911,82499,1 S,0,59911,82499,1 F,0,82499,83205,1,0 S,0,82499,83205,1,0.1
Sprite,Foreground,Centre,"Seikatu2.png",320,240 M,0,34148,,78.86452,401.8581 F,0,34148,34500,0,1 S,0,34148,34500,0.3393549,1 R,0,34148,34500,5.532903,0 F,0,34500,44736,1 S,0,34500,44736,1 F,0,44736,45442,1,0 S,0,44736,45442,1,0.1
Sprite,Foreground,Centre,"Kyubey2.png",320,240 M,0,83205,,78.86452,401.8581 F,0,83205,83557,0,1 S,0,83205,83557,0.3393549,1 R,0,83205,83557,5.532903,0 F,0,83557,93793,1 S,0,83557,93793,1 F,0,93793,94499,1,0 S,0,93793,94499,1,0.1
Sprite,Foreground,Centre,"Kyubey2.png",320,240 M,0,45442,,78.86452,401.8581 F,0,45442,45794,0,1 S,0,45442,45794,0.3393549,1 R,0,45442,45794,5.532903,0 F,0,45794,58853,1 S,0,45794,58853,1 F,0,58853,59559,1,0 S,0,58853,59559,1,0.1
Sprite,Foreground,Centre,"Seikatu2.png",320,240 M,0,94499,,78.86452,401.8581 F,0,94499,94851,0,1 S,0,94499,94851,0.3393549,1 R,0,94499,94851,5.532903,0 F,0,94851,124499,1 S,0,94851,124499,1 F,0,124499,125205,1,0 S,0,124499,125205,1,0.1
Sprite,Foreground,Centre,"Kyubey2.png",320,240 M,0,125205,,78.86452,401.8581 F,0,125205,125557,0,1 S,0,125205,125557,0.3393549,1 R,0,125205,125557,5.532903,0 F,0,125557,135793,1 S,0,125557,135793,1 F,0,135793,136499,1,0 S,0,135793,136499,1,0.1
Sprite,Foreground,Centre,"Kyubey2.png",320,240 M,0,146381,,78.86452,401.8581 F,0,146381,146733,0,1 S,0,146381,146733,0.3393549,1 R,0,146381,146733,5.532903,0 F,0,146733,152733,1 S,0,146733,152733,1 F,0,152733,153439,1,0 S,0,152733,153439,1,0.1
Sprite,Foreground,Centre,"Seikatu2.png",320,240 M,0,153439,,78.86452,401.8581 F,0,153439,153791,0,1 S,0,153439,153791,0.3393549,1 R,0,153439,153791,5.532903,0 F,0,153791,164027,1 S,0,153791,164027,1 F,0,164027,164733,1,0 S,0,164027,164733,1,0.1
Sprite,Foreground,Centre,"Kyubey2.png",320,240 M,0,164733,,78.86452,401.8581 F,0,164733,165085,0,1 S,0,164733,165085,0.3393549,1 R,0,164733,165085,5.532903,0 F,0,165085,175321,1 S,0,165085,175321,1 F,0,175321,176027,1,0 S,0,175321,176027,1,0.1
Sprite,Foreground,Centre,"Seikatu2.png",320,240 M,0,176028,,78.86452,401.8581 F,0,176028,176380,0,1 S,0,176028,176380,0.3393549,1 R,0,176028,176380,5.532903,0 S,0,176380,189263,1 F,0,176380,189439,1 S,0,189263,189439,1,1.247742 F,0,189439,190145,1,0 S,0,189439,190145,1.247742,0.1
//Storyboard Sound Samples

[TimingPoints]
620,352.941176470588,7,2,1,40,1,0
10590,-100,7,2,1,55,0,0
22854,352.941176470588,4,2,1,40,1,0
34148,-100,4,2,1,55,0,1
34236,-100,4,2,1,55,0,0
45442,-100,4,2,1,70,0,1
51001,-100,4,2,1,70,0,0
51089,-100,4,2,1,70,0,1
58853,-100,4,2,1,70,0,0
59559,352.941176470588,7,2,1,55,1,1
59647,-100,7,2,1,55,0,0
71911,352.941176470588,4,2,1,40,1,0
83205,-100,4,2,1,55,0,1
83293,-100,4,2,1,55,0,0
94499,-100,4,2,1,70,0,1
100058,-100,4,2,1,70,0,0
100146,-100,4,2,1,70,0,1
105705,-100,4,2,1,70,0,0
105793,-100,4,2,1,70,0,1
108528,-100,4,2,1,70,0,0
108616,-100,4,2,1,55,0,1
108705,-100,4,2,1,55,0,0
119558,352.941176470588,4,2,1,55,1,0
125205,-100,4,2,1,55,0,1
125293,-100,4,2,1,55,0,0
136499,352.941176470588,7,2,1,40,1,0
146381,352.941176470588,4,2,1,40,1,0
153439,-100,4,2,1,55,0,1
153528,-100,4,2,1,55,0,0
164733,-100,4,2,1,70,0,1
170292,-100,4,2,1,70,0,0
170381,-100,4,2,1,70,0,1
176292,-100,4,2,1,70,0,0
176380,-100,4,2,1,70,0,1
176998,-100,4,2,1,70,0,0
177086,-100,4,2,1,70,0,1
179116,-100,4,2,1,70,0,0
179204,-100,4,2,1,70,0,1
181586,-100,4,2,1,70,0,0
181675,-100,4,2,1,70,0,1
187233,-100,4,2,1,70,0,0
187322,-100,4,2,1,70,0,1
189439,-100,4,2,1,70,0,0

[Colours]
Combo1 : 255,81,85
Combo2 : 255,185,233
Combo3 : 255,128,192
Combo4 : 255,128,128

[HitObjects]
112,97,620,6,0,L|204:92,1,90,2|0,0:0|0:0,0:0:0:0:
279,46,1325,2,0,P|320:87|338:161,1,135,0|2,0:0|0:0,0:0:0:0:
295,239,2208,2,0,L|206:234,1,90,0|0,0:0|0:0,0:0:0:0:
176,211,2737,2,0,P|147:244|129:290,1,90
145,375,3443,1,2,0:0:0:0:
145,375,5561,6,0,L|234:370,1,90,2|0,0:0|0:0,0:0:0:0:
324,378,6267,2,0,P|346:322|338:242,1,135,0|2,0:0|0:0,0:0:0:0:
288,175,7149,2,0,L|191:173,1,90,0|0,0:0|0:0,0:0:0:0:
161,170,7678,1,0,0:0:0:0:
78,206,8031,2,0,P|54:163|51:78,1,135,2|0,0:0|0:0,0:0:0:0:
64,45,8737,2,0,L|155:51,1,90,0|0,0:0|0:0,0:0:0:0:
189,55,9267,5,0,1:0:0:0:
189,55,10502,6,0,L|282:50,1,90,4|0,1:0|0:0,0:0:0:0:
361,15,11208,2,0,P|397:62|405:96,1,90
440,98,11737,2,0,P|432:156|413:186,1,90,2|0,0:3|0:0,0:0:0:0:
388,204,12266,1,0,0:0:0:0:
303,171,12619,1,0,0:0:0:0:
227,220,12972,6,0,L|134:214,2,90,0|0|0,0:0|0:0|0:0,0:0:0:0:
303,171,14031,1,0,0:0:0:0:
303,171,14208,2,0,P|346:157|391:164,1,90,2|2,0:3|0:3,0:0:0:0:
421,179,14737,2,0,P|438:143|434:89,1,90,0|0,0:0|0:0,0:0:0:0:
360,43,15443,6,0,L|268:46,1,90,0|0,0:0|0:0,0:0:0:0:
212,115,16149,2,0,P|169:104|119:108,1,90,0|0,0:0|0:0,0:0:0:0:
100,79,16678,2,0,P|61:101|29:139,1,90,2|0,0:3|0:0,0:0:0:0:
24,170,17207,1,0,0:0:0:0:
81,239,17560,1,0,0:0:0:0:
161,199,17913,6,0,L|253:204,2,90,0|0|0,0:0|0:0|0:0,0:0:0:0:
81,239,18972,1,0,0:0:0:0:
81,239,19149,2,0,P|72:284|81:329,1,90,2|2,0:3|0:3,0:0:0:0:
63,359,19678,2,0,L|155:354,1,90,0|0,0:0|0:0,0:0:0:0:
208,283,20384,1,4,1:0:0:0:
256,192,20472,12,0,21854,0:0:0:0:
452,204,22854,6,0,L|348:192,1,90,0|0,1:0|0:0,0:0:0:0:
280,232,23559,1,2,0:0:0:0:
352,348,24089,2,0,L|248:336,1,90,2|0,0:0|0:0,0:0:0:0:
236,316,24618,2,0,P|200:324|148:360,1,90,2|2,0:0|0:0,0:0:0:0:
80,304,25324,2,0,L|76:244,1,45,0|0,0:0|1:0,0:0:0:0:
48,240,25677,6,0,L|41:135,1,90,0|0,1:0|0:0,0:0:0:0:
48,60,26383,2,0,P|91:67|152:64,1,90
168,44,26912,2,0,P|224:32|312:52,1,135,2|2,0:0|2:0,0:0:0:0:
352,120,27795,1,0,2:0:0:0:
320,204,28148,1,0,0:0:0:0:
384,264,28501,6,0,L|368:364,1,90,0|0,1:0|0:0,0:0:0:0:
284,376,29206,1,2,0:0:0:0:
184,288,29736,2,0,L|88:316,1,90,2|0,0:0|0:0,0:0:0:0:
60,312,30265,2,0,P|48:266|60:204,1,90,2|2,0:0|0:0,0:0:0:0:
96,148,30971,2,0,L|156:160,1,45,0|0,0:0|1:0,0:0:0:0:
160,192,31324,6,0,P|205:183|284:192,1,90,0|0,1:0|0:0,0:0:0:0:
344,180,32030,2,0,P|339:227|352:296,1,90,0|2,0:0|0:0,0:0:0:0:
376,288,32559,2,0,P|395:378|470:363,2,180,0|0|8,0:0|1:0|0:0,0:0:0:0:
344,269,34148,5,4,1:2:0:0:
261,233,34501,2,0,P|239:231|209:236,1,45,8|0,0:0|1:0,0:0:0:0:
190,209,34853,2,0,P|149:228|119:262,1,90,2|8,1:2|0:0,0:0:0:0:
35,228,35559,2,0,P|33:189|50:136,2,90,0|2|2,1:0|1:2|1:2,0:0:0:0:
119,261,36618,1,8,0:0:0:0:
174,331,36971,6,0,L|268:325,1,90,2|8,1:2|0:0,0:0:0:0:
351,345,37677,2,0,L|356:300,1,45,2|0,1:2|1:0,0:0:0:0:
381,274,38030,2,0,L|362:232,1,45,8|0,0:0|0:0,0:0:0:0:
371,197,38383,2,0,P|331:173|286:168,2,90,2|8|2,1:2|0:0|1:2,0:0:0:0:
449,152,39442,1,0,1:0:0:0:
511,216,39795,5,4,1:2:0:0:
486,302,40148,2,0,P|464:301|442:303,1,45,8|0,0:0|1:0,0:0:0:0:
412,281,40501,2,0,P|374:305|327:310,1,90,2|8,1:2|0:0,0:0:0:0:
244,282,41206,2,0,P|234:330|240:372,2,90,0|10|2,1:0|0:0|0:0,0:0:0:0:
291,205,42265,1,8,0:0:0:0:
258,121,42618,6,0,P|200:88|134:82,1,135,4|0,1:0|1:0,0:0:0:0:
97,74,43324,2,0,L|103:165,1,90,8|0,0:0|0:0,0:0:0:0:
61,244,44030,2,0,P|141:287|230:292,1,180,0|8,1:0|0:0,0:0:0:0:
408,312,45442,6,0,P|402:267|408:188,1,90,4|8,1:0|0:0,0:0:0:0:
484,180,46148,2,0,P|489:135|484:56,1,90,0|8,1:0|0:0,0:0:0:0:
400,68,46853,2,0,P|377:78|344:84,1,45,4|0,1:2|0:0,0:0:0:0:
328,64,47206,2,0,P|303:61|271:49,1,45,8|0,0:0|0:0,0:0:0:0:
264,24,47559,1,0,1:2:0:0:
180,68,47912,1,12,0:0:0:0:
100,28,48265,6,0,L|88:88,1,45,4|0,1:2|0:0,0:0:0:0:
100,108,48618,2,0,P|60:144|48:200,1,90,8|0,0:0|1:0,0:0:0:0:
140,192,49324,1,8,0:0:0:0:
228,188,49677,2,0,P|271:184|328:192,1,90,4|10,1:2|0:0,0:0:0:0:
400,148,50383,2,0,L|412:208,1,45,4|2,0:2|1:2,0:0:0:0:
436,216,50736,2,0,L|448:276,1,45,8|4,0:0|1:2,0:0:0:0:
468,288,51089,6,0,P|424:288|379:293,1,90,4|8,1:0|0:0,0:0:0:0:
312,356,51795,2,0,P|267:350|222:350,1,90,0|8,1:0|0:0,0:0:0:0:
132,368,52501,2,0,P|132:347|125:320,1,45,4|0,1:2|0:0,0:0:0:0:
144,292,52853,2,0,P|139:268|141:240,1,45,8|0,0:0|0:0,0:0:0:0:
124,216,53206,2,0,P|128:172|116:120,1,90,0|12,1:2|0:0,0:0:0:0:
96,100,53736,1,0,1:0:0:0:
64,84,53912,6,0,L|152:64,1,90,4|8,1:2|0:0,0:0:0:0:
236,92,54618,2,0,P|280:97|336:92,1,90,0|8,1:0|0:0,0:0:0:0:
360,84,55148,2,0,L|348:180,2,90,4|4|4,1:2|1:2|1:2,0:0:0:0:
388,60,56030,1,4,1:2:0:0:
472,104,56383,2,0,L|462:178,1,45,12|0,1:0|0:0,0:0:0:0:
436,168,56736,6,0,P|436:216|452:268,1,90,0|12,1:0|0:0,0:0:0:0:
456,348,57442,2,0,P|407:340|352:344,1,90,0|12,1:0|0:0,0:0:0:0:
332,352,57971,1,0,1:0:0:0:
248,316,58324,2,0,L|232:364,2,45,0|0|0,1:0|1:0|1:0,0:0:0:0:
256,280,58853,2,0,P|260:232|228:172,1,90,4|0,1:0|0:0,0:0:0:0:
187,120,59559,6,0,P|223:98|255:54,1,90,4|0,1:0|0:0,0:0:0:0:
340,73,60264,2,0,P|387:69|431:77,1,90,0|0,0:0|0:0,0:0:0:0:
463,66,60794,2,0,L|455:158,1,90,2|0,0:3|0:0,0:0:0:0:
476,184,61323,1,0,2:0:0:0:
448,269,61676,1,0,2:0:0:0:
370,314,62029,6,0,P|328:326|278:328,2,90,0|0|0,2:0|2:0|2:0,0:0:0:0:
448,269,63088,1,0,0:0:0:0:
448,269,63264,2,0,P|453:214|446:176,1,90,2|2,0:3|0:3,0:0:0:0:
423,152,63794,2,0,L|333:150,1,90,0|0,0:0|0:0,0:0:0:0:
281,75,64500,6,0,L|184:85,1,90,0|0,0:0|0:0,0:0:0:0:
104,58,65206,2,0,P|81:106|75:141,1,90,0|0,0:0|0:0,0:0:0:0:
44,161,65735,2,0,P|48:214|60:247,1,90,2|0,0:3|0:0,0:0:0:0:
84,275,66264,1,0,0:0:0:0:
167,240,66617,1,0,0:0:0:0:
235,298,66970,6,0,L|333:304,2,90,0|0|0,0:0|0:0|0:0,0:0:0:0:
167,240,68029,1,0,0:0:0:0:
167,240,68206,2,0,P|160:185|168:150,1,90,2|2,0:3|0:3,0:0:0:0:
156,117,68735,2,0,L|247:119,1,90,0|0,0:0|0:0,0:0:0:0:
324,74,69441,1,4,0:1:0:0:
256,192,69529,12,0,70911,0:0:0:0:
380,256,71911,6,0,P|426:267|470:264,2,90,4|0|2,1:0|0:0|0:0,0:0:0:0:
263,324,73146,2,0,P|216:308|172:308,1,90,2|0,0:0|0:0,0:0:0:0:
156,277,73675,2,0,P|115:291|63:291,1,90,2|2,0:0|0:0,0:0:0:0:
26,211,74381,2,0,P|35:190|49:173,1,45,0|0,0:0|1:0,0:0:0:0:
40,137,74734,6,0,P|84:144|132:138,1,90,0|0,1:0|0:0,0:0:0:0:
218,152,75440,2,0,L|213:60,1,90,2|0,0:0|0:0,0:0:0:0:
196,29,75969,2,0,L|331:34,1,135,2|2,0:0|0:0,0:0:0:0:
417,7,76852,1,0,0:0:0:0:
479,72,77205,1,0,0:0:0:0:
484,161,77558,6,0,P|463:206|435:233,1,90,0|0,1:0|0:0,0:0:0:0:
348,205,78263,1,2,0:0:0:0:
213,219,78793,2,0,L|209:126,1,90,2|0,0:0|0:0,0:0:0:0:
224,96,79322,2,0,P|183:85|123:88,1,90,2|2,0:0|0:0,0:0:0:0:
53,123,80028,2,0,P|53:146|57:168,1,45,0|0,0:0|1:0,0:0:0:0:
31,193,80381,6,0,P|42:238|69:281,1,90,0|0,1:0|0:0,0:0:0:0:
138,326,81087,2,0,P|183:314|227:318,1,90,2|0,0:0|0:0,0:0:0:0:
251,292,81616,2,0,P|293:323|375:335,1,135,2|0,0:0|0:0,0:0:0:0:
459,306,82499,1,8,0:0:0:0:
437,218,82852,1,0,1:0:0:0:
468,132,83205,6,0,P|472:88|464:32,1,90,0|8,1:0|0:0,0:0:0:0:
436,24,83734,2,0,L|384:12,1,45,0|2,1:0|1:2,0:0:0:0:
308,44,84263,2,0,L|240:56,1,45,8|2,0:0|1:2,0:0:0:0:
228,48,84616,2,0,P|235:95|208:148,2,90,0|2|2,1:0|1:2|1:2,0:0:0:0:
144,84,85675,1,8,0:0:0:0:
140,172,86028,6,0,P|187:213|239:219,1,90,2|8,1:2|0:0,0:0:0:0:
272,288,86734,2,0,L|220:308,1,45,2|0,1:2|1:0,0:0:0:0:
208,332,87087,2,0,L|156:352,1,45,8|0,0:0|0:0,0:0:0:0:
136,372,87440,2,0,P|91:369|36:376,2,90,2|8|2,1:2|0:0|1:2,0:0:0:0:
104,288,88499,1,0,1:0:0:0:
148,212,88852,6,0,P|192:220|268:220,1,90,4|8,1:2|0:0,0:0:0:0:
260,192,89381,2,0,L|308:204,1,45,0|2,1:0|1:2,0:0:0:0:
356,280,89910,2,0,L|399:269,1,45,8|2,0:0|1:2,0:0:0:0:
436,272,90263,2,0,P|444:228|436:172,1,90,0|10,1:0|0:2,0:0:0:0:
356,148,90969,2,0,P|348:104|356:48,1,90,0|8,0:0|0:0,0:0:0:0:
336,28,91499,1,0,0:0:0:0:
300,20,91675,6,0,P|256:17|156:56,1,135,4|0,1:0|1:0,0:0:0:0:
136,52,92381,2,0,L|148:160,1,90,8|0,0:0|0:0,0:0:0:0:
88,208,93087,2,0,P|176:203|144:292,1,180,4|8,1:0|0:0,0:0:0:0:
345,215,94499,6,0,P|342:170|323:130,1,90,4|8,1:0|0:0,0:0:0:0:
369,52,95205,2,0,P|335:22|293:7,1,90,0|8,1:0|0:0,0:0:0:0:
230,71,95910,2,0,L|184:68,1,45,4|0,1:2|0:0,0:0:0:0:
151,80,96263,2,0,L|105:77,1,45,8|0,0:0|0:0,0:0:0:0:
82,50,96616,2,0,P|53:93|44:135,1,90,0|12,1:0|0:0,0:0:0:0:
92,208,97322,6,0,L|89:253,2,45,4|0|8,1:2|0:0|0:0,0:0:0:0:
175,173,98028,2,0,P|219:177|262:210,1,90,0|8,1:0|0:0,0:0:0:0:
346,204,98734,1,4,1:2:0:0:
390,281,99087,1,10,0:0:0:0:
329,347,99440,2,0,P|307:346|282:340,1,45,4|2,0:0|1:2,0:0:0:0:
251,354,99793,2,0,P|232:342|213:324,1,45,8|4,0:0|1:2,0:0:0:0:
179,321,100146,6,0,P|167:279|172:227,1,90,4|8,1:0|0:0,0:0:0:0:
92,188,100852,2,0,P|113:149|153:116,1,90,0|8,1:0|0:0,0:0:0:0:
188,38,101558,2,0,P|207:51|229:59,1,45,4|0,1:2|0:0,0:0:0:0:
254,83,101910,2,0,P|276:84|300:80,1,45,8|0,0:0|0:0,0:0:0:0:
333,70,102263,1,0,1:0:0:0:
418,100,102616,2,0,L|415:147,1,45,12|0,0:0|1:0,0:0:0:0:
395,175,102969,6,0,P|403:218|394:263,2,90,4|8|0,1:2|0:0|1:0,0:0:0:0:
307,151,104028,1,8,0:0:0:0:
286,180,104205,2,0,L|196:178,1,90,4|4,1:2|1:2,0:0:0:0:
116,135,104910,2,0,L|72:141,1,45,4|4,1:2|1:2,0:0:0:0:
41,226,105440,2,0,L|85:220,1,45,12|0,1:0|0:0,0:0:0:0:
119,231,105793,6,0,P|125:277|113:323,1,90,4|0,1:0|0:0,0:0:0:0:
186,373,106499,2,0,P|234:370|281:354,1,90,4|0,1:0|0:0,0:0:0:0:
306,372,107028,2,0,L|314:280,1,90,4|0,1:0|1:0,0:0:0:0:
298,249,107558,1,0,1:0:0:0:
383,223,107910,1,8,0:0:0:0:
384,133,108263,1,0,1:0:0:0:
299,104,108616,6,0,L|206:107,1,90,4|8,1:0|0:0,0:0:0:0:
126,70,109322,2,0,P|99:112|87:154,1,90,2|8,1:2|0:0,0:0:0:0:
70,181,109852,2,0,L|159:178,1,90,2|0,1:2|1:0,0:0:0:0:
193,193,110381,1,8,0:0:0:0:
245,265,110734,1,0,1:0:0:0:
326,227,111087,2,0,L|376:230,1,45,8|0,0:0|0:0,0:0:0:0:
404,242,111440,6,0,P|419:189|420:151,1,90,2|8,1:2|0:0,0:0:0:0:
390,68,112146,2,0,L|301:62,1,90,2|8,1:2|0:0,0:0:0:0:
276,34,112675,2,0,L|184:42,1,90,2|0,1:2|1:0,0:0:0:0:
150,47,113205,1,8,0:0:0:0:
62,25,113558,2,0,P|51:66|55:118,1,90,0|8,1:0|0:0,0:0:0:0:
109,183,114263,6,0,L|102:237,2,45,2|0|8,1:2|0:0|0:0,0:0:0:0:
192,147,114969,2,0,P|244:148|288:169,1,90,2|8,1:2|0:0,0:0:0:0:
304,137,115499,2,0,P|347:120|378:81,1,90,2|0,1:2|1:0,0:0:0:0:
386,53,116028,1,8,0:0:0:0:
470,85,116381,1,0,1:0:0:0:
509,165,116734,1,8,0:0:0:0:
479,250,117087,6,0,L|386:246,1,90,4|8,1:0|0:0,0:0:0:0:
302,220,117793,2,0,P|285:266|285:312,1,90,0|8,1:0|0:0,0:0:0:0:
195,322,118499,1,0,1:0:0:0:
107,344,118852,1,0,1:0:0:0:
37,286,119205,1,0,1:0:0:0:
65,200,119558,5,4,1:0:0:0:
256,192,119646,12,0,122381,1:0:0:0:
65,200,123793,6,0,L|158:192,1,90,0|10,1:0|0:0,0:0:0:0:
216,126,124499,2,0,P|265:146|296:174,1,90,2|10,0:2|0:0,0:0:0:0:
336,248,125205,5,4,1:0:0:0:
424,240,125558,2,0,L|432:192,1,45,8|0,0:0|1:0,0:0:0:0:
468,192,125910,2,0,P|464:144|480:80,1,90,0|8,1:0|0:0,0:0:0:0:
432,24,126616,2,0,L|336:40,2,90,0|8|0,0:0|0:0|1:0,0:0:0:0:
479,103,127675,2,0,L|402:122,1,45,8|0,0:0|1:0,0:0:0:0:
432,148,128028,6,0,P|393:138|324:148,1,90,0|8,1:0|0:0,0:0:0:0:
328,172,128558,1,0,1:0:0:0:
312,204,128734,2,0,P|267:207|223:197,1,90,0|8,1:0|0:0,0:0:0:0:
140,160,129440,2,0,L|132:52,2,90,0|8|0,0:0|0:0|1:0,0:0:0:0:
108,244,130499,1,8,0:0:0:0:
48,312,130852,6,0,P|96:332|152:324,1,90,0|8,1:0|0:0,0:0:0:0:
212,288,131558,1,0,1:0:0:0:
296,316,131910,2,0,L|344:328,1,45,8|0,0:0|1:0,0:0:0:0:
368,308,132263,2,0,L|475:335,2,90,0|8|0,0:0|0:0|0:0,0:0:0:0:
424,236,133322,1,8,0:0:0:0:
336,224,133675,6,0,P|320:180|340:92,1,135,0|0,1:0|1:0,0:0:0:0:
328,60,134381,2,0,L|200:92,1,90,8|0,0:0|0:0,0:0:0:0:
164,36,135087,2,0,B|144:80|161:124|161:124|180:172|163:211,1,180,0|0,0:0|1:0,0:0:0:0:
136,160,146381,5,0,1:0:0:0:
224,312,147086,1,0,0:0:0:0:
376,224,147792,1,0,0:0:0:0:
288,72,148497,1,0,0:0:0:0:
256,248,149204,6,0,P|204:240|264:340,1,270,2|0,0:0|0:0,0:0:0:0:
336,288,150616,2,0,P|424:288|460:368,1,180,0|0,0:0|0:0,0:0:0:0:
392,196,152028,6,0,P|380:132|408:60,1,135,0|0,1:0|1:0,0:0:0:0:
376,44,152733,2,0,P|312:60|239:37,1,135,8|8,0:0|0:0,0:0:0:0:
212,52,153439,5,0,1:0:0:0:
124,23,153792,2,0,L|74:32,1,45,8|0,0:0|1:0,0:0:0:0:
45,19,154145,2,0,P|23:69|19:104,1,90,2|8,1:2|0:0,0:0:0:0:
85,164,154851,2,0,P|90:218|104:250,2,90,0|2|2,1:0|1:2|1:2,0:0:0:0:
143,95,155910,1,8,0:0:0:0:
228,122,156263,6,0,L|318:117,1,90,2|8,1:2|0:0,0:0:0:0:
407,130,156969,2,0,P|418:151|425:177,1,45,2|0,1:2|1:0,0:0:0:0:
453,191,157322,2,0,P|452:214|445:240,1,45,8|0,0:0|0:0,0:0:0:0:
462,266,157675,2,0,L|372:282,1,90,2|8,1:2|0:0,0:0:0:0:
291,320,158381,1,2,1:2:0:0:
252,238,158733,1,0,1:0:0:0:
279,152,159086,6,0,P|238:132|191:126,1,90,4|8,1:2|0:0,0:0:0:0:
159,134,159616,2,0,L|160:182,1,45,0|2,1:0|1:2,0:0:0:0:
74,206,160145,2,0,L|73:161,1,45,8|2,0:0|1:2,0:0:0:0:
73,124,160498,2,0,P|42:90|31:46,2,90,0|10|2,1:0|0:2|0:2,0:0:0:0:
122,48,161557,1,8,0:0:0:0:
208,71,161910,6,0,L|346:61,1,135,4|0,1:0|1:0,0:0:0:0:
373,43,162616,2,0,P|399:91|406:132,1,90,8|0,0:0|0:0,0:0:0:0:
380,212,163322,2,0,L|201:205,1,180,0|8,1:0|0:0,0:0:0:0:
56,312,164733,6,0,P|99:318|168:296,1,90,4|8,1:0|0:0,0:0:0:0:
232,284,165439,2,0,P|269:306|341:313,1,90,0|8,1:0|0:0,0:0:0:0:
400,336,166145,2,0,L|392:268,1,45,4|0,1:2|0:0,0:0:0:0:
424,268,166498,2,0,P|419:244|419:215,1,45,8|0,0:0|0:0,0:0:0:0:
432,192,166851,1,0,1:0:0:0:
488,124,167204,1,12,0:2:0:0:
400,108,167557,6,0,P|353:113|284:104,1,90,4|8,1:2|0:0,0:0:0:0:
236,60,168263,2,0,P|191:56|146:61,1,90,0|8,1:0|0:0,0:0:0:0:
116,80,168792,1,0,0:0:0:0:
84,100,168969,2,0,P|96:144|72:200,1,90,4|10,1:2|0:0,0:0:0:0:
52,272,169675,2,0,L|108:288,1,45,4|2,0:2|1:2,0:0:0:0:
132,280,170028,2,0,L|188:296,1,45,8|4,0:0|1:2,0:0:0:0:
212,288,170381,6,0,P|224:248|216:176,1,90,4|8,1:0|0:0,0:0:0:0:
308,168,171086,2,0,P|309:123|297:80,1,90,0|8,1:0|0:0,0:0:0:0:
208,104,171792,2,0,P|182:112|158:113,1,45,4|0,1:2|0:0,0:0:0:0:
128,104,172145,2,0,P|102:93|83:78,1,45,8|0,0:0|0:0,0:0:0:0:
80,48,172498,1,0,1:0:0:0:
164,16,172851,2,0,L|236:8,1,45,12|0,0:2|1:0,0:0:0:0:
240,32,173204,6,0,P|288:44|356:48,1,90,4|8,1:2|0:0,0:0:0:0:
384,120,173910,2,0,P|336:132|268:136,1,90,0|8,1:0|0:0,0:0:0:0:
260,128,174439,2,0,L|276:240,1,90,4|4,1:2|1:2,0:0:0:0:
280,252,174969,1,0,1:0:0:0:
208,304,175322,2,0,P|164:295|92:296,1,90,4|8,1:2|1:0,0:0:0:0:
79,212,176028,6,0,L|31:217,2,45,0|0|4,0:0|0:0|1:0,0:0:0:0:
145,151,176733,2,0,P|173:152|196:158,2,45,0|0|4,1:0|1:0|1:0,0:0:0:0:
83,84,177439,2,0,P|86:59|102:32,1,45,0|0,1:0|0:0,0:0:0:0:
130,47,177792,2,0,L|180:42,1,45,8|0,0:0|0:0,0:0:0:0:
210,39,178145,1,0,1:0:0:0:
300,48,178498,1,8,0:0:0:0:
366,111,178851,6,0,L|362:157,2,45,0|0|4,1:2|1:0|1:0,0:0:0:0:
454,92,179557,2,0,P|482:130|495:180,1,90,4|8,1:2|0:0,0:0:0:0:
469,257,180263,1,4,1:2:0:0:
379,247,180616,1,10,0:0:0:0:
303,295,180969,2,0,P|280:302|254:307,1,45,4|2,0:2|1:2,0:0:0:0:
231,328,181322,2,0,P|207:322|182:313,1,45,8|4,0:0|1:2,0:0:0:0:
152,320,181675,6,0,P|125:284|110:228,1,90,4|12,1:0|0:0,0:0:0:0:
120,151,182380,2,0,L|216:155,1,90,0|12,1:0|0:0,0:0:0:0:
294,187,183086,2,0,P|304:166|310:140,1,45,4|0,1:2|0:0,0:0:0:0:
313,110,183439,2,0,P|311:86|304:61,1,45,8|0,0:0|0:0,0:0:0:0:
285,36,183792,1,0,1:0:0:0:
195,44,184145,2,0,L|147:42,1,45,12|0,0:2|0:0,0:0:0:0:
117,25,184498,6,0,P|71:27|28:55,2,90,4|8|0,1:2|0:0|1:0,0:0:0:0:
98,113,185557,1,8,0:0:0:0:
124,136,185733,2,0,L|131:229,1,90,4|4,1:2|1:2,0:0:0:0:
204,277,186439,2,0,L|201:322,1,45,4|4,1:2|1:2,0:0:0:0:
287,348,186969,2,0,L|290:303,1,45,12|0,1:0|0:0,0:0:0:0:
317,279,187322,6,0,P|306:235|317:184,1,90,0|12,1:0|0:0,0:0:0:0:
361,115,188028,2,0,L|407:120,2,45,0|0|12,1:0|1:0|0:0,0:0:0:0:
338,86,188557,2,0,P|295:99|247:94,1,90,0|0,1:0|1:0,0:0:0:0:
217,81,189086,1,0,1:0:0:0:
145,135,189439,5,4,1:0:0:0:
