osu file format v14

[General]
AudioFilename: audio.mp3
AudioLeadIn: 0
PreviewTime: 45443
Countdown: 0
SampleSet: Soft
StackLeniency: 0.5
Mode: 0
LetterboxInBreaks: 1
WidescreenStoryboard: 0

[Editor]
Bookmarks: 22855,34149,42619,45443,83206,91676,94500,108617,122381,125206,153439,161910,164735,175675,189440
DistanceSpacing: 1
BeatDivisor: 8
GridSize: 4
TimelineZoom: 1.4

[Metadata]
Title:Sakimori Renka (Long Version)
TitleUnicode:防人恋歌 (Long Version)
Artist:Ax feat.Natsukawa Yoko
ArtistUnicode:Ax feat.夏川陽子
Creator:Seikatu
Version:Insane
Source:pop'n music 18 せんごく列伝
Tags:onoken kyubey ryuu felys jubeat plus saucer manyouka 万葉歌
BeatmapID:1021024
BeatmapSetID:477999

[Difficulty]
HPDrainRate:6.2
CircleSize:5
OverallDifficulty:7.6
ApproachRate:8.6
SliderMultiplier:1.52
SliderTickRate:1

[Events]
//Background and Video events
0,0,"bg.jpg",0,0
//Break Periods
2,136699,145722
//Storyboard Layer 0 (Background)
//Storyboard Layer 1 (Fail)
//Storyboard Layer 2 (Pass)
//Storyboard Layer 3 (Foreground)
//Storyboard Sound Samples

[TimingPoints]
620,352.941176470588,7,2,1,40,1,0
620,-166.666666666667,7,2,1,40,0,0
9267,-200,7,2,1,40,0,0
10502,-125,7,2,1,55,0,1
10590,-125,7,2,1,55,0,0
22854,352.941176470588,4,2,1,40,1,0
22854,-133.333333333333,4,2,1,40,0,0
33442,-100,4,2,1,40,0,0
34148,-125,4,2,1,55,0,1
34236,-125,4,2,1,55,0,0
38736,-117.647058823529,4,2,1,55,0,0
39089,-111.111111111111,4,2,1,55,0,0
39442,-105.263157894737,4,2,1,55,0,0
39795,-125,4,2,1,55,0,0
42265,-142.857142857143,4,2,1,55,0,0
42618,-166.666666666667,4,2,1,55,0,0
45442,-80,4,2,1,70,0,1
45795,-86.9565217391304,4,2,1,70,0,1
46148,-80,4,2,1,70,0,1
46501,-86.9565217391304,4,2,1,70,0,1
51001,-86.9565217391304,4,2,1,70,0,0
51089,-80,4,2,1,70,0,1
51442,-86.9565217391304,4,2,1,70,0,1
51795,-80,4,2,1,70,0,1
52148,-86.9565217391304,4,2,1,70,0,1
56383,-71.4285714285714,4,2,1,70,0,1
56736,-86.9565217391304,4,2,1,70,0,1
58853,-86.9565217391304,4,2,1,70,0,0
59559,352.941176470588,7,2,1,55,1,1
59559,-125,7,2,1,55,0,1
59647,-125,7,2,1,55,0,0
71911,352.941176470588,4,2,1,40,1,0
71911,-133.333333333333,4,2,1,40,0,0
82499,-100,4,2,1,40,0,0
83205,-125,4,2,1,55,0,1
83293,-125,4,2,1,55,0,0
87793,-117.647058823529,4,2,1,55,0,0
88146,-111.111111111111,4,2,1,55,0,0
88499,-105.263157894737,4,2,1,55,0,0
88852,-125,4,2,1,55,0,0
91322,-142.857142857143,4,2,1,55,0,0
91675,-166.666666666667,4,2,1,55,0,0
94499,-80,4,2,1,70,0,1
94852,-86.9565217391304,4,2,1,70,0,1
95205,-80,4,2,1,70,0,1
95558,-86.9565217391304,4,2,1,70,0,1
100058,-86.9565217391304,4,2,1,70,0,0
100146,-80,4,2,1,70,0,1
100499,-86.9565217391304,4,2,1,70,0,1
100852,-80,4,2,1,70,0,1
101205,-86.9565217391304,4,2,1,70,0,1
105440,-71.4285714285714,4,2,1,70,0,1
105705,-71.4285714285714,4,2,1,70,0,0
105793,-111.111111111111,4,2,1,70,0,1
107910,-100,4,2,1,70,0,1
108528,-100,4,2,1,70,0,0
108616,-100,4,2,1,55,0,1
108705,-100,4,2,1,55,0,0
119558,352.941176470588,4,2,1,55,1,0
125205,-111.111111111111,4,2,1,55,0,1
125293,-111.111111111111,4,2,1,55,0,0
136499,352.941176470588,7,2,1,40,1,0
146381,352.941176470588,4,2,1,40,1,0
153439,-125,4,2,1,55,0,1
153528,-125,4,2,1,55,0,0
158028,-117.647058823529,4,2,1,55,0,0
158381,-111.111111111111,4,2,1,55,0,0
158733,-105.263157894737,4,2,1,55,0,0
159086,-125,4,2,1,55,0,0
161557,-142.857142857143,4,2,1,55,0,0
161910,-166.666666666667,4,2,1,55,0,0
164028,-142.857142857143,4,2,1,55,0,0
164733,-80,4,2,1,70,0,1
165086,-86.9565217391304,4,2,1,70,0,1
165439,-80,4,2,1,70,0,1
165792,-86.9565217391304,4,2,1,70,0,1
170292,-86.9565217391304,4,2,1,70,0,0
170381,-80,4,2,1,70,0,1
170733,-86.9565217391304,4,2,1,70,0,1
171086,-80,4,2,1,70,0,1
171439,-86.9565217391304,4,2,1,70,0,1
175322,-100,4,2,1,70,0,1
175675,-71.4285714285714,4,2,1,70,0,1
176028,-86.9565217391304,4,2,1,70,0,1
176292,-86.9565217391304,4,2,1,70,0,0
176380,-86.9565217391304,4,2,1,70,0,1
176998,-86.9565217391304,4,2,1,70,0,0
177086,-86.9565217391304,4,2,1,70,0,1
179116,-86.9565217391304,4,2,1,70,0,0
179204,-86.9565217391304,4,2,1,70,0,1
181586,-86.9565217391304,4,2,1,70,0,0
181675,-80,4,2,1,70,0,1
182028,-86.9565217391304,4,2,1,70,0,1
182380,-80,4,2,1,70,0,1
182733,-86.9565217391304,4,2,1,70,0,1
186969,-71.4285714285714,4,2,1,70,0,1
187233,-71.4285714285714,4,2,1,70,0,0
187322,-86.9565217391304,4,2,1,70,0,1
189439,-86.9565217391304,4,2,1,70,0,0

[Colours]
Combo1 : 255,81,85
Combo2 : 255,185,233
Combo3 : 255,128,192
Combo4 : 255,128,128

[HitObjects]
158,105,620,6,0,P|139:181|156:237,1,136.799995825195,2|0,0:0|0:0,0:0:0:0:
221,218,1325,2,0,L|313:213,1,91.199997216797
378,192,1855,1,2,0:0:0:0:
440,314,2208,6,0,P|449:267|437:224,1,91.199997216797
378,192,2737,2,0,L|382:144,1,45.5999986083985
343,90,3090,2,0,L|247:96,1,91.199997216797,0|2,0:0|0:0,0:0:0:0:
251,95,5561,6,0,P|227:164|246:222,1,136.799995825195,2|0,0:0|0:0,0:0:0:0:
261,289,6267,2,0,P|305:277|349:289,1,91.199997216797
459,216,6796,2,0,L|366:211,1,91.199997216797,2|0,0:0|0:0,0:0:0:0:
291,133,7325,1,0,0:0:0:0:
301,61,7502,1,0,0:0:0:0:
236,29,7678,1,0,0:0:0:0:
186,82,7855,1,0,0:0:0:0:
217,146,8031,6,0,P|214:220|181:272,1,136.799995825195,2|0,0:0|0:0,0:0:0:0:
96,179,8737,2,0,L|107:87,1,91.199997216797
118,12,9267,1,0,1:0:0:0:
256,192,9355,12,4,10502,1:0:0:0:
210,146,10854,5,0,0:0:0:0:
289,54,11208,2,0,L|411:62,1,121.6
484,44,11737,2,0,P|494:107|476:161,1,121.6,2|0,0:3|0:0,0:0:0:0:
416,208,12266,2,0,P|387:207|356:217,1,60.8
257,127,12619,2,0,P|271:153|293:173,1,60.8
267,362,12972,6,0,P|293:315|287:247,2,121.6
193,382,13854,1,0,0:0:0:0:
144,248,14031,1,0,0:0:0:0:
96,307,14208,2,0,P|137:283|209:291,1,121.6,2|2,0:3|0:3,0:0:0:0:
220,215,14737,1,0,0:0:0:0:
162,166,14913,1,0,0:0:0:0:
190,96,15090,1,0,0:0:0:0:
265,101,15266,1,0,0:0:0:0:
283,174,15443,6,0,P|341:184|395:157,1,121.6
512,193,16149,2,0,L|500:72,1,121.6
432,36,16678,2,0,P|374:22|319:47,1,121.6,2|0,0:3|0:0,0:0:0:0:
265,101,17207,2,0,L|185:95,1,60.8
94,149,17560,1,0,0:0:0:0:
144,205,17737,1,0,0:0:0:0:
156,279,17913,6,0,P|138:338|94:377,2,121.6
144,205,18796,1,0,0:0:0:0:
52,284,18972,1,0,0:0:0:0:
162,355,19149,2,0,L|290:350,1,121.6,2|2,0:3|0:3,0:0:0:0:
361,256,19678,1,0,0:0:0:0:
289,157,19854,1,0,0:0:0:0:
289,233,20031,1,0,0:0:0:0:
406,195,20207,1,0,0:0:0:0:
361,133,20384,5,4,1:0:0:0:
256,192,20472,12,0,21854,0:0:0:0:
368,165,22854,6,0,P|391:114|389:55,2,114.000004348755,0|0|2,1:0|0:0|0:0,0:0:0:0:
304,196,23736,1,0,0:0:0:0:
299,268,23912,1,0,0:0:0:0:
243,155,24089,2,0,L|126:147,1,114.000004348755,2|0,0:0|0:0,0:0:0:0:
17,201,24618,2,0,P|17:232|29:263,1,57.0000021743775,2|0,0:0|0:0,0:0:0:0:
146,236,24971,2,0,P|118:220|85:215,1,57.0000021743775,2|0,0:0|0:0,0:0:0:0:
49,330,25324,2,0,P|75:313|96:288,1,57.0000021743775,0|0,0:0|1:0,0:0:0:0:
58,142,25677,5,0,1:0:0:0:
58,142,26030,2,0,P|66:82|49:28,2,114.000004348755
90,205,26912,2,0,P|81:260|97:315,1,114.000004348755,2|0,0:0|0:0,0:0:0:0:
201,372,27442,1,2,2:0:0:0:
168,309,27618,1,0,2:0:0:0:
219,258,27795,1,0,2:0:0:0:
283,290,27972,1,2,2:0:0:0:
271,359,28148,2,0,P|296:372|328:376,1,57.0000021743775,0|2,0:0|0:0,0:0:0:0:
467,310,28501,6,0,L|353:300,2,114.000004348755,0|0|2,1:0|0:0|0:0,0:0:0:0:
512,189,29383,1,0,0:0:0:0:
461,139,29559,1,0,0:0:0:0:
389,137,29736,2,0,P|381:81|393:21,1,114.000004348755,2|0,0:0|0:0,0:0:0:0:
423,200,30265,2,0,P|424:227|415:261,1,57.0000021743775,2|0,0:0|0:0,0:0:0:0:
295,243,30618,2,0,P|317:228|351:219,1,57.0000021743775,2|0,0:0|0:0,0:0:0:0:
353,300,30971,1,0,0:0:0:0:
284,159,31148,1,0,1:0:0:0:
353,300,31324,5,0,1:0:0:0:
353,300,31677,2,0,L|467:310,2,114.000004348755,0|0|2,0:0|0:0|0:0,0:0:0:0:
263,344,32559,1,0,0:0:0:0:
263,344,32648,1,0,0:0:0:0:
263,344,32736,6,0,P|242:325|226:297,1,57.0000021743775,0|0,1:0|0:0,0:0:0:0:
223,286,33000,1,0,0:0:0:0:
221,272,33088,1,0,0:0:0:0:
219,258,33176,1,0,0:0:0:0:
219,244,33264,1,0,1:0:0:0:
220,230,33353,1,0,0:0:0:0:
223,216,33442,6,0,L|266:212,1,38,8|0,0:0|0:0,0:0:0:0:
314,158,33618,2,0,L|356:162,1,38
428,173,33795,1,0,1:0:0:0:
441,147,33883,1,0,0:0:0:0:
448,120,33971,1,8,0:0:0:0:
449,92,34059,1,0,0:0:0:0:
443,64,34148,6,0,L|350:57,1,91.2,4|0,1:2|0:0,0:0:0:0:
339,49,34501,2,0,P|315:66|295:93,1,60.8,8|0,0:0|1:0,0:0:0:0:
220,86,34853,2,0,P|175:101|126:95,1,91.2,2|0,1:2|0:0,0:0:0:0:
118,90,35206,1,8,0:0:0:0:
38,161,35383,1,2,1:2:0:0:
96,250,35559,6,0,L|85:371,2,121.6,0|2|2,1:0|1:2|1:2,0:0:0:0:
160,208,36442,1,8,0:0:0:0:
160,208,36618,2,0,P|192:211|222:227,1,60.8,8|0,0:0|0:0,0:0:0:0:
380,182,36971,6,0,P|343:188|290:175,1,91.2,2|0,1:2|0:0,0:0:0:0:
278,166,37324,2,0,L|283:103,1,60.8,8|0,0:0|0:0,0:0:0:0:
219,64,37677,1,2,1:2:0:0:
118,148,37853,1,0,1:0:0:0:
95,19,38030,1,8,0:0:0:0:
144,77,38206,1,0,0:0:0:0:
118,148,38383,6,0,P|113:191|125:239,1,91.2,2|0,1:2|0:0,0:0:0:0:
135,249,38736,2,0,L|235:243,1,96.9000018482209,8|0,0:0|0:0,0:0:0:0:
257,241,39089,2,0,P|267:280|265:314,1,68.3999979125977,2|8,1:2|0:0,0:0:0:0:
268,174,39442,2,0,P|249:143|240:103,1,72.1999980720521,0|10,1:0|0:0,0:0:0:0:
279,43,39795,6,0,L|374:38,1,91.2,4|0,1:2|0:0,0:0:0:0:
385,38,40148,2,0,P|393:68|392:100,1,60.8,8|0,0:0|1:0,0:0:0:0:
456,140,40501,2,0,P|442:181|446:232,1,91.2,2|0,1:2|0:0,0:0:0:0:
451,241,40853,1,8,0:0:0:0:
389,328,41030,1,2,1:2:0:0:
312,255,41206,6,0,L|189:261,1,121.6,0|10,1:0|0:0,0:0:0:0:
119,231,41736,1,0,1:0:0:0:
50,264,41912,2,0,P|39:232|37:197,1,60.8,2|0,0:0|1:0,0:0:0:0:
98,145,42265,2,0,P|109:120|128:96,1,53.1999983764649,8|0,0:0|1:0,0:0:0:0:
210,99,42618,6,0,P|235:89|303:88,1,91.199997216797,4|0,1:0|0:0,0:0:0:0:
362,113,43148,1,0,1:0:0:0:
402,167,43324,2,0,P|404:117|426:79,2,91.199997216797,8|0|0,0:0|0:0|1:0,0:0:0:0:
256,192,44118,12,8,44736,0:0:0:0:
402,167,45442,6,0,P|401:216|378:255,1,95,4|0,1:0|0:0,0:0:0:0:
335,331,45795,2,0,L|247:325,1,87.4000016670227,8|0,0:0|0:0,0:0:0:0:
230,167,46148,6,0,P|277:167|318:191,1,95,0|0,1:0|1:0,0:0:0:0:
316,346,46501,2,0,L|228:340,1,87.4000016670227,8|0,0:0|0:0,0:0:0:0:
82,298,46853,5,4,1:2:0:0:
165,166,47030,1,0,0:0:0:0:
171,261,47206,1,8,0:0:0:0:
21,224,47383,1,0,0:0:0:0:
72,143,47559,2,0,L|203:139,1,131.100002500534,0|0,1:2|0:0,0:0:0:0:
230,167,47912,2,0,P|245:130|241:77,1,87.4000016670227,12|0,0:0|0:0,0:0:0:0:
289,230,48265,6,0,P|274:267|278:320,2,87.4000016670227,4|0|8,1:2|0:0|0:0,0:0:0:0:
358,176,48795,1,0,0:0:0:0:
423,233,48971,2,0,L|510:230,1,87.4000016670227,0|0,1:0|1:0,0:0:0:0:
457,86,49324,1,8,0:0:0:0:
395,23,49501,1,0,0:2:0:0:
309,40,49677,6,0,P|291:75|290:128,1,87.4000016670227,4|0,1:2|0:0,0:0:0:0:
258,147,49942,1,0,0:0:0:0:
258,147,50030,2,0,P|268:189|260:231,1,87.4000016670227,10|0,0:0|0:0,0:0:0:0:
210,275,50295,1,0,0:0:0:0:
210,275,50383,6,0,L|166:272,1,43.7000008335114,4|0,0:2|0:0,0:0:0:0:
101,233,50559,2,0,L|57:230,1,43.7000008335114,2|0,1:2|0:0,0:0:0:0:
20,150,50736,1,8,0:0:0:0:
24,117,50824,1,0,0:0:0:0:
35,87,50912,1,4,1:2:0:0:
54,60,51000,1,0,0:0:0:0:
78,38,51089,6,0,L|177:47,1,95,4|0,1:0|0:0,0:0:0:0:
257,25,51442,2,0,P|271:67|272:110,1,87.4000016670227,8|0,0:0|0:0,0:0:0:0:
176,217,51795,6,0,P|173:172|191:117,1,95,0|0,1:0|1:0,0:0:0:0:
278,18,52148,2,0,P|302:54|313:97,1,87.4000016670227,8|0,0:0|0:0,0:0:0:0:
292,248,52501,5,4,1:2:0:0:
391,134,52677,1,0,0:0:0:0:
440,276,52853,1,8,0:0:0:0:
373,219,53029,1,0,0:0:0:0:
455,189,53206,2,0,P|471:144|458:61,1,131.100002500534,0|0,1:2|0:0,0:0:0:0:
476,27,53559,2,0,L|386:22,1,87.4000016670227,12|0,0:0|1:0,0:0:0:0:
268,150,53912,6,0,P|339:158|391:132,1,131.100002500534,4|0,1:2|0:0,0:0:0:0:
377,170,54265,2,0,P|379:215|405:253,1,87.4000016670227,8|0,0:0|0:0,0:0:0:0:
333,372,54618,2,0,P|342:328|327:284,1,87.4000016670227,0|0,1:0|1:0,0:0:0:0:
257,239,54971,1,8,0:0:0:0:
317,74,55148,5,4,1:2:0:0:
317,74,55501,1,4,1:2:0:0:
320,77,55853,1,4,1:2:0:0:
320,77,56030,2,0,L|326:211,1,131.100002500534,4|0,1:2|0:0,0:0:0:0:
257,239,56383,6,0,P|204:244|154:219,1,106.39999675293,12|0,1:0|0:0,0:0:0:0:
135,49,56736,6,0,P|193:76|223:140,1,131.100002500534,0|0,1:0|0:0,0:0:0:0:
236,96,57089,2,0,P|272:74|317:73,1,87.4000016670227,12|0,0:0|0:0,0:0:0:0:
482,148,57442,5,0,1:0:0:0:
304,183,57618,1,0,1:0:0:0:
424,51,57795,1,12,0:0:0:0:
405,226,57971,1,0,1:0:0:0:
409,247,58324,5,0,1:0:0:0:
433,31,58500,1,0,1:0:0:0:
285,193,58677,1,0,1:0:0:0:
503,150,58853,1,4,1:0:0:0:
300,58,59559,5,4,1:0:0:0:
182,89,59911,1,0,0:0:0:0:
63,62,60264,2,0,L|71:189,1,121.6
45,255,60794,2,0,P|106:272|163:262,1,121.6,2|0,0:3|0:0,0:0:0:0:
199,195,61323,2,0,P|230:197|258:211,1,60.8,0|0,2:0|2:0,2:0:0:0:
149,125,61676,2,0,P|131:150|105:168,1,60.8,0|0,2:0|2:0,2:0:0:0:
234,116,62029,6,0,P|217:85|213:1,2,121.6,0|0|0,2:0|2:0|2:0,2:0:0:0:
303,147,62911,1,0,0:0:0:0:
365,103,63088,1,0,0:0:0:0:
310,222,63264,2,0,L|319:346,1,121.6,2|2,0:3|0:3,0:0:0:0:
251,380,63794,2,0,L|189:376,1,60.8
89,308,64147,1,0,0:0:0:0:
83,232,64323,1,0,0:0:0:0:
134,176,64500,6,0,P|183:159|250:169,1,121.6
357,228,65206,2,0,P|375:191|379:107,1,121.6
343,45,65735,2,0,L|220:53,1,121.6,2|0,0:3|0:0,0:0:0:0:
180,116,66264,2,0,P|153:104|120:101,1,60.8
89,234,66617,2,0,P|112:216|131:189,1,60.8
49,38,66970,6,0,P|31:96|47:153,2,121.6
166,0,67853,1,0,0:0:0:0:
221,52,68029,1,0,0:0:0:0:
288,86,68206,2,0,L|412:77,1,121.6,2|2,0:3|0:3,0:0:0:0:
471,121,68735,2,0,L|464:183,1,60.8
353,232,69088,1,0,0:0:0:0:
365,308,69264,1,0,0:0:0:0:
294,281,69441,5,4,0:1:0:0:
256,192,69529,12,0,70911,0:0:0:0:
294,281,71911,6,0,P|320:232|322:172,2,114.000004348755,4|0|2,1:0|0:0|0:0,0:0:0:0:
187,323,72793,1,0,0:0:0:0:
119,301,72969,1,0,0:0:0:0:
49,315,73146,2,0,L|57:201,1,114.000004348755,2|0,0:0|0:0,0:0:0:0:
97,91,73675,1,2,0:0:0:0:
114,160,73852,1,0,0:0:0:0:
213,102,74028,1,2,0:0:0:0:
160,55,74204,1,0,0:0:0:0:
183,167,74381,2,0,P|211:173|242:170,1,57.0000021743775,0|0,0:0|1:0,0:0:0:0:
308,154,74734,5,0,1:0:0:0:
308,154,75087,2,0,P|268:192|248:247,2,114.000004348755,0|2|0,0:0|0:0|0:0,0:0:0:0:
260,102,75969,2,0,P|300:62|319:9,1,114.000004348755,2|0,0:0|0:0,0:0:0:0:
204,0,76499,1,2,0:0:0:0:
195,70,76675,2,0,L|78:77,1,114.000004348755,0|2,0:0|0:0,0:0:0:0:
34,131,77205,2,0,P|47:156|52:184,1,57.0000021743775,0|2,0:0|1:2,0:0:0:0:
78,339,77558,6,0,P|76:293|105:231,2,114.000004348755,0|0|2,1:0|0:0|0:0,0:0:0:0:
148,324,78440,1,0,0:0:0:0:
196,377,78616,1,0,0:0:0:0:
170,255,78793,2,0,L|285:247,1,114.000004348755,2|0,0:0|0:0,0:0:0:0:
396,268,79322,2,0,P|401:241|400:209,1,57.0000021743775,2|0,0:0|0:0,0:0:0:0:
332,194,79675,2,0,P|326:167|312:138,1,57.0000021743775,2|0,0:0|0:0,0:0:0:0:
365,38,80028,1,0,0:0:0:0:
432,62,80205,1,0,1:0:0:0:
377,108,80381,5,0,1:0:0:0:
377,108,80734,2,0,P|321:112|270:89,2,114.000004348755,0|2|0,0:0|0:0|0:0,0:0:0:0:
466,154,81616,1,2,0:0:0:0:
466,154,81705,1,0,0:0:0:0:
466,154,81793,6,0,P|476:182|479:217,1,57.0000021743775,0|0,1:0|0:0,0:0:0:0:
478,222,82058,1,0,0:0:0:0:
475,236,82146,1,0,0:0:0:0:
471,249,82234,1,0,0:0:0:0:
464,262,82322,1,0,1:0:0:0:
457,274,82411,1,0,0:0:0:0:
447,285,82499,6,0,L|410:282,1,38,8|0,0:0|0:0,0:0:0:0:
345,322,82675,2,0,L|308:325,1,38
252,272,82852,1,0,1:0:0:0:
252,243,82940,1,0,0:0:0:0:
258,215,83028,1,8,0:0:0:0:
270,190,83116,1,0,0:0:0:0:
287,167,83205,6,0,L|380:173,1,91.2,0|0,1:0|0:0,0:0:0:0:
393,173,83558,2,0,P|397:143|391:111,1,60.8,8|0,0:0|1:0,0:0:0:0:
357,45,83911,6,0,L|264:50,1,91.2,2|0,1:2|0:0,0:0:0:0:
251,52,84263,1,8,0:0:0:0:
150,15,84440,1,2,1:2:0:0:
63,76,84616,2,0,P|46:120|51:194,2,121.6,0|2|2,1:0|1:2|1:2,0:0:0:0:
137,92,85499,1,8,0:0:0:0:
137,92,85675,2,0,L|200:88,1,60.8,8|0,0:0|0:0,0:0:0:0:
356,144,86028,6,0,P|317:136|266:140,1,91.2,2|0,1:2|0:0,0:0:0:0:
250,137,86381,2,0,L|254:201,1,60.8,8|0,0:0|0:0,0:0:0:0:
307,251,86734,1,2,1:2:0:0:
291,371,86910,1,0,1:0:0:0:
171,355,87087,1,8,0:0:0:0:
187,235,87263,1,0,0:0:0:0:
136,177,87440,6,0,L|41:182,1,91.2,2|0,1:2|0:0,0:0:0:0:
31,191,87793,2,0,P|20:148|32:96,1,96.9000018482209,8|0,0:0|0:0,0:0:0:0:
27,72,88146,2,0,P|60:68|99:75,1,68.3999979125977,2|8,1:2|0:0,0:0:0:0:
215,0,88499,2,0,P|186:17|144:28,1,72.1999980720521,0|10,1:0|0:0,0:0:0:0:
164,102,88852,6,0,L|158:195,1,91.2,4|0,1:2|0:0,0:0:0:0:
151,206,89205,2,0,P|180:215|208:233,1,60.8,8|0,0:0|1:0,1:0:0:0:
277,205,89558,2,0,P|309:208|364:188,1,91.2,2|0,1:2|0:0,0:0:0:0:
377,193,89910,1,8,0:0:0:0:
442,108,90087,1,2,1:2:0:0:
365,35,90263,6,0,L|303:40,1,60.8,0|0,1:0|0:0,0:0:0:0:
212,93,90616,1,10,0:2:0:0:
138,79,90793,1,0,1:0:0:0:
163,151,90969,2,0,P|157:181|141:209,1,60.8,0|0,0:0|1:0,0:0:0:0:
189,266,91322,2,0,P|170:290|150:308,1,53.1999983764649,8|0,0:0|0:0,0:0:0:0:
171,379,91675,6,0,L|80:372,1,91.199997216797,4|0,1:0|0:0,0:0:0:0:
44,313,92205,1,0,1:0:0:0:
80,255,92381,2,0,P|69:237|64:200,1,45.5999986083985,8|0,0:0|0:0,0:0:0:0:
18,161,92734,2,0,P|17:139|31:105,1,45.5999986083985,0|0,0:0|1:0,0:0:0:0:
60,58,93087,5,4,1:0:0:0:
256,192,93175,12,8,93793,0:0:0:0:
60,58,94499,6,0,P|105:50|154:68,1,95,4|0,1:0|0:0,0:0:0:0:
235,46,94852,2,0,L|231:134,1,87.4000016670227,8|0,0:0|0:0,0:0:0:0:
128,229,95205,6,0,P|106:191|103:136,1,95,0|0,1:0|1:0,0:0:0:0:
252,60,95558,2,0,L|247:147,1,87.4000016670227,8|0,0:0|0:0,0:0:0:0:
349,261,95910,5,4,1:2:0:0:
396,115,96087,1,0,0:0:0:0:
330,174,96263,1,8,0:0:0:0:
349,261,96440,1,0,0:0:0:0:
415,202,96616,2,0,P|431:146|406:72,1,131.100002500534,0|0,1:0|0:0,0:0:0:0:
396,115,96969,2,0,P|362:89|315:84,1,87.4000016670227,12|0,0:0|0:0,0:0:0:0:
174,30,97322,5,4,1:2:0:0:
92,59,97499,1,0,0:0:0:0:
157,116,97675,2,0,L|162:204,1,87.4000016670227,8|0,0:0|0:0,0:0:0:0:
241,308,98028,2,0,P|235:265|247:223,1,87.4000016670227,0|0,1:0|1:0,0:0:0:0:
384,154,98381,1,8,0:0:0:0:
426,77,98558,1,0,0:0:0:0:
364,14,98734,6,0,L|275:20,1,87.4000016670227,4|0,1:2|0:0,0:0:0:0:
239,6,98999,1,0,0:0:0:0:
239,6,99087,2,0,P|252:50|247:90,1,87.4000016670227,10|0,0:0|0:2,0:0:0:0:
205,142,99352,1,0,0:0:0:0:
205,142,99440,6,0,L|161:138,1,43.7000008335114,4|0,0:0|0:0,0:0:0:0:
97,179,99616,2,0,L|53:175,1,43.7000008335114,2|0,1:2|0:0,0:0:0:0:
3,247,99793,1,8,0:0:0:0:
5,279,99881,1,0,0:0:0:0:
16,310,99969,1,4,1:2:0:0:
36,336,100057,1,0,0:0:0:0:
62,356,100146,6,0,L|160:348,1,95,4|0,1:0|0:0,0:0:0:0:
241,365,100499,2,0,P|251:322|246:279,1,87.4000016670227,8|0,0:0|0:0,0:0:0:0:
147,171,100852,6,0,P|145:218|162:263,1,95,0|0,1:0|1:0,0:0:0:0:
261,374,101205,2,0,L|348:367,1,87.4000016670227,8|0,0:0|0:0,0:0:0:0:
485,298,101558,1,4,1:2:0:0:
333,282,101734,1,0,0:0:0:0:
349,130,101910,1,8,0:0:0:0:
501,146,102087,1,0,0:0:0:0:
448,215,102263,2,0,P|377:208|333:160,1,131.100002500534,0|0,1:0|0:0,0:0:0:0:
349,130,102616,2,0,P|317:157|268:163,1,87.4000016670227,12|0,0:0|1:0,0:0:0:0:
115,85,102969,6,0,L|248:75,1,131.100002500534,4|0,1:2|0:0,0:0:0:0:
284,85,103322,2,0,P|288:39|276:1,1,87.4000016670227,8|0,0:0|0:0,0:0:0:0:
349,129,103675,2,0,P|335:171|338:214,1,87.4000016670227,0|0,1:0|1:0,0:0:0:0:
385,288,104028,1,8,0:0:0:0:
415,72,104205,5,4,1:2:0:0:
415,72,104558,1,4,1:2:0:0:
418,75,104910,1,4,1:2:0:0:
418,75,105087,2,0,P|358:49|294:63,1,131.100002500534,4|0,1:2|0:0,0:0:0:0:
246,117,105440,6,0,P|256:62|243:13,1,106.39999675293,12|0,1:0|0:0,0:0:0:0:
99,69,105793,6,0,L|109:205,1,136.799995825195,4|0,1:0|0:0,0:0:0:0:
32,298,106322,1,0,1:0:0:0:
93,328,106499,2,0,P|151:328|224:291,1,136.799995825195,4|0,1:0|0:0,0:0:0:0:
259,350,107028,2,0,P|300:308|325:231,1,136.799995825195,4|0,1:0|1:0,0:0:0:0:
410,150,107558,1,0,1:0:0:0:
359,42,107734,1,0,1:0:0:0:
359,42,107822,1,0,0:0:0:0:
359,42,107910,6,0,L|283:37,1,76,0|0,1:0|0:0,0:0:0:0:
220,61,108175,1,0,0:0:0:0:
220,61,108263,2,0,L|225:103,1,38,8|0,0:0|0:0,0:0:0:0:
264,164,108440,2,0,L|259:206,1,38,0|0,1:0|0:0,0:0:0:0:
193,238,108616,6,0,P|214:309|188:380,2,152,4|8|2,1:0|0:0|1:2,0:0:0:0:
132,284,109499,2,0,L|52:280,1,76,0|8,1:0|0:0,0:0:0:0:
10,219,109852,2,0,P|20:145|74:92,1,152,2|0,1:2|1:0,0:0:0:0:
185,121,110381,1,8,0:0:0:0:
256,93,110558,1,0,0:0:0:0:
323,127,110734,2,0,L|317:204,1,76,0|0,1:0|1:0,0:0:0:0:
304,235,110999,1,0,0:0:0:0:
304,235,111087,2,0,P|282:246|248:252,2,57,8|0|0,0:0|0:0|0:0,0:0:0:0:
341,291,111440,6,0,P|391:265|450:271,1,114,2|0,1:2|0:0,0:0:0:0:
482,285,111793,1,8,0:0:0:0:
487,209,111969,1,0,0:0:0:0:
487,209,112058,1,0,0:0:0:0:
487,209,112146,2,0,L|481:133,1,76,2|0,1:2|1:0,0:0:0:0:
423,35,112499,1,8,0:0:0:0:
370,89,112675,6,0,L|218:82,1,152,2|0,1:2|1:0,0:0:0:0:
157,128,113205,1,8,0:0:0:0:
51,85,113381,1,0,0:0:0:0:
67,198,113558,2,0,P|59:221|58:254,2,57,0|0|0,1:0|0:0|0:0,0:0:0:0:
122,235,113910,2,0,P|124:259|137:289,2,57,8|0|0,0:0|0:0|0:0,0:0:0:0:
188,245,114263,6,0,L|264:240,1,76,2|0,1:2|0:0,0:0:0:0:
357,307,114616,1,8,0:0:0:0:
426,275,114793,1,0,0:0:0:0:
500,291,114969,2,0,P|504:328|495:365,2,76,2|0|8,1:2|1:0|0:0,0:0:0:0:
436,195,115499,6,0,L|282:200,1,152,2|0,1:2|1:0,0:0:0:0:
227,250,116028,2,0,L|151:246,1,76,8|0,0:0|0:0,0:0:0:0:
143,132,116381,1,0,1:0:0:0:
68,141,116558,1,0,1:0:0:0:
91,20,116734,1,8,0:0:0:0:
158,57,116910,1,0,0:0:0:0:
36,72,117087,6,0,P|18:39|16:2,2,76,4|0|8,1:0|0:0|0:0,0:0:0:0:
78,218,117793,6,0,L|153:226,1,76,0|0,1:0|1:0,0:0:0:0:
216,269,118146,1,8,0:0:0:0:
322,160,118499,5,0,1:0:0:0:
201,87,118675,1,0,1:0:0:0:
342,75,118852,1,0,1:0:0:0:
235,168,119028,1,0,1:0:0:0:
266,31,119205,1,0,1:0:0:0:
266,31,119558,5,4,1:0:0:0:
256,192,119646,12,0,120793,0:0:0:0:
272,40,121322,6,0,L|348:35,1,76,0|0,1:0|0:0,0:0:0:0:
395,94,121675,1,0,1:0:0:0:
508,109,121852,1,0,0:0:0:0:
493,222,122028,1,8,0:0:0:0:
380,207,122205,1,0,1:0:0:0:
321,254,122381,6,0,L|242:261,1,76,0|0,1:0|0:0,0:0:0:0:
231,273,122646,1,0,0:0:0:0:
217,286,122734,2,0,P|215:242|202:213,1,76,8|0,0:0|0:0,0:0:0:0:
187,200,122999,1,0,0:0:0:0:
169,192,123087,2,0,L|128:194,3,38,2|0|0|0,1:2|0:0|1:0|0:0,0:0:0:0:
74,157,123440,2,0,L|33:155,3,38,8|0|2|0,0:0|0:0|1:2|0:0,0:0:0:0:
2,97,123793,5,0,1:0:0:0:
3,88,123881,1,0,0:0:0:0:
5,78,123969,1,0,1:0:0:0:
7,70,124057,1,0,0:0:0:0:
10,61,124145,1,10,0:0:0:0:
14,52,124234,1,0,0:0:0:0:
19,44,124322,1,0,1:0:0:0:
24,36,124410,1,0,0:0:0:0:
31,29,124499,6,0,L|68:30,1,38,2|0,0:2|0:0,0:0:0:0:
125,66,124675,2,0,L|162:64,1,38,0|0,1:0|0:0,0:0:0:0:
222,112,124852,1,10,0:0:0:0:
223,140,124940,1,0,0:0:0:0:
218,168,125028,1,0,1:2:0:0:
209,195,125116,1,0,0:0:0:0:
194,219,125205,6,0,L|56:211,1,136.799995825195,4|8,1:0|0:0,0:0:0:0:
1,297,125734,1,0,1:0:0:0:
46,348,125910,2,0,P|99:360|146:350,1,102.599996868897,0|0,1:0|0:0,0:0:0:0:
160,358,126263,2,0,L|157:289,1,68.3999979125977,8|0,0:0|1:0,0:0:0:0:
259,282,126616,5,0,0:0:0:0:
242,215,126793,1,0,1:0:0:0:
300,179,126969,2,0,L|369:184,1,68.3999979125977,8|0,0:0|1:0,0:0:0:0:
432,103,127322,1,0,1:0:0:0:
501,97,127499,1,0,1:0:0:0:
461,41,127675,2,0,P|433:22|395:8,1,68.3999979125977,8|0,0:0|1:0,0:0:0:0:
294,65,128028,6,0,P|225:65|160:90,1,136.799995825195,0|8,1:0|0:0,0:0:0:0:
64,56,128558,1,0,1:0:0:0:
100,113,128734,2,0,L|92:217,1,102.599996868897,0|0,1:0|0:0,0:0:0:0:
84,230,129087,2,0,L|152:227,1,68.3999979125977,8|0,0:0|1:0,0:0:0:0:
234,289,129440,5,0,0:0:0:0:
221,223,129616,1,0,1:0:0:0:
283,189,129793,1,8,0:0:0:0:
332,238,129969,1,0,1:0:0:0:
303,299,130146,2,0,P|320:330|350:352,1,68.3999979125977,0|0,1:0|0:0,0:0:0:0:
361,342,130410,1,0,0:0:0:0:
376,334,130499,2,0,L|446:340,1,68.3999979125977,8|0,0:0|1:0,0:0:0:0:
509,238,130852,6,0,P|498:180|451:118,1,136.799995825195,0|8,1:0|0:0,0:0:0:0:
386,39,131381,1,0,1:0:0:0:
330,79,131558,2,0,L|228:74,1,102.599996868897,0|0,1:0|0:0,0:0:0:0:
213,64,131910,2,0,P|189:90|177:122,1,68.3999979125977,8|0,0:0|1:0,0:0:0:0:
74,128,132263,5,0,0:0:0:0:
130,167,132440,2,0,P|146:198|149:232,2,68.3999979125977,0|8|0,1:0|0:0|1:0,0:0:0:0:
49,231,132969,1,0,0:0:0:0:
60,297,133146,1,0,1:0:0:0:
48,364,133322,2,0,L|117:370,1,68.3999979125977,8|0,0:0|1:0,0:0:0:0:
224,317,133675,6,0,P|256:263|254:189,1,136.799995825195,0|0,1:0|0:0,0:0:0:0:
293,95,134205,1,0,1:0:0:0:
293,95,134293,1,0,0:0:0:0:
293,95,134381,2,0,L|191:87,1,102.599996868897,8|0,0:0|0:0,0:0:0:0:
175,94,134734,2,0,P|165:59|166:22,1,68.3999979125977,0|0,0:0|1:0,0:0:0:0:
282,0,135087,6,0,L|351:6,1,68.3999979125977,0|0,0:0|1:0,0:0:0:0:
430,69,135440,1,0,1:0:0:0:
496,58,135616,1,0,1:0:0:0:
473,123,135793,1,0,1:0:0:0:
256,192,135881,12,0,136499,0:0:0:0:
473,123,146381,5,0,1:0:0:0:
417,24,146733,1,2,0:0:0:0:
457,134,147086,1,0,0:0:0:0:
391,96,147439,1,2,0:0:0:0:
441,145,147792,5,0,0:0:0:0:
373,163,148145,1,2,0:0:0:0:
323,113,148498,1,0,0:0:0:0:
342,45,148851,1,2,0:0:0:0:
410,28,149204,5,2,0:0:0:0:
256,192,149292,12,0,150616,0:0:0:0:
473,123,152028,6,0,P|483:159|481:200,1,76,0|0,1:0|0:0,0:0:0:0:
476,215,152293,1,0,0:0:0:0:
467,231,152381,1,0,0:0:0:0:
455,246,152469,1,0,0:0:0:0:
441,259,152557,1,0,1:0:0:0:
425,270,152646,1,0,0:0:0:0:
408,278,152733,6,0,L|362:277,1,38,8|0,0:0|0:0,0:0:0:0:
318,235,152910,2,0,L|272:236,1,38
208,260,153086,1,0,1:0:0:0:
194,234,153174,1,0,0:0:0:0:
186,207,153262,1,8,0:0:0:0:
184,179,153350,1,0,0:0:0:0:
187,150,153439,6,0,P|204:112|245:77,1,91.2,0|0,1:0|0:0,0:0:0:0:
225,78,153792,2,0,P|201:69|170:30,1,60.8,8|0,0:0|1:0,0:0:0:0:
242,6,154145,2,0,L|338:11,1,91.2,2|0,1:2|0:0,0:0:0:0:
347,4,154498,1,8,0:0:0:0:
430,70,154675,1,2,1:2:0:0:
365,153,154851,6,0,P|360:206|384:268,2,121.6,0|2|2,1:0|1:2|1:2,0:0:0:0:
320,91,155733,1,8,0:0:0:0:
320,91,155910,2,0,L|258:88,1,60.8,8|0,0:0|0:0,0:0:0:0:
102,147,156263,6,0,L|196:143,1,91.2,2|0,1:2|0:0,0:0:0:0:
205,152,156616,2,0,L|202:212,1,60.8,8|0,0:0|0:0,0:0:0:0:
261,260,156969,1,2,1:2:0:0:
390,241,157145,1,0,1:0:0:0:
312,138,157322,1,8,0:0:0:0:
321,213,157498,1,0,0:0:0:0:
390,241,157675,6,0,L|486:235,1,91.2,2|0,1:2|0:0,0:0:0:0:
494,244,158028,2,0,P|479:199|485:148,1,96.9000018482209,8|0,0:0|0:0,0:0:0:0:
461,139,158381,2,0,P|455:108|427:77,1,68.3999979125977,2|8,1:2|0:0,0:0:0:0:
312,138,158733,2,0,P|345:147|383:140,1,72.1999980720521,0|10,1:0|0:2,0:0:0:0:
348,72,159086,6,0,L|256:65,1,91.2,4|0,1:2|0:0,0:0:0:0:
262,79,159439,2,0,P|245:106|239:135,1,60.8,8|0,0:0|1:0,0:0:0:0:
191,193,159792,2,0,P|201:237|195:286,1,91.2,2|0,1:2|0:0,0:0:0:0:
204,295,160145,2,0,L|143:300,1,60.8,8|2,0:0|1:2,0:0:0:0:
109,199,160498,5,0,1:0:0:0:
33,187,160675,1,0,0:0:0:0:
20,112,160851,1,10,0:2:0:0:
87,77,161028,1,0,1:0:0:0:
142,129,161204,2,0,P|177:133|205:127,1,60.8,2|0,0:2|1:0,0:0:0:0:
257,180,161557,2,0,P|290:168|306:157,1,53.1999983764649,8|0,0:0|0:0,0:0:0:0:
376,181,161910,6,0,P|399:152|413:98,1,91.199997216797,4|0,1:0|0:0,0:0:0:0:
395,33,162439,1,0,1:0:0:0:
346,81,162616,2,0,L|253:78,2,91.199997216797,8|0|0,0:0|0:0|1:0,0:0:0:0:
412,100,163498,1,8,0:0:0:0:
480,96,163675,2,0,P|491:123|497:148,1,45.5999986083985,0|0,1:0|1:0,0:0:0:0:
455,195,164028,6,0,P|453:224|446:251,1,53.1999983764649,8|0,0:0|0:0,0:0:0:0:
440,258,164292,1,0,0:0:0:0:
432,269,164380,1,0,1:0:0:0:
423,278,164468,1,0,0:0:0:0:
412,286,164556,1,8,0:0:0:0:
401,293,164645,1,0,0:0:0:0:
388,298,164733,6,0,L|282:294,1,95,4|0,1:0|0:0,0:0:0:0:
209,319,165086,2,0,P|191:272|187:235,1,87.4000016670227,8|0,0:0|0:0,0:0:0:0:
289,122,165439,6,0,P|289:169|271:212,1,95,0|0,1:0|1:0,0:0:0:0:
165,241,165792,2,0,L|78:238,1,87.4000016670227,8|0,0:0|0:0,0:0:0:0:
131,94,166145,5,4,1:2:0:0:
198,151,166322,1,0,0:0:0:0:
48,123,166498,1,8,0:0:0:0:
147,7,166675,1,0,0:0:0:0:
198,151,166851,2,0,P|262:164|324:142,1,131.100002500534,0|0,1:0|0:0,0:0:0:0:
289,122,167204,2,0,L|293:34,1,87.4000016670227,12|0,0:2|0:0,0:0:0:0:
442,0,167557,5,4,1:2:0:0:
495,68,167733,1,0,0:0:0:0:
452,144,167910,2,0,L|458:277,1,131.100002500534,8|0,0:0|0:0,0:0:0:0:
479,308,168263,2,0,P|435:313|389:303,1,87.4000016670227,0|0,1:0|1:0,0:0:0:0:
251,362,168616,1,8,0:0:0:0:
192,297,168792,1,0,0:0:0:0:
277,278,168969,6,0,P|287:234|279:186,1,87.4000016670227,4|0,1:2|0:0,0:0:0:0:
305,162,169233,1,0,0:0:0:0:
305,162,169322,2,0,L|218:159,1,87.4000016670227,10|0,0:0|0:0,0:0:0:0:
158,187,169586,1,0,0:0:0:0:
158,187,169675,6,0,P|145:172|135:151,1,43.7000008335114,4|0,0:2|0:0,0:0:0:0:
59,160,169851,2,0,P|55:140|57:117,1,43.7000008335114,2|0,1:2|0:0,0:0:0:0:
6,45,170028,1,8,0:0:0:0:
33,27,170116,1,0,0:0:0:0:
64,17,170204,1,4,1:2:0:0:
97,15,170292,1,0,0:0:0:0:
129,21,170381,6,0,P|171:47|187:90,1,95,4|0,1:0|0:0,0:0:0:0:
263,46,170733,2,0,L|350:49,1,87.4000016670227,8|0,0:0|0:0,0:0:0:0:
337,179,171086,6,0,P|290:165|263:127,1,95,0|0,1:0|1:0,0:0:0:0:
251,27,171439,2,0,L|338:30,1,87.4000016670227,8|0,0:0|0:0,0:0:0:0:
471,106,171792,5,4,1:2:0:0:
337,179,171969,1,0,0:0:0:0:
338,30,172145,1,8,0:0:0:0:
384,104,172322,1,0,0:0:0:0:
471,106,172498,2,0,P|485:160|471:235,1,131.100002500534,0|0,1:0|0:0,0:0:0:0:
489,268,172851,2,0,P|451:254|400:258,1,87.4000016670227,12|0,0:2|1:0,0:0:0:0:
229,254,173204,6,0,P|280:256|349:216,1,131.100002500534,4|0,1:2|0:0,0:0:0:0:
337,179,173557,2,0,P|347:138|340:86,1,87.4000016670227,8|0,0:0|0:0,0:0:0:0:
200,49,173910,2,0,P|208:90|236:134,1,87.4000016670227,0|0,1:0|1:0,0:0:0:0:
169,191,174263,1,8,0:0:0:0:
201,340,174439,6,0,L|376:332,1,174.800003334045,4|4,1:2|1:2,0:0:0:0:
483,222,174968,1,0,1:0:0:0:
448,73,175145,1,4,1:2:0:0:
337,179,175322,2,0,P|298:177|263:164,1,76,4|0,1:2|0:0,0:0:0:0:
224,111,175586,1,0,0:0:0:0:
224,111,175675,6,0,L|229:221,1,106.39999675293,8|0,1:0|0:0,0:0:0:0:
194,273,175939,1,0,0:0:0:0:
194,273,176028,6,0,L|148:269,1,43.7000008335114
90,223,176204,2,0,L|44:227,1,43.7000008335114
80,307,176380,1,4,1:0:0:0:
68,325,176733,5,0,1:0:0:0:
259,276,176910,1,0,1:0:0:0:
122,136,177086,1,4,1:0:0:0:
122,136,177439,5,0,1:0:0:0:
109,289,177616,1,0,0:0:0:0:
58,208,177792,1,8,0:0:0:0:
209,170,177969,1,0,0:0:0:0:
202,266,178145,2,0,P|257:300|318:283,1,131.100002500534,0|0,1:0|0:0,0:0:0:0:
350,305,178498,2,0,L|342:218,1,87.4000016670227,8|0,0:0|1:0,0:0:0:0:
454,83,178851,5,0,1:2:0:0:
429,249,179027,1,0,1:0:0:0:
291,147,179204,1,4,1:0:0:0:
291,147,179557,6,0,L|283:60,1,87.4000016670227,4|0,1:2|0:0,0:0:0:0:
137,10,179910,1,8,0:0:0:0:
196,74,180086,1,0,0:0:0:0:
164,155,180263,2,0,P|159:198|171:246,1,87.4000016670227,4|0,1:2|0:0,0:0:0:0:
155,277,180528,1,0,0:0:0:0:
155,277,180616,2,0,P|196:265|240:268,1,87.4000016670227,10|0,0:0|0:0,0:0:0:0:
304,296,180880,1,0,0:0:0:0:
304,296,180969,6,0,L|301:342,1,43.7000008335114,4|0,0:2|0:0,0:0:0:0:
372,367,181145,2,0,L|374:323,1,43.7000008335114,2|0,1:2|0:0,0:0:0:0:
447,273,181322,1,8,0:0:0:0:
448,240,181410,1,0,0:0:0:0:
440,209,181498,1,4,1:2:0:0:
424,180,181586,1,0,0:0:0:0:
400,158,181675,6,0,L|305:154,1,95,4|0,1:0|0:0,0:0:0:0:
222,120,182028,2,0,P|205:161|202:204,1,87.4000016670227,12|0,0:0|0:0,0:0:0:0:
295,343,182380,6,0,P|302:284|291:245,1,95,0|0,1:0|1:0,0:0:0:0:
209,104,182733,2,0,P|180:136|162:176,1,87.4000016670227,12|0,0:0|0:0,0:0:0:0:
309,218,183086,5,4,1:2:0:0:
460,197,183263,1,0,0:0:0:0:
440,45,183439,1,8,0:0:0:0:
288,65,183616,1,0,0:0:0:0:
215,17,183792,2,0,L|83:11,1,131.100002500534,0|0,1:0|0:0,0:0:0:0:
50,32,184145,2,0,P|53:75|74:117,1,87.4000016670227,12|0,0:2|0:0,0:0:0:0:
67,290,184498,6,0,P|70:244|19:182,1,131.100002500534,4|0,1:2|0:0,0:0:0:0:
54,196,184851,2,0,P|99:195|136:171,1,87.4000016670227,8|0,0:0|0:0,0:0:0:0:
272,240,185204,2,0,P|230:221|187:228,1,87.4000016670227,0|0,1:0|1:0,0:0:0:0:
219,309,185557,1,8,0:0:0:0:
245,136,185733,5,4,1:2:0:0:
245,136,186086,1,4,1:2:0:0:
248,139,186439,1,4,1:2:0:0:
248,139,186616,2,0,P|310:160|372:143,1,131.100002500534,4|0,1:2|0:0,0:0:0:0:
433,185,186969,6,0,P|454:163|473:91,1,106.39999675293,12|0,1:0|0:0,0:0:0:0:
320,5,187322,6,0,L|189:11,1,131.100002500534,0|0,1:0|0:0,0:0:0:0:
150,1,187675,2,0,P|173:39|177:84,1,87.4000016670227,12|0,0:0|0:0,0:0:0:0:
102,249,188028,5,0,1:0:0:0:
256,151,188204,1,0,1:0:0:0:
95,66,188380,1,12,0:0:0:0:
151,155,188557,1,0,1:0:0:0:
151,155,188910,5,0,1:0:0:0:
92,268,189086,1,0,1:0:0:0:
277,150,189263,1,0,1:0:0:0:
84,46,189439,1,4,1:0:0:0:
