osu file format v14

[General]
AudioFilename: Stories.mp3
AudioLeadIn: 0
PreviewTime: 46635
Countdown: 0
SampleSet: Soft
StackLeniency: 0.7
Mode: 0
LetterboxInBreaks: 1
WidescreenStoryboard: 1

[Editor]
DistanceSpacing: 1
BeatDivisor: 4
GridSize: 16
TimelineZoom: 2.4

[Metadata]
Title:Stories
TitleUnicode:Stories
Artist:Ax
ArtistUnicode:Ax
Creator:Saturnalize
Version:EX
Source:Popn' Music 17 The Movie
Tags:PIANOTEC onoken
BeatmapID:1091424
BeatmapSetID:148118

[Difficulty]
HPDrainRate:7
CircleSize:4.5
OverallDifficulty:7
ApproachRate:9
SliderMultiplier:1.68
SliderTickRate:1

[Events]
//Background and Video events
0,0,"abstract-blue-depth-of-field-nature-rain-rain-on-glass-water.jpg",0,0
//Break Periods
2,36548,43976
//Storyboard Layer 0 (Background)
//Storyboard Layer 1 (Fail)
//Storyboard Layer 2 (Pass)
//Storyboard Layer 3 (Foreground)
//Storyboard Sound Samples

[TimingPoints]
520,342.857142857143,4,2,1,50,1,0
3434,342.857142857143,4,2,1,50,1,0
14191,-100,4,2,1,40,0,0
14384,-100,4,2,1,50,0,0
16891,-100,4,2,1,40,0,0
17148,-100,4,2,1,50,0,0
19119,-100,4,1,1,30,0,0
19548,-100,4,1,1,40,0,0
19891,-100,4,2,1,50,0,0
22376,-100,4,2,1,30,0,0
22612,-100,4,2,1,50,0,0
35791,-100,4,2,1,30,0,0
35876,-100,4,2,1,35,0,0
35962,-100,4,2,1,40,0,0
36048,-100,4,2,1,45,0,0
36134,-100,4,2,1,50,0,0
47148,-133.333333333333,4,2,1,50,0,0
57548,-133.333333333333,4,2,1,30,0,0
57776,-117.647058823529,4,2,1,35,0,0
57905,-105.263157894737,4,2,1,40,0,0
58076,-95.2380952380952,4,2,1,45,0,0
58291,-86.9565217391304,4,2,1,50,0,1
68519,-86.9565217391304,4,2,1,30,0,1
68691,-86.9565217391304,4,2,1,35,0,1
68862,-86.9565217391304,4,2,1,40,0,1
69034,-86.9565217391304,4,2,1,45,0,1
69205,-86.9565217391304,4,2,1,50,0,1
76934,-86.9565217391304,4,2,1,30,0,1
77019,-86.9565217391304,4,2,1,35,0,1
77105,-86.9565217391304,4,2,1,40,0,1
77191,-86.9565217391304,4,2,1,45,0,1
77319,-133.333333333333,4,2,1,50,0,0
77919,-133.333333333333,4,2,2,50,0,0
88462,-86.9565217391304,4,2,1,50,0,1
99391,-133.333333333333,4,2,1,50,0,1
99884,-133.333333333333,4,2,1,5,0,1
99948,342.857142857143,4,2,1,50,1,0
100291,-100,4,2,1,40,0,0
100634,-100,4,2,1,35,0,0
100976,-100,4,2,1,30,0,0
101319,-100,4,2,1,25,0,0
101662,-100,4,2,1,20,0,0
102005,-100,4,2,1,15,0,0
102348,-100,4,2,1,10,0,0
102691,-100,4,2,1,5,0,0
103034,-100,4,2,1,10,0,0
103376,-100,4,2,1,15,0,0
103719,-100,4,2,1,20,0,0
104062,-100,4,2,1,25,0,0
104405,-100,4,2,1,30,0,0
104748,-100,4,2,1,35,0,0
105091,-100,4,2,1,40,0,0
105348,-100,4,2,0,5,0,0

[Colours]
Combo1 : 15,177,255
Combo2 : 0,128,192
Combo3 : 0,64,128

[HitObjects]
108,88,3434,6,0,L|124:172,1,84,4|0,0:0|0:0,0:0:0:0:
64,252,3776,2,0,P|152:220|220:248,1,168,0|2,0:0|0:0,0:0:0:0:
296,312,4291,1,0,0:0:0:0:
396,296,4462,2,0,P|435:271|470:203,2,84
296,284,4976,2,0,P|248:228|256:136,2,168
392,316,5834,1,0,0:0:0:0:
292,308,6005,1,0,0:0:0:0:
196,340,6176,6,0,P|152:348|112:336,1,84
116,236,6519,2,0,P|160:228|200:240,1,84
284,288,6862,1,2,0:0:0:0:
268,188,7034,1,0,0:0:0:0:
336,112,7205,1,0,0:0:0:0:
300,20,7376,2,0,B|240:20|240:20|200:32|200:32|132:32,1,168
32,204,8062,2,0,B|92:204|92:204|132:216|132:216|200:216,1,168
232,240,8491,5,0,0:0:0:0:
271,251,8576,1,0,0:0:0:0:
313,247,8662,1,0,0:0:0:0:
350,227,8748,1,0,0:0:0:0:
376,195,8833,1,0,0:0:0:0:
388,155,8919,5,0,0:0:0:0:
376,56,9091,2,0,L|420:52,2,42
292,112,9434,1,0,0:0:0:0:
188,60,9605,2,0,B|140:40|92:60|80:112|80:112|88:140,1,168,2|0,0:0|0:0,0:0:0:0:
24,240,10119,2,0,L|0:160,1,84
108,208,10462,2,0,B|117:235|117:235|156:272|207:261|235:218,1,168,0|0,0:0|0:0,0:0:0:0:
336,200,10976,2,0,P|385:217|413:274,1,84
272,132,11319,2,0,P|262:81|297:28,1,84
296,16,11576,1,0,0:0:0:0:
325,45,11661,5,0,0:0:0:0:
348,81,11747,1,0,0:0:0:0:
363,120,11833,1,0,0:0:0:0:
369,161,11918,1,0,0:0:0:0:
367,203,12004,1,0,0:0:0:0:
356,243,12090,1,0,0:0:0:0:
337,281,12176,1,0,0:0:0:0:
311,313,12261,1,0,0:0:0:0:
280,344,12348,6,0,P|216:352|152:276,1,168,2|0,0:0|0:0,0:0:0:0:
236,268,12862,1,0,0:0:0:0:
256,192,12948,12,8,13891,0:0:0:0:
80,96,14234,6,0,L|64:64,3,21,0|0|0|0,1:0|1:0|1:0|1:0,0:0:0:0:
92,119,14405,6,0,L|182:114,1,84,4|0,3:1|0:0,0:0:0:0:
119,195,14748,2,0,L|209:190,1,84,0|0,3:0|0:0,0:0:0:0:
148,273,15091,2,0,L|316:263,1,168,2|0,0:0|0:0,0:0:0:0:
368,158,15605,1,0,0:0:0:0:
281,78,15776,2,0,P|257:117|250:153,1,84
315,263,16119,1,0,0:0:0:0:
368,158,16291,1,0,0:0:0:0:
281,78,16462,2,0,L|192:76,1,84
91,128,16805,1,0,0:0:0:0:
39,233,16976,2,0,L|33:260,3,21,0|0|0|0,1:0|1:0|1:0|1:0,0:0:0:0:
49,203,17148,6,0,L|57:288,1,84,0|0,3:0|0:0,0:0:0:0:
146,185,17491,2,0,L|154:270,1,84,0|0,3:0|0:0,0:0:0:0:
248,176,17834,2,0,B|256:260|256:260|324:312,1,168,2|0,0:0|0:0,0:0:0:0:
372,204,18348,1,0,0:0:0:0:
417,95,18519,2,0,B|483:146|483:146|491:229,1,168
372,204,19034,1,0,0:0:0:0:
248,176,19205,5,0,1:0:0:0:
219,170,19291,1,0,1:0:0:0:
190,163,19376,1,0,1:0:0:0:
161,157,19462,1,0,1:0:0:0:
132,151,19548,1,0,1:0:0:0:
103,145,19634,1,0,1:0:0:0:
74,140,19719,2,0,L|81:164,1,21,0|0,1:0|1:0,0:0:0:0:
40,134,19805,2,0,L|48:162,1,21,0|0,1:0|1:0,0:0:0:0:
5,130,19891,6,0,L|22:218,1,84,0|0,3:0|0:0,0:0:0:0:
161,157,20234,2,0,L|145:74,1,84,0|0,3:0|0:0,0:0:0:0:
5,130,20576,2,0,L|36:294,1,168,2|0,0:0|0:0,0:0:0:0:
148,335,21091,1,0,0:0:0:0:
253,283,21262,2,0,P|298:275|342:281,1,84
234,151,21605,2,0,P|218:193|191:229,1,84
357,200,21948,2,0,P|327:165|310:123,1,84
427,105,22291,1,0,0:0:0:0:
448,220,22462,2,0,L|453:241,3,21,0|0|0|0,1:0|1:0|1:0|1:0,0:0:0:0:
443,193,22634,6,0,L|424:280,1,84,0|0,3:0|0:0,0:0:0:0:
294,212,22976,2,0,L|311:129,1,84,0|0,3:0|0:0,0:0:0:0:
443,191,23319,1,2,0:0:0:0:
256,192,23405,12,0,25034,0:0:0:0:
135,201,25205,6,0,L|106:185,3,21,0|0|0|0,1:0|1:0|1:0|1:0,0:0:0:0:
148,208,25376,6,0,L|156:292,1,84,4|0,3:2|0:0,0:0:0:0:
264,340,25719,2,0,P|296:336|340:308,1,84,0|0,3:0|0:0,0:0:0:0:
364,192,26062,2,0,P|284:124|204:140,1,168,2|0,0:0|0:0,0:0:0:0:
132,200,26576,1,0,0:0:0:0:
160,316,26748,2,0,P|212:344|268:336,1,84,2|0,0:3|0:0,0:0:0:0:
256,236,27091,2,0,P|313:224|351:181,1,84,2|0,0:3|0:0,0:0:0:0:
228,128,27434,2,0,P|264:81|266:25,1,84,0|0,0:3|0:0,0:0:0:0:
132,32,27776,1,0,0:0:0:0:
158,150,27948,2,0,L|151:131,3,21,0|0|0|0,1:0|1:0|1:0|1:0,0:0:0:0:
168,168,28119,6,0,P|196:192|248:196,1,84,0|0,3:0|0:0,0:0:0:0:
364,96,28462,2,0,P|329:108|299:151,1,84,0|0,3:0|0:0,0:0:0:0:
257,332,28805,2,0,P|327:297|316:220,1,168,2|0,0:0|0:0,0:0:0:0:
148,236,29319,1,0,0:0:0:0:
188,96,29491,2,0,P|188:68|180:40,2,56,2|0|0,0:3|0:0|0:0,0:0:0:0:
120,128,29834,2,0,P|98:110|71:98,2,56,2|0|0,0:3|0:0|0:0,0:0:0:0:
84,200,30176,2,0,P|76:248|116:304,1,84
180,304,30519,1,0,0:0:0:0:
296,280,30691,2,0,L|324:284,3,21,0|0|0|0,1:0|1:0|1:0|1:0,0:0:0:0:
328,296,30862,6,0,P|328:252|344:216,1,84,0|0,3:0|0:0,0:0:0:0:
456,124,31205,2,0,P|417:146|378:150,1,84,0|0,3:0|0:0,0:0:0:0:
228,96,31548,2,0,P|292:152|276:260,1,168,2|0,0:0|0:0,0:0:0:0:
204,304,32062,1,0,0:0:0:0:
92,276,32234,2,0,B|64:276|64:276|32:268|32:268|8:268,1,84,2|0,0:3|0:0,0:0:0:0:
72,168,32576,2,0,L|160:168,1,84,2|0,0:3|0:0,0:0:0:0:
92,60,32919,2,0,B|64:60|64:60|32:68|32:68|8:68,1,84,0|0,0:3|0:0,0:0:0:0:
124,88,33262,5,0,0:0:0:0:
164,100,33348,1,0,0:0:0:0:
204,92,33434,2,0,L|224:116,1,21,0|0,1:0|1:0,0:0:0:0:
236,68,33519,2,0,L|260:80,1,21,0|0,1:0|1:0,0:0:0:0:
252,28,33605,6,0,P|308:24|336:36,1,84,0|0,3:0|0:0,0:0:0:0:
420,116,33948,1,0,0:0:0:0:
344,208,34119,2,0,P|328:280|372:368,1,168,2|0,0:0|0:0,0:0:0:0:
488,372,34634,2,0,L|400:380,1,84,8|0,0:0|0:0,0:0:0:0:
256,328,34976,5,0,0:0:0:0:
235,325,35061,1,0,0:0:0:0:
214,322,35147,1,0,0:0:0:0:
193,320,35233,1,0,0:0:0:0:
172,317,35318,1,0,0:0:0:0:
151,314,35404,1,0,0:0:0:0:
131,312,35490,1,0,0:0:0:0:
110,309,35575,1,0,0:0:0:0:
89,306,35661,1,0,0:0:0:0:
68,304,35747,1,0,0:0:0:0:
47,301,35833,1,0,1:0:0:0:
26,298,35918,1,0,1:0:0:0:
6,296,36005,6,0,L|0:252,1,42,0|0,1:0|1:0,0:0:0:0:
72,212,36176,2,0,L|78:167,1,42,0|0,1:0|1:0,0:0:0:0:
16,100,36348,5,4,1:0:0:0:
256,192,44576,12,12,46805,1:0:0:0:
88,104,47319,6,0,P|176:72|272:88,1,189.000007209778,12|0,3:2|3:0,0:0:0:0:
352,136,48005,1,8,0:3:0:0:
301,331,48348,1,0,3:0:0:0:
155,189,48691,1,0,0:0:0:0:
376,248,49376,1,8,0:3:0:0:
320,312,49548,1,0,0:0:0:0:
232,328,49719,1,0,0:0:0:0:
200,320,49805,1,0,0:0:0:0:
172,304,49891,2,0,L|148:312,1,15.7500006008148,0|0,1:0|1:0,0:0:0:0:
156,276,49976,2,0,L|128:280,1,15.7500006008148,0|0,1:0|1:0,0:0:0:0:
152,244,50062,6,0,P|168:176|144:128,1,126.000004806519,0|0,3:0|0:0,0:0:0:0:
56,108,50576,1,0,3:0:0:0:
88,192,50748,2,0,L|228:184,1,126.000004806519,8|0,0:3|3:0,0:0:0:0:
278,353,51434,1,0,0:0:0:0:
100,324,52119,1,8,0:3:0:0:
72,232,52291,1,0,0:0:0:0:
164,204,52462,1,0,0:0:0:0:
184,292,52634,2,0,L|180:320,3,15.7500006008148
188,284,52805,5,4,3:2:0:0:
256,208,52976,1,0,0:0:0:0:
376,260,53148,1,0,0:0:0:0:
405,242,53233,1,0,0:0:0:0:
427,215,53319,1,0,3:0:0:0:
439,183,53405,1,0,0:0:0:0:
440,148,53491,5,8,0:3:0:0:
440,148,53605,2,0,L|431:106,1,42.0000016021729,0|0,0:3|0:0,0:0:0:0:
352,136,53834,1,0,3:0:0:0:
352,136,53948,2,0,L|343:94,1,42.0000016021729,0|0,0:0|0:0,0:0:0:0:
252,172,54176,1,0,0:0:0:0:
252,172,54290,2,0,L|243:130,1,42.0000016021729,0|0,0:3|0:0,0:0:0:0:
124,156,54519,1,0,3:0:0:0:
124,156,54633,2,0,L|115:114,1,42.0000016021729,0|0,0:0|0:0,0:0:0:0:
12,208,54862,1,8,0:3:0:0:
72,296,55034,1,0,0:0:0:0:
172,256,55205,1,0,0:0:0:0:
203,251,55290,1,0,0:0:0:0:
234,253,55376,1,0,0:0:0:0:
264,263,55462,1,0,0:0:0:0:
291,279,55547,5,0,3:0:0:0:
376,348,55719,1,0,0:0:0:0:
376,348,55805,2,0,L|388:304,1,31.5000012016297,0|0,0:0|3:0,0:0:0:0:
448,260,55976,1,0,0:0:0:0:
448,260,56062,2,0,L|436:216,1,31.5000012016297
384,164,56234,2,0,L|396:120,2,42.0000016021729,8|0|0,0:3|0:0|0:0,0:0:0:0:
324,216,56576,5,8,0:0:0:0:
284,232,56691,1,0,0:0:0:0:
244,228,56805,1,0,0:0:0:0:
216,196,56919,1,0,0:0:0:0:
180,176,57034,1,0,0:0:0:0:
140,168,57148,1,0,0:0:0:0:
100,176,57262,1,0,0:0:0:0:
72,208,57376,1,0,0:0:0:0:
64,248,57491,1,0,0:0:0:0:
72,288,57605,6,0,L|84:328,1,31.5000012016297,0|0,1:0|1:0,0:0:0:0:
176,264,57776,6,0,L|188:224,1,35.7000006809235,0|0,1:0|1:0,0:0:0:0:
272,320,57948,6,0,L|284:360,1,39.8999989345551,0|0,1:0|1:0,0:0:0:0:
388,264,58119,6,0,L|400:220,1,44.0999986541748,0|0,1:0|1:0,0:0:0:0:
488,144,58291,6,0,P|428:132|404:104,1,96.6000018424988,12|0,3:2|0:0,0:0:0:0:
308,28,58634,2,0,P|280:128|200:152,1,193.200003684998,0|0,1:0|0:0,0:0:0:0:
80,116,59148,2,0,L|88:212,1,96.6000018424988,0|0,3:0|1:0,0:0:0:0:
44,328,59491,2,0,P|120:300|220:340,1,193.200003684998,8|8,0:0|0:0,0:0:0:0:
324,268,60005,1,0,1:0:0:0:
432,328,60176,2,0,P|492:256|464:160,1,193.200003684998,8|0,0:0|3:0,0:0:0:0:
442,125,60605,1,0,0:0:0:0:
397,108,60690,1,0,1:0:0:0:
350,118,60776,1,0,0:0:0:0:
307,139,60862,1,0,0:0:0:0:
260,136,60947,1,0,0:0:0:0:
215,115,61034,6,0,L|203:215,1,96.6000018424988,0|0,3:0|0:0,0:0:0:0:
56,256,61376,2,0,L|68:156,1,96.6000018424988,0|0,1:0|0:0,0:0:0:0:
152,44,61719,2,0,P|220:24|304:104,1,193.200003684998,0|0,0:0|1:0,0:0:0:0:
240,248,62234,1,0,3:0:0:0:
110,270,62405,1,0,0:0:0:0:
152,148,62576,1,0,3:0:0:0:
245,257,62748,1,0,3:0:0:0:
377,324,62919,1,0,1:0:0:0:
396,98,63091,1,0,3:0:0:0:
263,109,63262,1,0,3:0:0:0:
377,324,63434,1,0,1:0:0:0:
457,222,63605,6,0,B|411:217|411:217|361:198|361:198|316:193,1,144.900002763748,4|0,0:0|0:0,0:0:0:0:
230,174,63948,2,0,P|177:186|90:153,1,144.900002763748,2|0,0:0|0:0,0:0:0:0:
0,236,64291,2,0,B|29:218|67:229|67:229|52:275|88:321|134:318,1,193.200003684998,8|0,0:0|0:0,0:0:0:0:
265,344,64805,1,0,1:0:0:0:
265,344,64919,2,0,L|325:320,1,64.4000012283325,0|0,0:0|0:0,0:0:0:0:
405,312,65148,6,0,L|456:352,2,64.4000012283325,2|0|0,3:2|0:0|0:0,0:0:0:0:
348,244,65491,1,0,1:0:0:0:
348,244,65605,2,0,L|358:181,1,64.4000012283325
232,188,65834,1,8,0:0:0:0:
231,188,65948,2,0,L|240:124,1,64.4000012283325
100,204,66176,1,0,1:0:0:0:
99,204,66290,2,0,L|108:140,1,64.4000012283325
64,60,66519,5,8,3:2:0:0:
193,114,66691,1,0,0:0:0:0:
239,124,66776,1,0,0:0:0:0:
287,115,66862,1,0,1:0:0:0:
327,90,66948,1,0,0:0:0:0:
356,51,67033,1,0,0:0:0:0:
476,16,67205,1,0,0:0:0:0:
443,51,67290,1,0,0:0:0:0:
427,96,67376,1,0,3:0:0:0:
428,144,67462,1,0,0:0:0:0:
448,188,67547,1,0,1:0:0:0:
488,320,67719,6,0,P|400:280|308:296,1,193.200003684998,4|0,3:2|3:0,0:0:0:0:
184,280,68234,2,0,P|128:276|96:252,1,96.6000018424988,0|0,3:0|1:0,0:0:0:0:
80,120,68576,1,0,1:0:0:0:
108,100,68662,1,0,1:0:0:0:
140,88,68748,1,0,1:0:0:0:
180,88,68834,1,0,1:0:0:0:
216,104,68919,1,0,1:0:0:0:
248,128,69005,1,0,1:0:0:0:
268,168,69091,1,0,1:0:0:0:
276,216,69176,1,0,1:0:0:0:
260,264,69262,6,0,B|304:284|352:264|352:264|400:240|448:264,1,193.200003684998,4|0,3:2|1:0,0:0:0:0:
352,360,69776,2,0,B|328:313|352:265|352:265|372:217|352:173,1,193.200003684998,0|0,0:0|3:0,0:0:0:0:
240,116,70291,1,0,1:0:0:0:
160,216,70462,2,0,P|164:240|336:276,1,193.200003684998,12|0,3:2|3:0,0:0:0:0:
436,312,70976,1,0,1:0:0:0:
360,200,71148,2,0,P|356:176|184:140,1,193.200003684998,0|0,3:2|3:0,0:0:0:0:
120,188,71662,2,0,P|72:204|28:196,1,96.6000018424988,0|0,1:0|3:0,0:0:0:0:
16,188,71919,1,0,0:0:0:0:
8,176,72005,6,0,P|112:148|192:176,1,193.200003684998,6|0,3:2|0:0,0:0:0:0:
263,288,72519,2,0,P|262:341|247:383,2,96.6000018424988,6|0|0,1:2|3:0|0:0,0:0:0:0:
336,172,73034,2,0,P|450:183|472:36,1,289.800005527496,12|0,3:2|3:0,0:0:0:0:
435,10,73634,1,0,0:0:0:0:
387,4,73719,1,0,0:0:0:0:
343,22,73805,1,0,0:0:0:0:
313,59,73891,1,0,1:0:0:0:
304,106,73976,1,0,0:0:0:0:
307,154,74061,1,0,0:0:0:0:
298,200,74147,1,0,0:0:0:0:
268,237,74233,1,0,3:0:0:0:
223,255,74319,1,0,0:0:0:0:
176,250,74405,2,0,P|144:245|114:252,2,64.4000012283325,0|0|0,1:0|0:0|0:0,0:0:0:0:
219,304,74748,6,0,P|230:334|251:356,2,64.4000012283325,4|0|0,3:2|0:0|0:0,0:0:0:0:
268,237,75091,2,0,P|288:211|297:182,2,64.4000012283325,0|0|0,3:2|0:0|0:0,0:0:0:0:
217,167,75434,2,0,L|157:166,3,48.3000009212494,0|0|0|0,1:0|0:0|3:0|0:0,0:0:0:0:
359,247,75776,2,0,L|419:248,3,48.3000009212494,0|0|0|0,0:0|0:0|1:0|0:0,0:0:0:0:
441,212,76119,5,0,3:0:0:0:
448,164,76204,1,0,0:0:0:0:
438,117,76290,1,0,1:0:0:0:
407,81,76376,1,0,0:0:0:0:
362,64,76461,1,0,3:0:0:0:
314,68,76547,1,0,0:0:0:0:
273,93,76634,1,0,3:0:0:0:
251,135,76719,1,0,0:0:0:0:
264,181,76804,1,0,1:0:0:0:
253,227,76890,1,0,0:0:0:0:
217,257,76976,1,0,1:0:0:0:
177,236,77061,1,0,1:0:0:0:
130,226,77147,1,0,1:0:0:0:
83,237,77233,1,0,1:0:0:0:
53,270,77319,1,4,1:0:0:0:
53,270,78005,5,0,3:0:0:0:
92,327,78176,1,8,0:0:0:0:
168,144,78691,1,0,3:0:0:0:
99,149,78862,1,0,3:0:0:0:
206,309,79376,1,0,3:0:0:0:
236,246,79547,1,8,0:0:0:0:
53,270,80062,5,0,3:0:0:0:
92,327,80233,1,0,3:0:0:0:
121,263,80405,1,0,3:0:0:0:
176,54,80748,1,0,3:0:0:0:
205,118,80920,1,8,0:0:0:0:
285,337,81434,1,0,3:0:0:0:
314,273,81606,1,0,3:0:0:0:
365,42,82119,1,0,3:0:0:0:
394,106,82291,1,8,0:0:0:0:
323,99,82462,5,4,0:0:0:0:
436,49,82634,1,0,0:0:0:0:
429,169,82805,2,0,P|385:277|262:293,1,252.000009613037,4|0,0:0|3:0,0:0:0:0:
211,245,83662,1,10,0:0:0:0:
303,91,84176,1,0,3:0:0:0:
236,112,84348,1,0,3:0:0:0:
387,257,84862,1,0,3:0:0:0:
403,189,85034,1,8,0:0:0:0:
211,245,85548,5,0,3:0:0:0:
262,292,85720,1,0,3:0:0:0:
278,222,85891,1,0,3:0:0:0:
268,21,86234,1,0,3:0:0:0:
252,91,86405,1,8,0:0:0:0:
196,208,86748,6,0,L|212:268,1,63.0000024032594,2|0,0:0|3:0,0:0:0:0:
180,272,87005,5,0,0:0:0:0:
148,264,87091,1,0,3:0:0:0:
124,244,87176,1,0,0:0:0:0:
104,212,87262,1,0,0:0:0:0:
96,176,87348,1,0,0:0:0:0:
112,136,87434,1,8,0:0:0:0:
144,104,87519,1,0,0:0:0:0:
188,96,87605,1,0,3:0:0:0:
236,112,87691,1,0,0:0:0:0:
280,136,87776,1,0,0:0:0:0:
328,156,87862,1,0,0:0:0:0:
376,164,87948,1,0,3:0:0:0:
432,164,88034,1,0,0:0:0:0:
472,124,88119,1,0,1:0:0:0:
484,68,88205,1,0,1:0:0:0:
456,20,88291,1,0,1:0:0:0:
404,4,88376,1,0,1:0:0:0:
352,20,88462,6,0,P|340:72|356:116,1,96.6000018424988,6|0,3:2|0:0,0:0:0:0:
433,255,88805,2,0,P|445:209|432:164,1,96.6000018424988,2|0,3:2|0:0,0:0:0:0:
312,124,89148,2,0,P|260:184|296:288,1,193.200003684998,2|0,3:2|3:0,0:0:0:0:
396,212,89662,1,2,0:0:0:0:
336,100,89834,2,0,L|240:88,1,96.6000018424988,0|2,3:0|0:0,0:0:0:0:
128,28,90176,2,0,P|132:80|116:120,1,96.6000018424988,0|2,3:0|0:0,0:0:0:0:
44,224,90519,2,0,L|140:236,1,96.6000018424988,0|2,3:0|0:0,0:0:0:0:
252,296,90861,2,0,P|248:244|264:204,1,96.6000018424988,0|6,3:0|0:0,0:0:0:0:
372,268,91205,5,0,3:0:0:0:
284,360,91376,1,2,0:0:0:0:
168,312,91548,1,0,3:0:0:0:
180,188,91719,2,0,P|232:124|368:120,1,193.200003684998,2|2,0:0|0:0,0:0:0:0:
384,128,92148,1,0,0:0:0:0:
432,128,92234,1,0,3:0:0:0:
476,112,92319,1,0,0:0:0:0:
504,72,92405,6,0,P|408:80|320:20,1,193.200003684998,6|2,0:0|0:0,0:0:0:0:
220,96,92919,1,0,3:0:0:0:
104,48,93091,2,0,P|48:68|20:96,1,96.6000018424988,6|0,0:0|3:0,0:0:0:0:
168,176,93434,2,0,P|178:117|168:79,1,96.6000018424988,6|0,0:0|3:0,0:0:0:0:
16,172,93776,2,0,B|48:216|96:220|96:220|144:224|176:268,1,193.200003684998,6|2,0:0|0:0,0:0:0:0:
228,384,94291,1,0,3:0:0:0:
344,340,94462,2,0,P|420:280|432:184,1,193.200003684998,2|2,0:0|0:0,0:0:0:0:
308,216,94976,1,0,3:0:0:0:
181,242,95148,2,0,P|196:149|271:92,1,193.200003684998,2|2,0:0|0:0,0:0:0:0:
396,100,95662,1,0,3:0:0:0:
488,184,95834,1,2,0:0:0:0:
448,304,96005,2,0,L|460:344,4,32.2000006141663,0|0|0|2|0,3:0|0:0|0:0|0:0|0:0,0:0:0:0:
364,264,96348,2,0,L|356:228,5,32.2000006141663,0|0|0|14|0|0,3:0|0:0|0:0|3:2|0:0|0:0,0:0:0:0:
348,296,96691,5,0,0:0:0:0:
232,344,96862,1,2,3:2:0:0:
180,208,97034,1,0,3:0:0:0:
304,188,97205,1,2,3:2:0:0:
168,292,97376,1,0,3:0:0:0:
27,194,97548,1,2,3:2:0:0:
75,29,97719,1,0,3:0:0:0:
246,24,97891,6,0,L|300:25,1,48.3000009212494,6|0,3:2|3:0,0:0:0:0:
329,129,98062,2,0,L|281:129,1,48.3000009212494,0|0,3:0|3:0,0:0:0:0:
226,231,98234,2,0,L|284:233,1,48.3000009212494,0|0,3:0|3:0,0:0:0:0:
315,340,98405,2,0,L|267:340,1,48.3000009212494,0|0,3:0|3:0,0:0:0:0:
405,258,98576,2,0,L|420:203,1,48.3000009212494,2|0,3:2|3:0,3:0:0:0:
327,105,98748,2,0,L|342:160,1,48.3000009212494,0|0,3:0|3:0,0:0:0:0:
274,232,98919,2,0,L|262:279,1,48.3000009212494,0|0,3:0|3:0,0:0:0:0:
206,124,99091,2,0,L|194:78,1,48.3000009212494,0|0,3:0|3:0,0:0:0:0:
127,259,99262,2,0,L|114:305,1,48.3000009212494,8|0,3:2|3:0,3:0:0:0:
46,144,99434,6,0,P|133:161|214:114,1,173.250006608963
217,113,99948,1,4,1:0:0:0:
256,192,100033,12,0,105433,0:0:0:0:
