osu file format v14

[General]
AudioFilename: audio.mp3
AudioLeadIn: 0
PreviewTime: 103621
Countdown: 0
SampleSet: Normal
StackLeniency: 0.7
Mode: 1
LetterboxInBreaks: 0
WidescreenStoryboard: 0

[Editor]
DistanceSpacing: 0.3
BeatDivisor: 8
GridSize: 16
TimelineZoom: 4.219997

[Metadata]
Title:a little witch's music spell
TitleUnicode:a little witch's music spell
Artist:Awfiquily
ArtistUnicode:Awfiquily
Creator:Ideal
Version:Endgame
Source:
Tags:electronic instrumental neurofunk hardcore dnb drum'n'bass drum & and bass
BeatmapID:3792696
BeatmapSetID:1846278

[Difficulty]
HPDrainRate:3
CircleSize:5
OverallDifficulty:8
ApproachRate:5
SliderMultiplier:1.4
SliderTickRate:1

[Events]
//Background and Video events
0,0,"f.jpg",0,-90
//Break Periods
//Storyboard Layer 0 (Background)
//Storyboard Layer 1 (Fail)
//Storyboard Layer 2 (Pass)
//Storyboard Layer 3 (Foreground)
//Storyboard Layer 4 (Overlay)
//Storyboard Sound Samples

[TimingPoints]
9360,468.75,4,1,0,70,1,0
9360,-100,4,1,0,70,0,0
16860,-100,4,1,0,75,0,0
24361,-90.9090909090909,4,1,0,75,0,0
24418,-100,4,1,0,75,0,0
26236,-83.3333333333333,4,1,0,75,0,0
26293,-100,4,1,0,75,0,0
28111,-76.9230769230769,4,1,0,75,0,0
28168,-100,4,1,0,75,0,0
29986,-71.4285714285714,4,1,0,80,0,0
30043,-100,4,1,0,80,0,0
59985,340.909090909091,4,1,0,90,1,0
59986,-66.6666666666667,4,1,0,90,0,0
60027,-100,4,1,0,90,0,0
81803,-90.9090909090909,4,1,0,90,0,0
103621,-200,4,1,0,10,0,0
104985,340.909090909091,4,1,0,100,1,1
104985,-66.6666666666667,4,1,0,100,0,1
105155,-83.3333333333333,4,1,0,100,0,1
105240,-80,4,1,0,100,0,1
105322,-74.0740740740741,4,1,0,100,0,1
105365,-74.671669793621,4,1,0,100,0,1
105408,-75.2789861925477,4,1,0,100,0,1
105493,-76.5090349865436,4,1,0,100,0,1
105578,-77.7799491889779,4,1,0,100,0,1
105663,-79.093799682035,4,1,0,100,0,1
105720,-80,4,1,0,100,0,1
105777,-80.9272061813745,4,1,0,100,0,1
105834,-81.8761571693067,4,1,0,100,0,1
105919,-83.3333333333333,4,1,0,100,0,1
106004,-74.0740740740741,4,1,0,100,0,1
106047,-74.7718145308507,4,1,0,100,0,1
106089,-75.4661360453976,4,1,0,100,0,1
106175,-76.9288558335211,4,1,0,100,0,1
106232,-77.9299847792998,4,1,0,100,0,1
106288,-78.9392537773666,4,1,0,100,0,1
106345,-79.9937504882431,4,1,0,100,0,1
106430,-81.619639725809,4,1,0,100,0,1
106516,-83.3333333333333,4,1,0,100,0,1
106686,-74.0740740740741,4,1,0,100,0,1
106743,-74.8683220466516,4,1,0,100,0,1
106800,-75.6797870317551,4,1,0,100,0,1
106857,-76.5090349865436,4,1,0,100,0,1
106942,-77.7799491889779,4,1,0,100,0,1
107027,-79.093799682035,4,1,0,100,0,1
107112,-80.4527996765717,4,1,0,100,0,1
107197,-81.8593171534348,4,1,0,100,0,1
107240,-82.5897489105623,4,1,0,100,0,1
107283,-83.3333333333333,4,1,0,100,0,1
107368,-74.0740740740741,4,1,0,100,0,1
107425,-75.4758742806552,4,1,0,100,0,1
107482,-76.9317540891145,4,1,0,100,0,1
107538,-78.4178452339887,4,1,0,100,0,1
107624,-80.8152624718569,4,1,0,100,0,1
107709,-83.3333333333333,4,1,0,100,0,1
107879,-74.0740740740741,4,1,0,100,0,1
107964,-74.9975554903686,4,1,0,100,0,1
108050,-75.9556347791642,4,1,0,100,0,1
108092,-76.4324862979572,4,1,0,100,0,1
108135,-76.9269344566471,4,1,0,100,0,1
108220,-77.9233973382099,4,1,0,100,0,1
108305,-78.9460141011785,4,1,0,100,0,1
108391,-80.008345068586,4,1,0,100,0,1
108447,-80.7156011575901,4,1,0,100,0,1
108504,-81.4484443028565,4,1,0,100,0,1
108561,-82.1947168193752,4,1,0,100,0,1
108646,-83.3333333333333,4,1,0,100,0,1
108732,-74.0740740740741,4,1,0,100,0,1
108774,-74.7567844342038,4,1,0,100,0,1
108817,-75.4689115344853,4,1,0,100,0,1
108902,-76.9172875743208,4,1,0,100,0,1
108987,-78.4223449969306,4,1,0,100,0,1
109072,-79.9874774986304,4,1,0,100,0,1
109158,-81.6359134116144,4,1,0,100,0,1
109243,-83.3333333333333,4,1,0,100,0,1
109413,-74.0740740740741,4,1,0,100,0,1
109456,-74.671669793621,4,1,0,100,0,1
109499,-75.2789861925477,4,1,0,100,0,1
109584,-76.5090349865436,4,1,0,100,0,1
109641,-77.3566569484937,4,1,0,100,0,1
109697,-78.207899390843,4,1,0,100,0,1
109754,-79.093799682035,4,1,0,100,0,1
109839,-80.4527996765717,4,1,0,100,0,1
109925,-81.8761571693067,4,1,0,100,0,1
110010,-83.3333333333333,4,1,0,100,0,1
110095,-74.0740740740741,4,1,0,100,0,1
110138,-75.1266798854373,4,1,0,100,0,1
110180,-76.1840929401251,4,1,0,100,0,1
110266,-78.444904531861,4,1,0,100,0,1
110351,-80.8152624718569,4,1,0,100,0,1
110436,-66.6666666666667,4,1,0,100,0,1
110607,-74.0740740740741,4,1,0,100,0,1
110692,-74.9975554903686,4,1,0,100,0,1
110777,-75.9443536808753,4,1,0,100,0,1
110820,-76.4324862979572,4,1,0,100,0,1
110862,-76.915363016446,4,1,0,100,0,1
110947,-77.9115242013307,4,1,0,100,0,1
111004,-78.5941182498207,4,1,0,100,0,1
111061,-79.2887786220086,4,1,0,100,0,1
111118,-79.9958281184814,4,1,0,100,0,1
111203,-81.0739390095661,4,1,0,100,0,1
111288,-82.1815064823744,4,1,0,100,0,1
111374,-83.3333333333333,4,1,0,100,0,1
111459,-74.0740740740741,4,1,0,100,0,1
111501,-74.7567844342038,4,1,0,100,0,1
111544,-75.4689115344853,4,1,0,100,0,1
111629,-76.9172875743208,4,1,0,100,0,1
111714,-78.4223449969306,4,1,0,100,0,1
111800,-80.0062627211523,4,1,0,100,0,1
111885,-81.6359134116144,4,1,0,100,0,1
111970,-83.3333333333333,4,1,0,100,0,1
112141,-74.0740740740741,4,1,0,100,0,1
112183,-74.6586496304647,4,1,0,100,0,1
112226,-75.2667803245564,4,1,0,100,0,1
112311,-76.498523937877,4,1,0,100,0,1
112396,-77.7712533437724,4,1,0,100,0,1
112482,-79.1027938151171,4,1,0,100,0,1
112567,-80.4644255434049,4,1,0,100,0,1
112652,-81.8737550655952,4,1,0,100,0,1
112737,-83.3333333333333,4,1,0,100,0,1
112822,-74.0740740740741,4,1,0,100,0,1
112865,-75.1266798854373,4,1,0,100,0,1
112908,-76.2096323611577,4,1,0,100,0,1
112993,-78.444904531861,4,1,0,100,0,1
113078,-80.8152624718569,4,1,0,100,0,1
113163,-83.3333333333333,4,1,0,100,0,1
113334,-74.0740740740741,4,1,0,100,0,1
113391,-74.6908170221054,4,1,0,100,0,1
113447,-75.306823760432,4,1,0,100,0,1
113504,-75.9443536808753,4,1,0,100,0,1
113561,-76.5927701218294,4,1,0,100,0,1
113618,-77.2523543334844,4,1,0,100,0,1
113675,-77.9233973382099,4,1,0,100,0,1
113760,-78.9460141011785,4,1,0,100,0,1
113845,-79.9958281184814,4,1,0,100,0,1
113930,-81.0739390095661,4,1,0,100,0,1
114016,-82.1947168193752,4,1,0,100,0,1
114101,-83.3333333333333,4,1,0,100,0,1
114186,-74.0740740740741,4,1,0,100,0,1
114229,-75.1266798854373,4,1,0,100,0,1
114271,-76.1840929401251,4,1,0,100,0,1
114357,-78.444904531861,4,1,0,100,0,1
114442,-80.8152624718569,4,1,0,100,0,1
114527,-83.3333333333333,4,1,0,100,0,1
114700,-80.6451612903226,4,1,0,100,0,1
114786,-78.125,4,1,0,100,0,1
114868,-74.0740740740741,4,1,0,100,0,1
114925,-75.0036694554528,4,1,0,100,0,1
114982,-75.9568933481977,4,1,0,100,0,1
115038,-76.9172875743208,4,1,0,100,0,1
115095,-77.9200975907289,4,1,0,100,0,1
115152,-78.9494013132484,4,1,0,100,0,1
115209,-80.0062627211523,4,1,0,100,0,1
115266,-81.09180353884,4,1,0,100,0,1
115322,-82.1873743466023,4,1,0,100,0,1
115379,-83.3333333333333,4,1,0,100,0,1
115467,-86.9565217391304,4,1,0,100,0,1
115894,-66.6666666666667,4,1,0,100,0,1
116146,-74.0740740740741,4,1,0,100,0,1
116231,-75.1142684068506,4,1,0,100,0,1
116274,-75.6516916250693,4,1,0,100,0,1
116317,-76.196860510586,4,1,0,100,0,1
116402,-77.297971211606,4,1,0,100,0,1
116459,-78.0543633762518,4,1,0,100,0,1
116515,-78.8120413705437,4,1,0,100,0,1
116572,-79.5985060690943,4,1,0,100,0,1
116657,-80.8009004205912,4,1,0,100,0,1
116743,-82.0549840582326,4,1,0,100,0,1
116828,-83.3333333333333,4,1,0,100,0,1
116913,-74.0740740740741,4,1,0,100,0,1
116956,-75.1266798854373,4,1,0,100,0,1
116999,-76.2096323611577,4,1,0,100,0,1
117084,-78.444904531861,4,1,0,100,0,1
117169,-80.8152624718569,4,1,0,100,0,1
117254,-83.3333333333333,4,1,0,100,0,1
117425,-74.0740740740741,4,1,0,100,0,1
117510,-74.9975554903686,4,1,0,100,0,1
117595,-75.9443536808753,4,1,0,100,0,1
117638,-76.4324862979572,4,1,0,100,0,1
117680,-76.915363016446,4,1,0,100,0,1
117766,-77.9233973382099,4,1,0,100,0,1
117851,-78.9460141011785,4,1,0,100,0,1
117936,-79.9958281184814,4,1,0,100,0,1
118021,-81.0739390095661,4,1,0,100,0,1
118107,-82.1947168193752,4,1,0,100,0,1
118192,-83.3333333333333,4,1,0,100,0,1
118277,-74.0740740740741,4,1,0,100,0,1
118320,-75.1266798854373,4,1,0,100,0,1
118362,-76.1840929401251,4,1,0,100,0,1
118447,-78.4178452339887,4,1,0,100,0,1
118533,-80.8152624718569,4,1,0,100,0,1
118618,-83.3333333333333,4,1,0,100,0,1
118788,-74.0740740740741,4,1,0,100,0,1
118874,-75.0085570387756,4,1,0,100,0,1
118959,-75.9556347791642,4,1,0,100,0,1
119001,-76.4324862979572,4,1,0,100,0,1
119044,-76.9269344566471,4,1,0,100,0,1
119129,-77.9233973382099,4,1,0,100,0,1
119186,-78.6062003586984,4,1,0,100,0,1
119243,-79.3010752688172,4,1,0,100,0,1
119300,-80.008345068586,4,1,0,100,0,1
119385,-81.0867956443599,4,1,0,100,0,1
119470,-82.1947168193752,4,1,0,100,0,1
119555,-83.3333333333333,4,1,0,100,0,1
119641,-74.0740740740741,4,1,0,100,0,1
119683,-74.7567844342038,4,1,0,100,0,1
119726,-75.4689115344853,4,1,0,100,0,1
119811,-76.9172875743208,4,1,0,100,0,1
119896,-78.4223449969306,4,1,0,100,0,1
119982,-80.0062627211523,4,1,0,100,0,1
120067,-81.6359134116144,4,1,0,100,0,1
120152,-83.3333333333333,4,1,0,100,0,1
120322,-74.0740740740741,4,1,0,100,0,1
120365,-74.671669793621,4,1,0,100,0,1
120408,-75.2789861925477,4,1,0,100,0,1
120493,-76.5090349865436,4,1,0,100,0,1
120578,-77.7799491889779,4,1,0,100,0,1
120663,-79.093799682035,4,1,0,100,0,1
120749,-80.4690659118479,4,1,0,100,0,1
120834,-81.8761571693067,4,1,0,100,0,1
120919,-83.3333333333333,4,1,0,100,0,1
121004,-74.0740740740741,4,1,0,100,0,1
121047,-75.1266798854373,4,1,0,100,0,1
121089,-76.1840929401251,4,1,0,100,0,1
121175,-78.444904531861,4,1,0,100,0,1
121217,-79.5985060690943,4,1,0,100,0,1
121260,-80.8152624718569,4,1,0,100,0,1
121345,-83.3333333333333,4,1,0,100,0,1
121516,-74.0740740740741,4,1,0,100,0,1
121601,-74.9975554903686,4,1,0,100,0,1
121686,-75.9443536808753,4,1,0,100,0,1
121729,-76.4324862979572,4,1,0,100,0,1
121771,-76.915363016446,4,1,0,100,0,1
121857,-77.9233973382099,4,1,0,100,0,1
121942,-78.9460141011785,4,1,0,100,0,1
122027,-79.9958281184814,4,1,0,100,0,1
122112,-81.0739390095661,4,1,0,100,0,1
122197,-82.1815064823744,4,1,0,100,0,1
122283,-83.3333333333333,4,1,0,100,0,1
122368,-74.0740740740741,4,1,0,100,0,1
122410,-75.1018610285211,4,1,0,100,0,1
122453,-76.1840929401251,4,1,0,100,0,1
122538,-78.4178452339887,4,1,0,100,0,1
122624,-80.8152624718569,4,1,0,100,0,1
122709,-83.3333333333333,4,1,0,100,0,1
122879,-74.0740740740741,4,1,0,100,0,1
122936,-74.6908170221054,4,1,0,100,0,1
122993,-75.3179162370501,4,1,0,100,0,1
123050,-75.9556347791642,4,1,0,100,0,1
123107,-76.6042446941323,4,1,0,100,0,1
123163,-77.2523543334844,4,1,0,100,0,1
123220,-77.9233973382099,4,1,0,100,0,1
123305,-78.9460141011785,4,1,0,100,0,1
123391,-80.008345068586,4,1,0,100,0,1
123476,-81.0867956443599,4,1,0,100,0,1
123561,-82.1947168193752,4,1,0,100,0,1
123646,-83.3333333333333,4,1,0,100,0,1
123732,-74.0740740740741,4,1,0,100,0,1
123788,-75.4549489569463,4,1,0,100,0,1
123845,-76.9143762017871,4,1,0,100,0,1
123902,-78.4313725490196,4,1,0,100,0,1
123987,-80.8080808080808,4,1,0,100,0,1
124072,-83.3333333333333,4,1,0,100,0,1
124243,-74.0740740740741,4,1,0,100,0,1
124328,-74.9975554903686,4,1,0,100,0,1
124413,-75.9443536808753,4,1,0,100,0,1
124456,-76.4324862979572,4,1,0,100,0,1
124499,-76.9269344566471,4,1,0,100,0,1
124584,-77.9233973382099,4,1,0,100,0,1
124669,-78.9460141011785,4,1,0,100,0,1
124754,-79.9958281184814,4,1,0,100,0,1
124839,-81.0739390095661,4,1,0,100,0,1
124925,-82.1947168193752,4,1,0,100,0,1
125010,-83.3333333333333,4,1,0,100,0,1
125095,-74.0740740740741,4,1,0,100,0,1
125138,-75.1266798854373,4,1,0,100,0,1
125180,-76.1840929401251,4,1,0,100,0,1
125266,-78.444904531861,4,1,0,100,0,1
125351,-80.8152624718569,4,1,0,100,0,1
125436,-83.3333333333333,4,1,0,100,0,1
125607,-74.0740740740741,4,1,0,100,0,1
125663,-74.7571216861518,4,1,0,100,0,1
125720,-75.4654255319149,4,1,0,100,0,1
125777,-76.1872797449236,4,1,0,100,0,1
125834,-76.9230769230769,4,1,0,100,0,1
125891,-77.6732249786142,4,1,0,100,0,1
125947,-78.4245983762308,4,1,0,100,0,1
126004,-79.2044661549197,4,1,0,100,0,1
126061,-80,4,1,0,100,0,1
126118,-80.811676753293,4,1,0,100,0,1
126203,-82.0531357310681,4,1,0,100,0,1
126288,-83.3333333333333,4,1,0,100,0,1
126462,-100,4,1,0,100,0,1
126803,-66.6666666666667,4,1,0,100,0,1
126970,-74.0740740740741,4,1,0,100,0,1
127055,-74.9975554903686,4,1,0,100,0,1
127141,-75.9556347791642,4,1,0,100,0,1
127183,-76.4324862979572,4,1,0,100,0,1
127226,-76.9269344566471,4,1,0,100,0,1
127311,-77.9233973382099,4,1,0,100,0,1
127368,-78.6062003586984,4,1,0,100,0,1
127425,-79.3010752688172,4,1,0,100,0,1
127482,-80.008345068586,4,1,0,100,0,1
127567,-81.0867956443599,4,1,0,100,0,1
127652,-82.1947168193752,4,1,0,100,0,1
127737,-83.3333333333333,4,1,0,100,0,1
127822,-74.0740740740741,4,1,0,100,0,1
127865,-74.7718145308507,4,1,0,100,0,1
127908,-75.4828247088309,4,1,0,100,0,1
127993,-76.9288558335211,4,1,0,100,0,1
128078,-78.4313725490196,4,1,0,100,0,1
128163,-79.9937504882431,4,1,0,100,0,1
128249,-81.639161285179,4,1,0,100,0,1
128334,-83.3333333333333,4,1,0,100,0,1
128504,-74.0740740740741,4,1,0,100,0,1
128547,-74.671669793621,4,1,0,100,0,1
128589,-75.2647503782148,4,1,0,100,0,1
128675,-76.5090349865436,4,1,0,100,0,1
128760,-77.7799491889779,4,1,0,100,0,1
128845,-79.093799682035,4,1,0,100,0,1
128930,-80.4527996765717,4,1,0,100,0,1
129016,-81.8761571693067,4,1,0,100,0,1
129101,-83.3333333333333,4,1,0,100,0,1
129186,-74.0740740740741,4,1,0,100,0,1
129229,-75.1266798854373,4,1,0,100,0,1
129271,-76.1840929401251,4,1,0,100,0,1
129357,-78.444904531861,4,1,0,100,0,1
129442,-80.8152624718569,4,1,0,100,0,1
129527,-83.3333333333333,4,1,0,100,0,1
129700,-90.9090909090909,4,1,0,100,0,1
129871,-66.6666666666667,4,1,0,100,0,1
130038,-74.0740740740741,4,1,0,100,0,1
130095,-75.1919512840879,4,1,0,100,0,1
130152,-76.3440860215054,4,1,0,100,0,1
130209,-77.5320775320775,4,1,0,100,0,1
130266,-78.7576261785912,4,1,0,100,0,1
130322,-80,4,1,0,100,0,1
130379,-81.3054680790152,4,1,0,100,0,1
130464,-83.3333333333333,4,1,0,100,0,1
130550,-74.0740740740741,4,1,0,100,0,1
130592,-74.7567844342038,4,1,0,100,0,1
130635,-75.4689115344853,4,1,0,100,0,1
130720,-76.9172875743208,4,1,0,100,0,1
130805,-78.4223449969306,4,1,0,100,0,1
130891,-80.0062627211523,4,1,0,100,0,1
130976,-81.6359134116144,4,1,0,100,0,1
131061,-83.3333333333333,4,1,0,100,0,1
131232,-74.0740740740741,4,1,0,100,0,1
131274,-74.6586496304647,4,1,0,100,0,1
131317,-75.2667803245564,4,1,0,100,0,1
131402,-76.498523937877,4,1,0,100,0,1
131487,-77.7712533437724,4,1,0,100,0,1
131572,-79.0870488322718,4,1,0,100,0,1
131658,-80.4644255434049,4,1,0,100,0,1
131743,-81.8737550655952,4,1,0,100,0,1
131828,-83.3333333333333,4,1,0,100,0,1
131913,-74.0740740740741,4,1,0,100,0,1
131956,-75.5786490316486,4,1,0,100,0,1
131999,-77.145612343298,4,1,0,100,0,1
132041,-78.740157480315,4,1,0,100,0,1
132172,-90.9090909090909,4,1,0,100,0,1
132257,-66.6666666666667,4,1,0,100,0,1
132428,-83.3333333333333,4,1,0,100,0,1
132513,-80,4,1,0,100,0,1
132595,-74.0740740740741,4,1,0,100,0,1
132652,-74.8683220466516,4,1,0,100,0,1
132709,-75.6797870317551,4,1,0,100,0,1
132766,-76.5090349865436,4,1,0,100,0,1
132822,-77.3416245627672,4,1,0,100,0,1
132879,-78.207899390843,4,1,0,100,0,1
132936,-79.093799682035,4,1,0,100,0,1
132993,-80,4,1,0,100,0,1
133050,-80.9272061813745,4,1,0,100,0,1
133107,-81.8761571693067,4,1,0,100,0,1
133192,-83.3333333333333,4,1,0,100,0,1
133277,-74.0740740740741,4,1,0,100,0,1
133320,-75.1266798854373,4,1,0,100,0,1
133362,-76.1840929401251,4,1,0,100,0,1
133447,-78.4178452339887,4,1,0,100,0,1
133490,-79.5985060690943,4,1,0,100,0,1
133533,-80.8152624718569,4,1,0,100,0,1
133618,-83.3333333333333,4,1,0,100,0,1
133788,-74.0740740740741,4,1,0,100,0,1
133845,-74.6908170221054,4,1,0,100,0,1
133902,-75.3179162370501,4,1,0,100,0,1
133959,-75.9556347791642,4,1,0,100,0,1
134016,-76.6042446941323,4,1,0,100,0,1
134072,-77.2523543334844,4,1,0,100,0,1
134129,-77.9233973382099,4,1,0,100,0,1
134186,-78.6062003586984,4,1,0,100,0,1
134243,-79.3010752688172,4,1,0,100,0,1
134300,-80.008345068586,4,1,0,100,0,1
134385,-81.0867956443599,4,1,0,100,0,1
134470,-82.1947168193752,4,1,0,100,0,1
134555,-83.3333333333333,4,1,0,100,0,1
134641,-74.0740740740741,4,1,0,100,0,1
134683,-75.1018610285211,4,1,0,100,0,1
134726,-76.1840929401251,4,1,0,100,0,1
134811,-78.4178452339887,4,1,0,100,0,1
134896,-80.7865434731106,4,1,0,100,0,1
134982,-83.3333333333333,4,1,0,100,0,1
135152,-74.0740740740741,4,1,0,100,0,1
135195,-74.5383867832847,4,1,0,100,0,1
135237,-74.9975554903686,4,1,0,100,0,1
135322,-75.9443536808753,4,1,0,100,0,1
135365,-76.4324862979572,4,1,0,100,0,1
135408,-76.9269344566471,4,1,0,100,0,1
135493,-77.9233973382099,4,1,0,100,0,1
135550,-78.6062003586984,4,1,0,100,0,1
135607,-79.3010752688172,4,1,0,100,0,1
135663,-79.9958281184814,4,1,0,100,0,1
135749,-81.0867956443599,4,1,0,100,0,1
135834,-82.1947168193752,4,1,0,100,0,1
135919,-83.3333333333333,4,1,0,100,0,1
136004,-74.0740740740741,4,1,0,100,0,1
136047,-75.1266798854373,4,1,0,100,0,1
136089,-76.1840929401251,4,1,0,100,0,1
136175,-78.444904531861,4,1,0,100,0,1
136260,-80.8152624718569,4,1,0,100,0,1
136345,-83.3333333333333,4,1,0,100,0,1
136516,-74.0740740740741,4,1,0,100,0,1
136572,-75.239892399727,4,1,0,100,0,1
136629,-76.4648278113269,4,1,0,100,0,1
136686,-77.7303081836658,4,1,0,100,0,1
136743,-79.0383804301982,4,1,0,100,0,1
136800,-80.3912316073956,4,1,0,100,0,1
136857,-81.7912011173184,4,1,0,100,0,1
136913,-83.214920071048,4,1,0,100,0,1
136970,-84.7158808372135,4,1,0,100,0,1
137027,-86.2719823220698,4,1,0,100,0,1
137112,-88.701661381171,4,1,0,100,0,1
137197,-91.2721605299045,4,1,0,100,0,1
137283,-94.0291018564977,4,1,0,100,0,1
137368,-96.9226790793897,4,1,0,100,0,1
137453,-100,4,1,0,100,0,1
137712,-66.6666666666667,4,1,0,100,0,1
137882,-83.3333333333333,4,1,0,100,0,1
137967,-80,4,1,0,100,0,1
138050,-74.0740740740741,4,1,0,100,0,1
138092,-74.6586496304647,4,1,0,100,0,1
138135,-75.2667803245564,4,1,0,100,0,1
138220,-76.498523937877,4,1,0,100,0,1
138277,-77.3473492959574,4,1,0,100,0,1
138334,-78.2152230971129,4,1,0,100,0,1
138391,-79.1027938151171,4,1,0,100,0,1
138476,-80.4644255434049,4,1,0,100,0,1
138561,-81.8737550655952,4,1,0,100,0,1
138646,-83.3333333333333,4,1,0,100,0,1
138734,-74.0740740740741,4,1,0,100,0,1
138777,-74.8364448699537,4,1,0,100,0,1
138820,-75.187969924812,4,1,0,100,0,1
138905,-77.5193798449612,4,1,0,100,0,1
138990,-79.3650793650794,4,1,0,100,0,1
139075,-80.6451612903226,4,1,0,100,0,1
139161,-81.9672131147541,4,1,0,100,0,1
139246,-83.3333333333333,4,1,0,100,0,1
139413,-74.0740740740741,4,1,0,100,0,1
139456,-74.671669793621,4,1,0,100,0,1
139498,-75.2647503782148,4,1,0,100,0,1
139584,-76.5090349865436,4,1,0,100,0,1
139669,-77.7799491889779,4,1,0,100,0,1
139754,-79.093799682035,4,1,0,100,0,1
139839,-80.4527996765717,4,1,0,100,0,1
139925,-81.8761571693067,4,1,0,100,0,1
140010,-83.3333333333333,4,1,0,100,0,1
140095,-74.0740740740741,4,1,0,100,0,1
140138,-75.1266798854373,4,1,0,100,0,1
140180,-76.1840929401251,4,1,0,100,0,1
140266,-78.444904531861,4,1,0,100,0,1
140351,-80.8152624718569,4,1,0,100,0,1
140436,-83.3333333333333,4,1,0,100,0,1
140567,-90.9090909090909,4,1,0,100,0,1
140737,-66.6666666666667,4,1,0,100,0,1
140947,-74.0740740740741,4,1,0,100,0,1
141004,-75.1919512840879,4,1,0,100,0,1
141061,-76.3440860215054,4,1,0,100,0,1
141118,-77.5320775320775,4,1,0,100,0,1
141175,-78.7576261785912,4,1,0,100,0,1
141231,-80,4,1,0,100,0,1
141288,-81.3054680790152,4,1,0,100,0,1
141373,-83.3333333333333,4,1,0,100,0,1
141459,-74.0740740740741,4,1,0,100,0,1
141501,-74.7567844342038,4,1,0,100,0,1
141544,-75.4689115344853,4,1,0,100,0,1
141629,-76.9172875743208,4,1,0,100,0,1
141714,-78.4223449969306,4,1,0,100,0,1
141800,-80.0062627211523,4,1,0,100,0,1
141885,-81.6359134116144,4,1,0,100,0,1
141970,-83.3333333333333,4,1,0,100,0,1
142141,-74.0740740740741,4,1,0,100,0,1
142183,-74.6586496304647,4,1,0,100,0,1
142226,-75.2667803245564,4,1,0,100,0,1
142311,-76.498523937877,4,1,0,100,0,1
142396,-77.7712533437724,4,1,0,100,0,1
142481,-79.0870488322718,4,1,0,100,0,1
142567,-80.4644255434049,4,1,0,100,0,1
142652,-81.8737550655952,4,1,0,100,0,1
142737,-83.3333333333333,4,1,0,100,0,1
142822,-74.0740740740741,4,1,0,100,0,1
142865,-75.5786490316486,4,1,0,100,0,1
142908,-77.145612343298,4,1,0,100,0,1
142950,-78.740157480315,4,1,0,100,0,1
143081,-90.9090909090909,4,1,0,100,0,1
143166,-66.6666666666667,4,1,0,100,0,1
143337,-83.3333333333333,4,1,0,100,0,1
143422,-80,4,1,0,100,0,1
143504,-74.0740740740741,4,1,0,100,0,1
143561,-74.8683220466516,4,1,0,100,0,1
143618,-75.6797870317551,4,1,0,100,0,1
143675,-76.5090349865436,4,1,0,100,0,1
143731,-77.3416245627672,4,1,0,100,0,1
143788,-78.207899390843,4,1,0,100,0,1
143845,-79.093799682035,4,1,0,100,0,1
143902,-80,4,1,0,100,0,1
143959,-80.9272061813745,4,1,0,100,0,1
144016,-81.8761571693067,4,1,0,100,0,1
144101,-83.3333333333333,4,1,0,100,0,1
144186,-74.0740740740741,4,1,0,100,0,1
144229,-75.1266798854373,4,1,0,100,0,1
144271,-76.1840929401251,4,1,0,100,0,1
144356,-78.4178452339887,4,1,0,100,0,1
144399,-79.5985060690943,4,1,0,100,0,1
144442,-80.8152624718569,4,1,0,100,0,1
144527,-83.3333333333333,4,1,0,100,0,1
144700,-74.0740740740741,4,1,0,100,0,1
144757,-74.7407758303069,4,1,0,100,0,1
144814,-75.4195878478861,4,1,0,100,0,1
144871,-76.1108431151847,4,1,0,100,0,1
144928,-76.8148869414692,4,1,0,100,0,1
144984,-77.5193798449612,4,1,0,100,0,1
145041,-78.2498484598005,4,1,0,100,0,1
145098,-78.9942145082332,4,1,0,100,0,1
145155,-79.7528784049424,4,1,0,100,0,1
145240,-80.9116809116809,4,1,0,100,0,1
145325,-82.104654524429,4,1,0,100,0,1
145410,-83.3333333333333,4,1,0,100,0,1
145550,-74.0740740740741,4,1,0,100,0,1
145592,-75.1018610285211,4,1,0,100,0,1
145635,-76.1840929401251,4,1,0,100,0,1
145720,-78.4178452339887,4,1,0,100,0,1
145805,-80.7865434731106,4,1,0,100,0,1
145891,-83.3333333333333,4,1,0,100,0,1
146061,-74.0740740740741,4,1,0,100,0,1
146104,-74.5383867832847,4,1,0,100,0,1
146146,-74.9975554903686,4,1,0,100,0,1
146231,-75.9443536808753,4,1,0,100,0,1
146274,-76.4324862979572,4,1,0,100,0,1
146317,-76.9269344566471,4,1,0,100,0,1
146402,-77.9233973382099,4,1,0,100,0,1
146459,-78.6062003586984,4,1,0,100,0,1
146516,-79.3010752688172,4,1,0,100,0,1
146572,-79.9958281184814,4,1,0,100,0,1
146658,-81.0867956443599,4,1,0,100,0,1
146743,-82.1947168193752,4,1,0,100,0,1
146828,-83.3333333333333,4,1,0,100,0,1
146913,-74.0740740740741,4,1,0,100,0,1
146956,-75.1266798854373,4,1,0,100,0,1
146998,-76.1840929401251,4,1,0,100,0,1
147084,-78.444904531861,4,1,0,100,0,1
147169,-80.8152624718569,4,1,0,100,0,1
147254,-83.3333333333333,4,1,0,100,0,1
147425,-74.0740740740741,4,1,0,100,0,1
147481,-75.0575802736757,4,1,0,100,0,1
147538,-76.0858369098712,4,1,0,100,0,1
147595,-77.142658219035,4,1,0,100,0,1
147652,-78.2292512443958,4,1,0,100,0,1
147709,-79.3468920080206,4,1,0,100,0,1
147766,-80.4969305096444,4,1,0,100,0,1
147822,-81.6597265725762,4,1,0,100,0,1
147879,-82.8783005460393,4,1,0,100,0,1
147936,-84.1337939936976,4,1,0,100,0,1
148021,-86.0783095090118,4,1,0,100,0,1
148106,-88.1148355799435,4,1,0,100,0,1
148192,-90.2757974497902,4,1,0,100,0,1
148277,-92.5183700734803,4,1,0,100,0,1
148362,-94.8751980134435,4,1,0,100,0,1
148447,-97.3552411914595,4,1,0,100,0,1
148533,-100,4,1,0,100,0,1
148621,363.636363636364,4,1,0,85,1,0
148621,-93.75,4,1,0,85,0,0
150075,361.44578313253,4,1,0,85,1,0
150075,-93.9611188890037,4,1,0,85,0,0
151520,364.741641337386,4,1,0,85,1,0
151520,-93.4659094918566,4,1,0,85,0,0
152978,379.746835443038,4,1,0,85,1,0
152978,-89.7666068222621,4,1,0,85,0,0
154404,387.096774193548,4,1,0,85,1,0
154404,-58.8235294117647,4,1,0,85,0,0
154415,387.096774193549,4,1,0,85,1,8
154415,-80,4,1,0,85,0,0
154947,-58.8235294117647,4,1,0,85,0,0
155721,-80,4,1,0,85,0,0
156153,-74.0740740740741,4,1,0,85,0,0
156218,-74.8183645076519,4,1,0,85,0,0
156282,-75.5659640905543,4,1,0,85,0,0
156347,-76.3406940063092,4,1,0,85,0,0
156412,-77.1314741035856,4,1,0,85,0,0
156476,-77.926259861536,4,1,0,85,0,0
156541,-78.75040676863,4,1,0,85,0,0
156637,-80,4,1,0,85,0,0
157463,-58.8235294117647,4,1,0,85,0,0
157702,-74.0740740740741,4,1,0,85,0,0
157767,-75.3246753246753,4,1,0,85,0,0
157832,-76.6182298546896,4,1,0,85,0,0
157896,-77.9360386992744,4,1,0,85,0,0
157992,-80,4,1,0,85,0,0
159011,-58.8235294117647,4,1,0,85,0,0
159253,-74.0740740740741,4,1,0,85,0,0
159318,-75.3246753246753,4,1,0,85,0,0
159382,-76.6182298546896,4,1,0,85,0,0
159447,-77.9360386992744,4,1,0,85,0,0
159543,-80,4,1,0,85,0,0
160560,-58.8235294117647,4,1,0,85,0,0
160898,-80,4,1,0,85,0,0
162347,-74.0740740740741,4,1,0,85,0,0
162412,-74.8183645076519,4,1,0,85,0,0
162476,-75.5659640905543,4,1,0,85,0,0
162541,-76.3406940063092,4,1,0,85,0,0
162605,-77.119184193754,4,1,0,85,0,0
162670,-77.926259861536,4,1,0,85,0,0
162734,-78.7375955750773,4,1,0,85,0,0
162831,-80,4,1,0,85,0,0
163656,-58.8235294117647,4,1,0,85,0,0
163895,-74.0740740740741,4,1,0,85,0,0
163960,-74.8183645076519,4,1,0,85,0,0
164024,-75.5659640905543,4,1,0,85,0,0
164089,-76.3406940063092,4,1,0,85,0,0
164153,-77.119184193754,4,1,0,85,0,0
164218,-77.926259861536,4,1,0,85,0,0
164282,-78.7375955750773,4,1,0,85,0,0
164379,-80,4,1,0,85,0,0
164863,-74.0740740740741,4,1,0,85,0,0
164912,-74.7753840208675,4,1,0,85,0,0
164960,-75.4753778644564,4,1,0,85,0,0
165057,-76.9307225921876,4,1,0,85,0,0
165153,-78.4273989259297,4,1,0,85,0,0
165250,-80,4,1,0,85,0,0
165444,-74.0740740740741,4,1,0,85,0,0
165508,-75.3051155544015,4,1,0,85,0,0
165573,-76.5979926043318,4,1,0,85,0,0
165637,-77.9150994089199,4,1,0,85,0,0
165734,-80,4,1,0,85,0,0
166802,377.358490566038,4,1,0,85,1,0
166802,-60.6060606060606,4,1,0,85,0,0
166827,377.358490566038,4,1,0,85,1,8
167204,-86.9565217391304,4,1,0,85,0,8
167393,-76.9230769230769,4,1,0,85,0,8
167770,-100,4,1,0,85,0,8
168336,-60.6060606060606,4,1,0,85,0,0
168713,-76.9230769230769,4,1,0,85,0,8
168899,-74.0740740740741,4,1,0,85,0,8
168962,-75.9493670886076,4,1,0,85,0,8
169025,-77.9220779220779,4,1,0,85,0,8
169088,-80,4,1,0,85,0,8
169185,-76.9230769230769,4,1,0,85,0,8
169374,-83.3333333333333,4,1,0,85,0,8
169468,-76.9230769230769,4,1,0,85,0,8
169657,-83.3333333333333,4,1,0,85,0,8
169845,370.37037037037,4,1,0,85,1,0
169845,-60.6060606060606,4,1,0,85,0,0
169891,-83.3333333333333,4,1,0,85,0,8
170956,-76.9230769230769,4,1,0,85,0,8
171326,363.636363636363,4,1,0,85,1,0
171326,-76.9230769230769,4,1,0,85,0,8
171368,-78.125,4,1,0,85,0,8
171413,-79.1051017563423,4,1,0,85,0,8
171504,-81.1641876430206,4,1,0,85,0,8
171595,-83.3333333333333,4,1,0,85,0,8
171689,-76.9230769230769,4,1,0,85,0,8
171826,-83.3333333333333,4,1,0,85,0,8
172144,-76.9230769230769,4,1,0,85,0,8
172186,-78.125,4,1,0,85,0,8
172231,-79.1051017563423,4,1,0,85,0,8
172322,-81.1641876430206,4,1,0,85,0,8
172416,-76.9230769230769,4,1,0,85,0,8
172780,361.44578313253,4,1,0,85,1,0
172780,-61.7283950617284,4,1,0,85,0,0
173051,-83.3333333333333,4,1,0,85,0,0
173141,-76.9230769230769,4,1,0,85,0,0
173276,-83.3333333333333,4,1,0,85,0,0
173502,-76.9230769230769,4,1,0,85,0,0
173683,-83.3333333333333,4,1,0,85,0,0
173864,-76.9230769230769,4,1,0,85,0,0
174225,355.029585798816,4,1,0,85,1,0
174225,-63.2911392405063,4,1,0,85,0,0
174402,-83.3333333333333,4,1,0,85,0,0
174491,-81.3008130081301,4,1,0,85,0,0
174577,-76.9230769230769,4,1,0,85,0,0
174636,-78.25831126802,4,1,0,85,0,0
174695,-79.6407185628742,4,1,0,85,0,0
174754,-81.0728436452301,4,1,0,85,0,0
174843,-83.3333333333333,4,1,0,85,0,0
175290,352.941176470588,4,1,0,85,1,8
175290,-83.3333333333333,4,1,0,85,0,0
175642,352.941176470588,4,1,0,85,1,0
175642,-63.4920634920635,4,1,0,85,0,0
175818,-83.3333333333333,4,1,0,85,0,0
175994,-76.9230769230769,4,1,0,85,0,0
176171,-83.3333333333333,4,1,0,85,0,0
176259,-81.3008130081301,4,1,0,85,0,0
176347,348.837209302326,4,1,0,85,1,8
176347,-76.9230769230769,4,1,0,85,0,8
176402,-78.4313725490196,4,1,0,85,0,8
176460,-79.7720797720798,4,1,0,85,0,8
176518,-81.1594202898551,4,1,0,85,0,8
176605,-83.3333333333333,4,1,0,85,0,8
176699,338.983050847458,4,1,0,85,1,8
176699,-76.9230769230769,4,1,0,85,0,8
177037,340.909090909091,4,1,0,85,1,0
177037,-78.125,4,1,0,85,0,0
177093,-79.3650793650794,4,1,0,85,0,0
177150,-80.6451612903226,4,1,0,85,0,0
177207,-81.9672131147541,4,1,0,85,0,0
177264,-83.3333333333333,4,1,0,85,0,0
177715,-81.9672131147541,4,1,0,85,0,0
177801,-80.261353553279,4,1,0,85,0,0
177886,-78.6436926968068,4,1,0,85,0,0
177971,-77.0899511892771,4,1,0,85,0,0
178056,-75.5964139188573,4,1,0,85,0,0
178141,-74.159648207498,4,1,0,85,0,0
178227,-72.7605118829982,4,1,0,85,0,0
178312,-71.4285714285714,4,1,0,85,0,0
178400,-62.5,4,1,0,85,0,1
178485,-83.3333333333333,4,1,0,85,0,1
178741,348.837209302326,4,1,0,85,1,9
178741,-81.4393937234561,4,1,0,85,0,9
179429,344.827586206897,4,1,0,85,1,9
179429,-82.3863638704158,4,1,0,85,0,9
179773,344.827586206897,4,1,0,85,1,1
179773,-82.3863638704158,4,1,0,85,0,9
180808,329.67032967033,4,1,0,85,1,9
180808,-86.1742424568842,4,1,0,85,0,9
181137,329.67032967033,4,1,0,85,1,1
181137,-86.1742424568842,4,1,0,85,0,9
181467,344.827586206897,4,1,0,85,1,9
181467,-82.3863638704158,4,1,0,85,0,9
182501,340.909090909091,4,1,0,85,1,1
182501,-83.3333333333333,4,1,0,85,0,1
198691,-84.0336134453782,4,1,0,85,0,1
198776,-84.9498995139612,4,1,0,85,0,1
198861,-85.8863878721503,4,1,0,85,0,1
198946,-86.8437540981218,4,1,0,85,0,1
199032,-87.8343526637683,4,1,0,85,0,1
199117,-88.8358920852586,4,1,0,85,0,1
199202,-89.860535243121,4,1,0,85,0,1
199287,-90.9090909090909,4,1,0,85,0,1
199458,-91.743119266055,4,1,0,85,0,1
199543,-92.5911541269866,4,1,0,85,0,1
199628,-93.4550130147082,4,1,0,85,0,1
199713,-94.3351430063787,4,1,0,85,0,1
199799,-95.2426610415967,4,1,0,85,0,1
199884,-96.1569487915847,4,1,0,85,0,1
199969,-97.0889602033004,4,1,0,85,0,1
200054,-98.0392156862745,4,1,0,85,0,1
200228,346.820809248555,4,1,0,70,1,0
200228,-66.6666666666667,4,1,0,70,0,0
201268,-125,4,1,0,70,0,0
203002,352.941176470588,4,1,0,70,1,0
203002,-125,4,1,0,70,0,0
204413,357.142857142857,4,1,0,70,1,0
204413,-125,4,1,0,70,0,0
205841,365.853658536585,4,1,0,75,1,0
205841,-125,4,1,0,75,0,0
207304,387.096774193548,4,1,0,75,1,0
207304,-118.140244307646,4,1,0,75,0,8
208807,375,4,1,0,75,1,0
208807,-121.951219512195,4,1,0,75,0,0
211807,387.096774193548,4,1,0,70,1,8
211830,387.096774193548,4,1,0,70,1,0
211830,-113.636363636364,4,1,0,75,0,0
236507,-105.263157894737,4,1,0,75,0,0
250539,375,4,1,0,75,1,0
250539,-108.695652173913,4,1,0,75,0,0
250914,-100,4,1,0,75,0,0
252039,370.37037037037,4,1,0,75,1,0
252039,-101.249999988609,4,1,0,75,0,0
253520,365.853658536585,4,1,0,75,1,0
253520,-102.257139217665,4,1,0,75,0,0
253611,-100,4,1,0,75,0,0
254983,359.281437125748,4,1,0,75,1,0
254983,-101.829268100201,4,1,0,75,0,0
256420,352.941176470588,4,1,0,75,1,0
256420,-103.658536838192,4,1,0,75,0,0
256508,-100,4,1,0,75,0,0
257831,348.837209302326,4,1,0,75,1,0
257831,-101.176684844744,4,1,0,75,0,0
259226,340.909090909091,4,1,0,75,1,0
259226,-103.529411862145,4,1,0,75,0,0
259478,-102.040816326531,4,1,0,75,0,0
259563,-99.5471860849565,4,1,0,75,0,0
259649,-97.1452619765729,4,1,0,75,0,0
259734,-94.882510104816,4,1,0,75,0,0
259819,-92.7227689629778,4,1,0,75,0,0
259904,-90.6591608300059,4,1,0,75,0,0
259990,-88.6626976505985,4,1,0,75,0,0
260075,-86.7740116534052,4,1,0,75,0,0
260160,-84.9641126311269,4,1,0,75,0,0
260245,-83.2281713839313,4,1,0,75,0,0
260330,-81.5617454802426,4,1,0,75,0,0
260416,-79.9422799422799,4,1,0,75,0,0
260501,-78.4036229833003,4,1,0,75,0,0
260586,-76.9230769230769,4,1,0,80,0,0
260927,-81.9672131147541,4,1,0,70,0,0
261268,-87.2093023255814,4,1,0,70,0,0
261609,-93.167701863354,4,1,0,70,0,0
261950,-100,4,1,0,70,0,0
262802,-105.263157894737,4,1,0,70,0,0
262973,-111.135276207047,4,1,0,70,0,0
263143,-117.660603269629,4,1,0,70,0,0
263313,-125,4,1,0,70,0,0
271498,-117.647058823529,4,1,0,75,0,0
276865,-116.279069767442,4,1,0,75,0,0
276907,-116.033534298918,4,1,0,75,0,0
276950,-115.783224705995,4,1,0,75,0,0
277035,-115.291590520238,4,1,0,75,0,0
277120,-114.804113796806,4,1,0,75,0,0
277205,-114.320742021902,4,1,0,75,0,0
277291,-113.835808441812,4,1,0,75,0,0
277376,-113.360539317012,4,1,0,75,0,0
277461,-112.88922222811,4,1,0,75,0,0
277546,-112.421808085277,4,1,0,75,0,0
277632,-111.952817718418,4,1,0,75,0,0
277717,-111.493109931119,4,1,0,75,0,0
277802,-111.037162067348,4,1,0,75,0,0
277887,-110.584928186679,4,1,0,75,0,0
277973,-110.131107514524,4,1,0,75,0,0
278058,-109.686209122629,4,1,0,75,0,0
278143,-109.244890794555,4,1,0,75,0,0
278228,-108.807109490714,4,1,0,75,0,0
278313,-108.372822858663,4,1,0,75,0,0
278399,-107.936940974726,4,1,0,75,0,0
278484,-107.509559208866,4,1,0,75,0,0
278569,-107.08554857419,4,1,0,75,0,0
278654,-106.664869340831,4,1,0,75,0,0
278740,-106.242591406223,4,1,0,75,0,0
278825,-105.82849631444,4,1,0,75,0,0
278910,-105.417616674977,4,1,0,75,0,0
278995,-105.009915180653,4,1,0,75,0,0
279080,-104.605355099204,4,1,0,75,0,0
279166,-104.199195602527,4,1,0,75,0,0
279251,-103.800846298288,4,1,0,75,0,0
279336,-103.405531141139,4,1,0,75,0,0
279421,-103.013215596859,4,1,0,75,0,0
279507,-102.619302581508,4,1,0,75,0,0
279592,-102.232919036844,4,1,0,75,0,0
279677,-101.849434210671,4,1,0,75,0,0
279762,-101.468815604838,4,1,0,75,0,0
279848,-101.086603424425,4,1,0,75,0,0
279933,-100.711654478478,4,1,0,75,0,0
280018,-100.339476763776,4,1,0,75,0,0
280103,-99.9700396703642,4,1,0,75,0,0
280188,-99.6033130374425,4,1,0,75,0,0
280274,-99.2350000895784,4,1,0,75,0,0
280359,-98.8736366719623,4,1,0,75,0,0
280444,-98.5148955091151,4,1,0,75,0,0
280529,-98.1587481614064,4,1,0,75,0,0
280615,-97.8010219756548,4,1,0,75,0,0
280700,-97.450008268912,4,1,0,75,0,0
280785,-97.1015051697479,4,1,0,75,0,0
280870,-96.7554858386582,4,1,0,75,0,0
280955,-96.4119238173482,4,1,0,75,0,0
281041,-96.0667940851021,4,1,0,75,0,0
281126,-95.7280969482456,4,1,0,75,0,0
281211,-95.3917796706495,4,1,0,75,0,0
281296,-95.0578172569667,4,1,0,75,0,0
281382,-94.7222972764988,4,1,0,75,0,0
281467,-94.3929979788753,4,1,0,75,0,0
281552,-94.0659803478692,4,1,0,75,0,0
281637,-93.7412207513514,4,1,0,75,0,0
281723,-93.4149146802576,4,1,0,75,0,0
281808,-93.094627436612,4,1,0,75,0,0
281893,-92.7765289953871,4,1,0,75,0,0
281978,-92.4605969959904,4,1,0,75,0,0
282063,-92.1468093813737,4,1,0,75,0,0
282149,-91.8314902929522,4,1,0,75,0,0
282234,-91.5219510583103,4,1,0,75,0,0
282319,-91.2144915603129,4,1,0,75,0,0
282404,-90.9090909090909,4,1,0,75,0,0
283086,-100,4,1,0,78,0,0
283171,-93.9787485242031,4,1,0,81,0,0
283257,-88.5822390385043,4,1,0,84,0,0
283342,-83.8247683235046,4,1,0,87,0,0
283427,-79.5522686388167,4,1,0,90,0,0
283512,-75.6941802966908,4,1,0,93,0,0
283598,-72.1537345902828,4,1,0,95,0,0
283683,-68.9655172413793,4,1,0,98,0,0
283771,-66.6666666666667,4,1,0,100,0,1
283941,-64.5161290322581,4,1,0,100,0,1
284024,-65.6670420197949,4,1,0,100,0,1
284109,-66.8456456818799,4,1,0,100,0,1
284194,-68.0673301388377,4,1,0,100,0,1
284279,-69.33450142361,4,1,0,100,0,1
284365,-70.665518670876,4,1,0,100,0,1
284450,-72.0322454817319,4,1,0,100,0,1
284535,-73.4528820975173,4,1,0,100,0,1
284620,-74.9306823561236,4,1,0,100,0,1
284705,-76.4691673280652,4,1,0,100,0,1
284791,-78.0914120590619,4,1,0,100,0,1
284876,-79.7638758908646,4,1,0,100,0,1
284961,-81.5095450031265,4,1,0,100,0,1
285046,-83.3333333333333,4,1,0,100,0,1
285135,-62.5,4,1,0,100,0,1
285217,-63.5567933160931,4,1,0,100,0,1
285302,-64.6499392958316,4,1,0,100,0,1
285387,-65.7813465101915,4,1,0,100,0,1
285473,-66.9670928526514,4,1,0,100,0,1
285558,-68.1818181818182,4,1,0,100,0,1
285643,-69.441425777005,4,1,0,100,0,1
285728,-70.748449955713,4,1,0,100,0,1
285813,-72.1056194989844,4,1,0,100,0,1
285899,-73.5327963176064,4,1,0,100,0,1
285984,-75,4,1,0,100,0,1
286069,-76.5269461077844,4,1,0,100,0,1
286154,-78.1173594132029,4,1,0,100,0,1
286240,-79.7952047952048,4,1,0,100,0,1
286325,-81.525899464149,4,1,0,100,0,1
286410,-83.3333333333333,4,1,0,100,0,1
286498,-62.5,4,1,0,100,0,1
286580,-63.5567933160931,4,1,0,100,0,1
286665,-64.6499392958316,4,1,0,100,0,1
286750,-65.7813465101915,4,1,0,100,0,1
286836,-66.9670928526514,4,1,0,100,0,1
286921,-68.1818181818182,4,1,0,100,0,1
287006,-69.441425777005,4,1,0,100,0,1
287091,-70.748449955713,4,1,0,100,0,1
287176,-72.1056194989844,4,1,0,100,0,1
287262,-73.5327963176064,4,1,0,100,0,1
287347,-75,4,1,0,100,0,1
287432,-76.5269461077844,4,1,0,100,0,1
287517,-78.1173594132029,4,1,0,100,0,1
287603,-79.7952047952048,4,1,0,100,0,1
287688,-81.525899464149,4,1,0,100,0,1
287773,-83.3333333333333,4,1,0,100,0,1
287862,-62.5,4,1,0,100,0,1
287944,-63.5567933160931,4,1,0,100,0,1
288029,-64.6499392958316,4,1,0,100,0,1
288114,-65.7813465101915,4,1,0,100,0,1
288200,-66.9670928526514,4,1,0,100,0,1
288285,-68.1818181818182,4,1,0,100,0,1
288370,-69.441425777005,4,1,0,100,0,1
288455,-70.748449955713,4,1,0,100,0,1
288540,-72.1056194989844,4,1,0,100,0,1
288626,-73.5327963176064,4,1,0,100,0,1
288711,-75,4,1,0,100,0,1
288796,-76.5269461077844,4,1,0,100,0,1
288881,-78.1173594132029,4,1,0,100,0,1
288967,-79.7952047952048,4,1,0,100,0,1
289052,-81.525899464149,4,1,0,100,0,1
289137,-83.3333333333333,4,1,0,100,0,1
289225,-62.5,4,1,0,100,0,1
289393,-64.6499392958316,4,1,0,100,0,1
289478,-65.7813465101915,4,1,0,100,0,1
289564,-66.9670928526514,4,1,0,100,0,1
289649,-68.1818181818182,4,1,0,100,0,1
289734,-69.441425777005,4,1,0,100,0,1
289819,-70.748449955713,4,1,0,100,0,1
289904,-72.1056194989844,4,1,0,100,0,1
289990,-73.5327963176064,4,1,0,100,0,1
290075,-75,4,1,0,100,0,1
290160,-76.5269461077844,4,1,0,100,0,1
290245,-78.1173594132029,4,1,0,100,0,1
290331,-79.7952047952048,4,1,0,100,0,1
290416,-81.525899464149,4,1,0,100,0,1
290501,-83.3333333333333,4,1,0,100,0,1
290589,-62.5,4,1,0,100,0,1
290671,-63.5567933160931,4,1,0,100,0,1
290756,-64.6499392958316,4,1,0,100,0,1
290841,-65.7813465101915,4,1,0,100,0,1
290927,-66.9670928526514,4,1,0,100,0,1
291012,-68.1818181818182,4,1,0,100,0,1
291097,-69.441425777005,4,1,0,100,0,1
291182,-70.748449955713,4,1,0,100,0,1
291267,-72.1056194989844,4,1,0,100,0,1
291353,-73.5327963176064,4,1,0,100,0,1
291438,-75,4,1,0,100,0,1
291523,-76.5269461077844,4,1,0,100,0,1
291608,-78.1173594132029,4,1,0,100,0,1
291694,-79.7952047952048,4,1,0,100,0,1
291779,-81.525899464149,4,1,0,100,0,1
291864,-83.3333333333333,4,1,0,100,0,1
291953,-62.5,4,1,0,100,0,1
292035,-63.5567933160931,4,1,0,100,0,1
292120,-64.6499392958316,4,1,0,100,0,1
292205,-65.7813465101915,4,1,0,100,0,1
292291,-66.9670928526514,4,1,0,100,0,1
292376,-68.1818181818182,4,1,0,100,0,1
292461,-69.441425777005,4,1,0,100,0,1
292546,-70.748449955713,4,1,0,100,0,1
292631,-72.1056194989844,4,1,0,100,0,1
292717,-73.5327963176064,4,1,0,100,0,1
292802,-75,4,1,0,100,0,1
292887,-76.5269461077844,4,1,0,100,0,1
292972,-78.1173594132029,4,1,0,100,0,1
293058,-79.7952047952048,4,1,0,100,0,1
293143,-81.525899464149,4,1,0,100,0,1
293228,-83.3333333333333,4,1,0,100,0,1
293316,-62.5,4,1,0,100,0,1
293398,-63.5567933160931,4,1,0,100,0,1
293483,-64.6499392958316,4,1,0,100,0,1
293568,-65.7813465101915,4,1,0,100,0,1
293654,-66.9670928526514,4,1,0,100,0,1
293739,-68.1818181818182,4,1,0,100,0,1
293824,-69.441425777005,4,1,0,100,0,1
293909,-70.748449955713,4,1,0,100,0,1
293994,-72.1056194989844,4,1,0,100,0,1
294080,-73.5327963176064,4,1,0,100,0,1
294165,-75,4,1,0,100,0,1
294250,-76.5269461077844,4,1,0,100,0,1
294335,-78.1173594132029,4,1,0,100,0,1
294421,-79.7952047952048,4,1,0,100,0,1
294506,-81.525899464149,4,1,0,100,0,1
294591,-83.3333333333333,4,1,0,100,0,1
294680,-62.5,4,1,0,100,0,1
294851,-64.5161290322581,4,1,0,100,0,1
294934,-65.6670420197949,4,1,0,100,0,1
295019,-66.8456456818799,4,1,0,100,0,1
295104,-68.0673301388377,4,1,0,100,0,1
295189,-69.33450142361,4,1,0,100,0,1
295275,-70.665518670876,4,1,0,100,0,1
295360,-72.0322454817319,4,1,0,100,0,1
295445,-73.4528820975173,4,1,0,100,0,1
295530,-74.9306823561236,4,1,0,100,0,1
295615,-76.4691673280652,4,1,0,100,0,1
295701,-78.0914120590619,4,1,0,100,0,1
295786,-79.7638758908646,4,1,0,100,0,1
295871,-81.5095450031265,4,1,0,100,0,1
295956,-83.3333333333333,4,1,0,100,0,1
296044,-62.5,4,1,0,100,0,1
296126,-63.5567933160931,4,1,0,100,0,1
296211,-64.6499392958316,4,1,0,100,0,1
296296,-65.7813465101915,4,1,0,100,0,1
296382,-66.9670928526514,4,1,0,100,0,1
296467,-68.1818181818182,4,1,0,100,0,1
296552,-69.441425777005,4,1,0,100,0,1
296637,-70.748449955713,4,1,0,100,0,1
296722,-72.1056194989844,4,1,0,100,0,1
296808,-73.5327963176064,4,1,0,100,0,1
296893,-75,4,1,0,100,0,1
296978,-76.5269461077844,4,1,0,100,0,1
297063,-78.1173594132029,4,1,0,100,0,1
297149,-79.7952047952048,4,1,0,100,0,1
297234,-81.525899464149,4,1,0,100,0,1
297319,-83.3333333333333,4,1,0,100,0,1
297407,-62.5,4,1,0,100,0,1
297489,-63.5567933160931,4,1,0,100,0,1
297574,-64.6499392958316,4,1,0,100,0,1
297659,-65.7813465101915,4,1,0,100,0,1
297745,-66.9670928526514,4,1,0,100,0,1
297830,-68.1818181818182,4,1,0,100,0,1
297915,-69.441425777005,4,1,0,100,0,1
298000,-70.748449955713,4,1,0,100,0,1
298085,-72.1056194989844,4,1,0,100,0,1
298171,-73.5327963176064,4,1,0,100,0,1
298256,-75,4,1,0,100,0,1
298341,-76.5269461077844,4,1,0,100,0,1
298426,-78.1173594132029,4,1,0,100,0,1
298512,-79.7952047952048,4,1,0,100,0,1
298597,-81.525899464149,4,1,0,100,0,1
298682,-83.3333333333333,4,1,0,100,0,1
298771,-62.5,4,1,0,100,0,1
298853,-63.5567933160931,4,1,0,100,0,1
298938,-64.6499392958316,4,1,0,100,0,1
299023,-65.7813465101915,4,1,0,100,0,1
299109,-66.9670928526514,4,1,0,100,0,1
299194,-68.1818181818182,4,1,0,100,0,1
299279,-69.441425777005,4,1,0,100,0,1
299364,-70.748449955713,4,1,0,100,0,1
299449,-72.1056194989844,4,1,0,100,0,1
299535,-73.5327963176064,4,1,0,100,0,1
299620,-75,4,1,0,100,0,1
299705,-76.5269461077844,4,1,0,100,0,1
299790,-78.1173594132029,4,1,0,100,0,1
299876,-79.7952047952048,4,1,0,100,0,1
299961,-81.525899464149,4,1,0,100,0,1
300046,-83.3333333333333,4,1,0,100,0,1
300135,-62.5,4,1,0,100,0,1
300302,-64.6499392958316,4,1,0,100,0,1
300387,-65.7813465101915,4,1,0,100,0,1
300473,-66.9670928526514,4,1,0,100,0,1
300558,-68.1818181818182,4,1,0,100,0,1
300643,-69.441425777005,4,1,0,100,0,1
300728,-70.748449955713,4,1,0,100,0,1
300813,-72.1056194989844,4,1,0,100,0,1
300899,-73.5327963176064,4,1,0,100,0,1
300984,-75,4,1,0,100,0,1
301069,-76.5269461077844,4,1,0,100,0,1
301154,-78.1173594132029,4,1,0,100,0,1
301240,-79.7952047952048,4,1,0,100,0,1
301325,-81.525899464149,4,1,0,100,0,1
301410,-83.3333333333333,4,1,0,100,0,1
301498,-62.5,4,1,0,100,0,1
301580,-63.5567933160931,4,1,0,100,0,1
301665,-64.6499392958316,4,1,0,100,0,1
301750,-65.7813465101915,4,1,0,100,0,1
301836,-66.9670928526514,4,1,0,100,0,1
301921,-68.1818181818182,4,1,0,100,0,1
302006,-69.441425777005,4,1,0,100,0,1
302091,-70.748449955713,4,1,0,100,0,1
302176,-72.1056194989844,4,1,0,100,0,1
302262,-73.5327963176064,4,1,0,100,0,1
302347,-75,4,1,0,100,0,1
302432,-76.5269461077844,4,1,0,100,0,1
302517,-78.1173594132029,4,1,0,100,0,1
302603,-79.7952047952048,4,1,0,100,0,1
302688,-81.525899464149,4,1,0,100,0,1
302773,-83.3333333333333,4,1,0,100,0,1
302862,-62.5,4,1,0,100,0,1
302944,-63.5567933160931,4,1,0,100,0,1
303029,-64.6499392958316,4,1,0,100,0,1
303114,-65.7813465101915,4,1,0,100,0,1
303200,-66.9670928526514,4,1,0,100,0,1
303285,-68.1818181818182,4,1,0,100,0,1
303370,-69.441425777005,4,1,0,100,0,1
303455,-70.748449955713,4,1,0,100,0,1
303540,-72.1056194989844,4,1,0,100,0,1
303626,-73.5327963176064,4,1,0,100,0,1
303711,-75,4,1,0,100,0,1
303796,-76.5269461077844,4,1,0,100,0,1
303881,-78.1173594132029,4,1,0,100,0,1
303967,-79.7952047952048,4,1,0,100,0,1
304052,-81.525899464149,4,1,0,100,0,1
304137,-83.3333333333333,4,1,0,100,0,1
304225,-62.5,4,1,0,100,0,1
304308,-63.5567933160931,4,1,0,100,0,1
304393,-64.6499392958316,4,1,0,100,0,1
304478,-65.7813465101915,4,1,0,100,0,1
304564,-66.9670928526514,4,1,0,100,0,1
304649,-68.1818181818182,4,1,0,100,0,1
304734,-69.441425777005,4,1,0,100,0,1
304819,-70.748449955713,4,1,0,100,0,1
304904,-72.1056194989844,4,1,0,100,0,1
304990,-73.5327963176064,4,1,0,100,0,1
305075,-75,4,1,0,100,0,1
305160,-76.5269461077844,4,1,0,100,0,1
305245,-78.1173594132029,4,1,0,100,0,1
305331,-79.7952047952048,4,1,0,100,0,1
305416,-81.525899464149,4,1,0,100,0,1
305501,-83.3333333333333,4,1,0,100,0,1
305589,-62.5,4,1,0,100,0,1
305756,-64.6499392958316,4,1,0,100,0,1
305841,-65.7813465101915,4,1,0,100,0,1
305927,-66.9670928526514,4,1,0,100,0,1
306012,-68.1818181818182,4,1,0,100,0,1
306097,-69.441425777005,4,1,0,100,0,1
306182,-70.748449955713,4,1,0,100,0,1
306267,-72.1056194989844,4,1,0,100,0,1
306353,-73.5327963176064,4,1,0,100,0,1
306438,-75,4,1,0,100,0,1
306523,-76.5269461077844,4,1,0,100,0,1
306608,-78.1173594132029,4,1,0,100,0,1
306694,-79.7952047952048,4,1,0,100,0,1
306779,-81.525899464149,4,1,0,100,0,1
306864,-83.3333333333333,4,1,0,100,0,1
306953,-62.5,4,1,0,100,0,1
307035,-63.5567933160931,4,1,0,100,0,1
307120,-64.6499392958316,4,1,0,100,0,1
307205,-65.7813465101915,4,1,0,100,0,1
307291,-66.9670928526514,4,1,0,100,0,1
307376,-68.1818181818182,4,1,0,100,0,1
307461,-69.441425777005,4,1,0,100,0,1
307546,-70.748449955713,4,1,0,100,0,1
307631,-72.1056194989844,4,1,0,100,0,1
307717,-73.5327963176064,4,1,0,100,0,1
307802,-75,4,1,0,100,0,1
307887,-76.5269461077844,4,1,0,100,0,1
307972,-78.1173594132029,4,1,0,100,0,1
308058,-79.7952047952048,4,1,0,100,0,1
308143,-81.525899464149,4,1,0,100,0,1
308228,-83.3333333333333,4,1,0,100,0,1
308316,-62.5,4,1,0,100,0,1
308398,-63.5567933160931,4,1,0,100,0,1
308483,-64.6499392958316,4,1,0,100,0,1
308568,-65.7813465101915,4,1,0,100,0,1
308654,-66.9670928526514,4,1,0,100,0,1
308739,-68.1818181818182,4,1,0,100,0,1
308824,-69.441425777005,4,1,0,100,0,1
308909,-70.748449955713,4,1,0,100,0,1
308994,-72.1056194989844,4,1,0,100,0,1
309080,-73.5327963176064,4,1,0,100,0,1
309165,-75,4,1,0,100,0,1
309250,-76.5269461077844,4,1,0,100,0,1
309335,-78.1173594132029,4,1,0,100,0,1
309421,-79.7952047952048,4,1,0,100,0,1
309506,-81.525899464149,4,1,0,100,0,1
309591,-83.3333333333333,4,1,0,100,0,1
309680,-62.5,4,1,0,100,0,1
309762,-63.5567933160931,4,1,0,100,0,1
309847,-64.6499392958316,4,1,0,100,0,1
309932,-65.7813465101915,4,1,0,100,0,1
310018,-66.9670928526514,4,1,0,100,0,1
310103,-68.1818181818182,4,1,0,100,0,1
310188,-69.441425777005,4,1,0,100,0,1
310273,-70.748449955713,4,1,0,100,0,1
310358,-72.1056194989844,4,1,0,100,0,1
310444,-73.5327963176064,4,1,0,100,0,1
310529,-75,4,1,0,100,0,1
310614,-76.5269461077844,4,1,0,100,0,1
310699,-78.1173594132029,4,1,0,100,0,1
310785,-79.7952047952048,4,1,0,100,0,1
310870,-81.525899464149,4,1,0,100,0,1
310955,-83.3333333333333,4,1,0,100,0,1
311044,-62.5,4,1,0,100,0,1
311211,-64.6499392958316,4,1,0,100,0,1
311296,-65.7813465101915,4,1,0,100,0,1
311382,-66.9670928526514,4,1,0,100,0,1
311467,-68.1818181818182,4,1,0,100,0,1
311552,-69.441425777005,4,1,0,100,0,1
311637,-70.748449955713,4,1,0,100,0,1
311722,-72.1056194989844,4,1,0,100,0,1
311808,-73.5327963176064,4,1,0,100,0,1
311893,-75,4,1,0,100,0,1
311978,-76.5269461077844,4,1,0,100,0,1
312063,-78.1173594132029,4,1,0,100,0,1
312149,-79.7952047952048,4,1,0,100,0,1
312234,-81.525899464149,4,1,0,100,0,1
312319,-83.3333333333333,4,1,0,100,0,1
312407,-62.5,4,1,0,100,0,1
312489,-63.5567933160931,4,1,0,100,0,1
312574,-64.6499392958316,4,1,0,100,0,1
312659,-65.7813465101915,4,1,0,100,0,1
312745,-66.9670928526514,4,1,0,100,0,1
312830,-68.1818181818182,4,1,0,100,0,1
312915,-69.441425777005,4,1,0,100,0,1
313000,-70.748449955713,4,1,0,100,0,1
313085,-72.1056194989844,4,1,0,100,0,1
313171,-73.5327963176064,4,1,0,100,0,1
313256,-75,4,1,0,100,0,1
313341,-76.5269461077844,4,1,0,100,0,1
313426,-78.1173594132029,4,1,0,100,0,1
313512,-79.7952047952048,4,1,0,100,0,1
313597,-81.525899464149,4,1,0,100,0,1
313682,-83.3333333333333,4,1,0,100,0,1
313771,-62.5,4,1,0,100,0,1
313853,-63.5567933160931,4,1,0,100,0,1
313938,-64.6499392958316,4,1,0,100,0,1
314023,-65.7813465101915,4,1,0,100,0,1
314109,-66.9670928526514,4,1,0,100,0,1
314194,-68.1818181818182,4,1,0,100,0,1
314279,-69.441425777005,4,1,0,100,0,1
314364,-70.748449955713,4,1,0,100,0,1
314449,-72.1056194989844,4,1,0,100,0,1
314535,-73.5327963176064,4,1,0,100,0,1
314620,-75,4,1,0,100,0,1
314705,-76.5269461077844,4,1,0,100,0,1
314790,-78.1173594132029,4,1,0,100,0,1
314876,-79.7952047952048,4,1,0,100,0,1
314961,-81.525899464149,4,1,0,100,0,1
315046,-83.3333333333333,4,1,0,100,0,1
315135,-62.5,4,1,0,100,0,1
315217,-63.5567933160931,4,1,0,100,0,1
315302,-64.6499392958316,4,1,0,100,0,1
315387,-65.7813465101915,4,1,0,100,0,1
315473,-66.9670928526514,4,1,0,100,0,1
315558,-68.1818181818182,4,1,0,100,0,1
315643,-69.441425777005,4,1,0,100,0,1
315728,-70.748449955713,4,1,0,100,0,1
315813,-72.1056194989844,4,1,0,100,0,1
315899,-73.5327963176064,4,1,0,100,0,1
315984,-75,4,1,0,100,0,1
316069,-76.5269461077844,4,1,0,100,0,1
316154,-78.1173594132029,4,1,0,100,0,1
316240,-79.7952047952048,4,1,0,100,0,1
316325,-81.525899464149,4,1,0,100,0,1
316410,-83.3333333333333,4,1,0,100,0,1
316498,-62.5,4,1,0,100,0,1
316665,-64.6499392958316,4,1,0,100,0,1
316750,-65.7813465101915,4,1,0,100,0,1
316836,-66.9670928526514,4,1,0,100,0,1
316921,-68.1818181818182,4,1,0,100,0,1
317006,-69.441425777005,4,1,0,100,0,1
317091,-70.748449955713,4,1,0,100,0,1
317176,-72.1056194989844,4,1,0,100,0,1
317262,-73.5327963176064,4,1,0,100,0,1
317347,-75,4,1,0,100,0,1
317432,-76.5269461077844,4,1,0,100,0,1
317517,-78.1173594132029,4,1,0,100,0,1
317603,-79.7952047952048,4,1,0,100,0,1
317688,-81.525899464149,4,1,0,100,0,1
317773,-83.3333333333333,4,1,0,100,0,1
317862,-62.5,4,1,0,100,0,1
317944,-63.5567933160931,4,1,0,100,0,1
318029,-64.6499392958316,4,1,0,100,0,1
318114,-65.7813465101915,4,1,0,100,0,1
318200,-66.9670928526514,4,1,0,100,0,1
318285,-68.1818181818182,4,1,0,100,0,1
318370,-69.441425777005,4,1,0,100,0,1
318455,-70.748449955713,4,1,0,100,0,1
318540,-72.1056194989844,4,1,0,100,0,1
318626,-73.5327963176064,4,1,0,100,0,1
318711,-75,4,1,0,100,0,1
318796,-76.5269461077844,4,1,0,100,0,1
318881,-78.1173594132029,4,1,0,100,0,1
318967,-79.7952047952048,4,1,0,100,0,1
319052,-81.525899464149,4,1,0,100,0,1
319137,-83.3333333333333,4,1,0,100,0,1
319225,-62.5,4,1,0,100,0,1
319308,-63.5567933160931,4,1,0,100,0,1
319393,-64.6499392958316,4,1,0,100,0,1
319478,-65.7813465101915,4,1,0,100,0,1
319564,-66.9670928526514,4,1,0,100,0,1
319649,-68.1818181818182,4,1,0,100,0,1
319734,-69.441425777005,4,1,0,100,0,1
319819,-70.748449955713,4,1,0,100,0,1
319904,-72.1056194989844,4,1,0,100,0,1
319990,-73.5327963176064,4,1,0,100,0,1
320075,-75,4,1,0,100,0,1
320160,-76.5269461077844,4,1,0,100,0,1
320245,-78.1173594132029,4,1,0,100,0,1
320331,-79.7952047952048,4,1,0,100,0,1
320416,-81.525899464149,4,1,0,100,0,1
320501,-83.3333333333333,4,1,0,100,0,1
320589,-62.5,4,1,0,100,0,1
320671,-63.5567933160931,4,1,0,100,0,1
320756,-64.6499392958316,4,1,0,100,0,1
320841,-65.7813465101915,4,1,0,100,0,1
320927,-66.9670928526514,4,1,0,100,0,1
321012,-68.1818181818182,4,1,0,100,0,1
321097,-69.441425777005,4,1,0,100,0,1
321182,-70.748449955713,4,1,0,100,0,1
321267,-72.1056194989844,4,1,0,100,0,1
321353,-73.5327963176064,4,1,0,100,0,1
321438,-75,4,1,0,100,0,1
321523,-76.5269461077844,4,1,0,100,0,1
321608,-78.1173594132029,4,1,0,100,0,1
321694,-79.7952047952048,4,1,0,100,0,1
321779,-81.525899464149,4,1,0,100,0,1
321864,-83.3333333333333,4,1,0,100,0,1
321953,-62.5,4,1,0,100,0,1
322120,-64.6499392958316,4,1,0,100,0,1
322205,-65.7813465101915,4,1,0,100,0,1
322291,-66.9670928526514,4,1,0,100,0,1
322376,-68.1818181818182,4,1,0,100,0,1
322461,-69.441425777005,4,1,0,100,0,1
322546,-70.748449955713,4,1,0,100,0,1
322631,-72.1056194989844,4,1,0,100,0,1
322717,-73.5327963176064,4,1,0,100,0,1
322802,-75,4,1,0,100,0,1
322887,-76.5269461077844,4,1,0,100,0,1
322972,-78.1173594132029,4,1,0,100,0,1
323058,-79.7952047952048,4,1,0,100,0,1
323143,-81.525899464149,4,1,0,100,0,1
323228,-83.3333333333333,4,1,0,100,0,1
323316,-62.5,4,1,0,100,0,1
323398,-63.5567933160931,4,1,0,100,0,1
323483,-64.6499392958316,4,1,0,100,0,1
323568,-65.7813465101915,4,1,0,100,0,1
323654,-66.9670928526514,4,1,0,100,0,1
323739,-68.1818181818182,4,1,0,100,0,1
323824,-69.441425777005,4,1,0,100,0,1
323909,-70.748449955713,4,1,0,100,0,1
323994,-72.1056194989844,4,1,0,100,0,1
324080,-73.5327963176064,4,1,0,100,0,1
324165,-75,4,1,0,100,0,1
324250,-76.5269461077844,4,1,0,100,0,1
324335,-78.1173594132029,4,1,0,100,0,1
324421,-79.7952047952048,4,1,0,100,0,1
324506,-81.525899464149,4,1,0,100,0,1
324591,-83.3333333333333,4,1,0,100,0,1
324680,-64.5161290322581,4,1,0,100,0,1
324765,-65.0406504065041,4,1,0,100,0,1
324851,-65.5737704918033,4,1,0,100,0,1
324936,-66.1157024793388,4,1,0,100,0,1
325018,-67.1140939597315,4,1,0,99,0,1
325103,-68.0851063829787,4,1,0,98,0,1
325188,-69.0846286701209,4,1,0,97,0,1
325274,-70.1262272089762,4,1,0,96,0,1
325359,-71.1870439579996,4,1,0,95,0,1
325444,-72.2804481387785,4,1,0,94,0,1
325529,-73.4079647641769,4,1,0,93,0,1
325615,-74.5851202685064,4,1,0,92,0,1
325700,-75.7862826828344,4,1,0,91,0,1
325785,-77.0267668014635,4,1,0,90,0,1
325870,-78.3085356303837,4,1,0,89,0,1
325955,-79.6336850487756,4,1,0,88,0,1
326041,-81.0208628721896,4,1,0,87,0,1
326126,-82.4402308326463,4,1,0,86,0,1
326211,-83.9102160688064,4,1,0,85,0,1
326296,-85.4335753951303,4,1,0,84,0,1
326382,-87.0322019147084,4,1,0,83,0,1
326467,-88.6721347816449,4,1,0,82,0,1
326552,-90.3750564844103,4,1,0,81,0,1
326637,-92.14466712739,4,1,0,80,0,1
326723,-94.0070505287897,4,1,0,79,0,1
326808,-95.9232613908873,4,1,0,78,0,1
326893,-97.9192166462668,4,1,0,77,0,1
326981,-100,4,1,0,76,0,0
327066,-66.6666666666667,4,1,0,75,0,0
327407,-66.6666666666667,4,1,0,100,0,1
327578,-83.3333333333333,4,1,0,100,0,1
327663,-80,4,1,0,100,0,1
327745,-74.0740740740741,4,1,0,100,0,1
327788,-74.671669793621,4,1,0,100,0,1
327830,-75.2647503782148,4,1,0,100,0,1
327916,-76.5090349865436,4,1,0,100,0,1
328001,-77.7799491889779,4,1,0,100,0,1
328086,-79.093799682035,4,1,0,100,0,1
328171,-80.4527996765717,4,1,0,100,0,1
328257,-81.8761571693067,4,1,0,100,0,1
328342,-83.3333333333333,4,1,0,100,0,1
328427,-74.0740740740741,4,1,0,100,0,1
328470,-75.1266798854373,4,1,0,100,0,1
328512,-76.1840929401251,4,1,0,100,0,1
328598,-78.444904531861,4,1,0,100,0,1
328683,-80.8152624718569,4,1,0,100,0,1
328768,-83.3333333333333,4,1,0,100,0,1
328941,-80,4,1,0,100,0,1
329027,-76.9230769230769,4,1,0,100,0,1
329109,-74.0740740740741,4,1,0,100,0,1
329151,-74.6586496304647,4,1,0,100,0,1
329194,-75.2667803245564,4,1,0,100,0,1
329279,-76.498523937877,4,1,0,100,0,1
329336,-77.3473492959574,4,1,0,100,0,1
329393,-78.2152230971129,4,1,0,100,0,1
329450,-79.1027938151171,4,1,0,100,0,1
329535,-80.4644255434049,4,1,0,100,0,1
329620,-81.8737550655952,4,1,0,100,0,1
329705,-83.3333333333333,4,1,0,100,0,1
329791,-74.0740740740741,4,1,0,100,0,1
329833,-76.1648745519713,4,1,0,100,0,1
329876,-78.4313725490196,4,1,0,100,0,1
329961,-83.3333333333333,4,1,0,100,0,1
330135,-66.6666666666667,4,1,0,100,0,1
330473,-74.0740740740741,4,1,0,100,0,1
330515,-74.6586496304647,4,1,0,100,0,1
330558,-75.2667803245564,4,1,0,100,0,1
330643,-76.498523937877,4,1,0,100,0,1
330728,-77.7712533437724,4,1,0,100,0,1
330813,-79.0870488322718,4,1,0,100,0,1
330899,-80.4644255434049,4,1,0,100,0,1
330984,-81.8737550655952,4,1,0,100,0,1
331069,-83.3333333333333,4,1,0,100,0,1
331154,-74.0740740740741,4,1,0,100,0,1
331197,-74.7718145308507,4,1,0,100,0,1
331240,-75.4828247088309,4,1,0,100,0,1
331325,-76.9288558335211,4,1,0,100,0,1
331410,-78.4313725490196,4,1,0,100,0,1
331495,-79.9937504882431,4,1,0,100,0,1
331580,-81.619639725809,4,1,0,100,0,1
331666,-83.3333333333333,4,1,0,100,0,1
331836,-74.0740740740741,4,1,0,100,0,1
331879,-74.671669793621,4,1,0,100,0,1
331921,-75.2647503782148,4,1,0,100,0,1
332007,-76.5090349865436,4,1,0,100,0,1
332092,-77.7799491889779,4,1,0,100,0,1
332177,-79.093799682035,4,1,0,100,0,1
332262,-80.4527996765717,4,1,0,100,0,1
332348,-81.8761571693067,4,1,0,100,0,1
332433,-83.3333333333333,4,1,0,100,0,1
332518,-74.0740740740741,4,1,0,100,0,1
332561,-76.2160950459538,4,1,0,100,0,1
332603,-78.4313725490196,4,1,0,100,0,1
332688,-83.3333333333333,4,1,0,100,0,1
332859,-74.0740740740741,4,1,0,100,0,1
332916,-74.5781598217128,4,1,0,100,0,1
332973,-75.0891533437512,4,1,0,100,0,1
333029,-75.5980475210779,4,1,0,100,0,1
333086,-76.1231619140466,4,1,0,100,0,1
333143,-76.6556223667526,4,1,0,100,0,1
333200,-77.1955841159993,4,1,0,100,0,1
333242,-77.5983436853002,4,1,0,100,0,1
333285,-78.0150701469548,4,1,0,100,0,1
333370,-78.8521417150551,4,1,0,100,0,1
333455,-79.7073710178214,4,1,0,100,0,1
333541,-80.5917516019438,4,1,0,100,0,1
333626,-81.4853465518741,4,1,0,100,0,1
333711,-82.3989799059051,4,1,0,100,0,1
333796,-83.3333333333333,4,1,0,100,0,1
333882,-74.0740740740741,4,1,0,100,0,1
333924,-75.1018610285211,4,1,0,100,0,1
333967,-76.1840929401251,4,1,0,100,0,1
334052,-78.4178452339887,4,1,0,100,0,1
334137,-80.7865434731106,4,1,0,100,0,1
334223,-83.3333333333333,4,1,0,100,0,1
334396,-90.9090909090909,4,1,0,100,0,1
334563,-74.0740740740741,4,1,0,100,0,1
334606,-74.671669793621,4,1,0,100,0,1
334649,-75.2789861925477,4,1,0,100,0,1
334734,-76.5090349865436,4,1,0,100,0,1
334791,-77.3566569484937,4,1,0,100,0,1
334848,-78.2232704402516,4,1,0,100,0,1
334904,-79.093799682035,4,1,0,100,0,1
334990,-80.4690659118479,4,1,0,100,0,1
335075,-81.8761571693067,4,1,0,100,0,1
335160,-83.3333333333333,4,1,0,100,0,1
335245,-74.0740740740741,4,1,0,100,0,1
335288,-75.1266798854373,4,1,0,100,0,1
335330,-76.1840929401251,4,1,0,100,0,1
335416,-78.444904531861,4,1,0,100,0,1
335501,-80.8152624718569,4,1,0,100,0,1
335586,-83.3333333333333,4,1,0,100,0,1
335760,-90.9090909090909,4,1,0,100,0,1
335927,-74.0740740740741,4,1,0,100,0,1
335970,-74.671669793621,4,1,0,100,0,1
336012,-75.2647503782148,4,1,0,100,0,1
336098,-76.5090349865436,4,1,0,100,0,1
336154,-77.3416245627672,4,1,0,100,0,1
336211,-78.207899390843,4,1,0,100,0,1
336268,-79.093799682035,4,1,0,100,0,1
336353,-80.4527996765717,4,1,0,100,0,1
336438,-81.8593171534348,4,1,0,100,0,1
336524,-83.3333333333333,4,1,0,100,0,1
336609,-74.0740740740741,4,1,0,100,0,1
336651,-75.1018610285211,4,1,0,100,0,1
336694,-76.1840929401251,4,1,0,100,0,1
336779,-78.4178452339887,4,1,0,100,0,1
336836,-79.9906169364297,4,1,0,100,0,1
336893,-81.6277678037104,4,1,0,100,0,1
336950,-83.3333333333333,4,1,0,100,0,1
337123,-80,4,1,0,100,0,1
337208,-76.9230769230769,4,1,0,100,0,1
337291,-74.0740740740741,4,1,0,100,0,1
337333,-74.6586496304647,4,1,0,100,0,1
337376,-75.2667803245564,4,1,0,100,0,1
337461,-76.498523937877,4,1,0,100,0,1
337546,-77.7712533437724,4,1,0,100,0,1
337632,-79.1027938151171,4,1,0,100,0,1
337717,-80.4644255434049,4,1,0,100,0,1
337802,-81.8737550655952,4,1,0,100,0,1
337887,-83.3333333333333,4,1,0,100,0,1
337973,-74.0740740740741,4,1,0,100,0,1
338015,-75.1049259995582,4,1,0,100,0,1
338058,-76.1904761904762,4,1,0,100,0,1
338143,-78.4313725490196,4,1,0,100,0,1
338228,-80.8080808080808,4,1,0,100,0,1
338313,-66.6666666666667,4,1,0,100,0,1
338487,-80,4,1,0,100,0,1
338572,-76.9230769230769,4,1,0,100,0,1
338654,-74.0740740740741,4,1,0,100,0,1
338697,-74.671669793621,4,1,0,100,0,1
338740,-75.2789861925477,4,1,0,100,0,1
338825,-76.5090349865436,4,1,0,100,0,1
338910,-77.7799491889779,4,1,0,100,0,1
338995,-79.093799682035,4,1,0,100,0,1
339080,-80.4527996765717,4,1,0,100,0,1
339166,-81.8761571693067,4,1,0,100,0,1
339251,-83.3333333333333,4,1,0,100,0,1
339336,-74.0740740740741,4,1,0,100,0,1
339379,-75.1266798854373,4,1,0,100,0,1
339421,-76.1840929401251,4,1,0,100,0,1
339507,-78.444904531861,4,1,0,100,0,1
339592,-80.8152624718569,4,1,0,100,0,1
339677,-83.3333333333333,4,1,0,100,0,1
339851,-80,4,1,0,100,0,1
339936,-76.9230769230769,4,1,0,100,0,1
340019,-74.0740740740741,4,1,0,100,0,1
340061,-74.6586496304647,4,1,0,100,0,1
340103,-75.2525252525252,4,1,0,100,0,1
340188,-76.483798524222,4,1,0,100,0,1
340245,-77.3322953159465,4,1,0,100,0,1
340302,-78.1998294299022,4,1,0,100,0,1
340359,-79.0870488322718,4,1,0,100,0,1
340444,-80.4481339002497,4,1,0,100,0,1
340529,-81.8568877901387,4,1,0,100,0,1
340615,-83.3333333333333,4,1,0,100,0,1
340700,-74.0740740740741,4,1,0,100,0,1
340742,-75.1018610285211,4,1,0,100,0,1
340785,-76.1840929401251,4,1,0,100,0,1
340870,-78.4178452339887,4,1,0,100,0,1
340955,-80.7865434731106,4,1,0,100,0,1
341041,-83.3333333333333,4,1,0,100,0,1
341214,-80,4,1,0,100,0,1
341299,-76.9230769230769,4,1,0,100,0,1
341382,-74.0740740740741,4,1,0,100,0,1
341424,-74.6586496304647,4,1,0,100,0,1
341467,-75.2667803245564,4,1,0,100,0,1
341552,-76.498523937877,4,1,0,100,0,1
341637,-77.7712533437724,4,1,0,100,0,1
341723,-79.1027938151171,4,1,0,100,0,1
341808,-80.4644255434049,4,1,0,100,0,1
341893,-81.8737550655952,4,1,0,100,0,1
341978,-83.3333333333333,4,1,0,100,0,1
342063,-74.0740740740741,4,1,0,100,0,1
342106,-76.2032085561497,4,1,0,100,0,1
342149,-78.4583620096352,4,1,0,100,0,1
342234,-83.3333333333333,4,1,0,100,0,1
342407,-80,4,1,0,100,0,1
342493,-76.9230769230769,4,1,0,100,0,1
342575,-74.0740740740741,4,1,0,100,0,1
342632,-74.6908170221054,4,1,0,100,0,1
342688,-75.306823760432,4,1,0,100,0,1
342745,-75.9443536808753,4,1,0,100,0,1
342830,-76.915363016446,4,1,0,100,0,1
342916,-77.9233973382099,4,1,0,100,0,1
343001,-78.9460141011785,4,1,0,100,0,1
343086,-79.9958281184814,4,1,0,100,0,1
343171,-81.0739390095661,4,1,0,100,0,1
343257,-82.1947168193752,4,1,0,100,0,1
343342,-83.3333333333333,4,1,0,100,0,1
343428,-74.0740740740741,4,1,0,100,0,1
343470,-75.1049259995582,4,1,0,100,0,1
343513,-76.1904761904762,4,1,0,100,0,1
343598,-78.4313725490196,4,1,0,100,0,1
343683,-80.8080808080808,4,1,0,100,0,1
343768,-83.3333333333333,4,1,0,100,0,1
343941,-81.6326530612245,4,1,0,100,0,1
344027,-80,4,1,0,100,0,1
344109,-76.9230769230769,4,1,0,100,0,1
344151,-77.9062690200852,4,1,0,100,0,1
344194,-78.9392537773666,4,1,0,100,0,1
344279,-81.0639645345155,4,1,0,100,0,1
344365,-83.3333333333333,4,1,0,100,0,1
344538,-81.6326530612245,4,1,0,100,0,1
344623,-80,4,1,0,100,0,1
344708,-78.4313725490196,4,1,0,100,0,1
344791,-76.9230769230769,4,1,0,100,0,1
344833,-78.4132841328413,4,1,0,100,0,1
344876,-80,4,1,0,100,0,1
344961,-83.3333333333333,4,1,0,100,0,1
345135,-81.6326530612245,4,1,0,100,0,1
345220,-80,4,1,0,100,0,1
345305,-78.4313725490196,4,1,0,100,0,1
345473,-76.9230769230769,4,1,0,100,0,1
345515,-77.4125132555673,4,1,0,100,0,1
345558,-77.9200975907289,4,1,0,100,0,1
345643,-78.9433029507184,4,1,0,100,0,1
345728,-79.9937382592361,4,1,0,100,0,1
345813,-81.0725051562748,4,1,0,100,0,1
345899,-82.1939842367701,4,1,0,100,0,1
345984,-83.3333333333333,4,1,0,100,0,1
346154,-76.9230769230769,4,1,0,100,0,1
346197,-77.6765375854214,4,1,0,100,0,1
346240,-78.444904531861,4,1,0,100,0,1
346325,-80.0093852651337,4,1,0,100,0,1
346410,-81.6375389035193,4,1,0,100,0,1
346495,-83.3333333333333,4,1,0,100,0,1
346754,-80,4,1,0,100,0,1
346836,-76.9230769230769,4,1,0,100,0,1
346879,-77.9299847792998,4,1,0,100,0,1
346921,-78.9392537773666,4,1,0,100,0,1
347007,-81.0896420652518,4,1,0,100,0,1
347092,-83.3333333333333,4,1,0,100,0,1
347265,-81.6326530612245,4,1,0,100,0,1
347350,-80,4,1,0,100,0,1
347435,-78.4313725490196,4,1,0,100,0,1
347518,-76.9230769230769,4,1,0,100,0,1
347561,-78.4494693124135,4,1,0,100,0,1
347603,-80,4,1,0,100,0,1
347688,-83.3333333333333,4,1,0,100,0,1
348455,-76.9230769230769,4,1,0,100,0,1
348541,-78.9636027143738,4,1,0,100,0,1
348626,-81.0896420652518,4,1,0,100,0,1
348711,-83.3333333333333,4,1,0,100,0,1
348796,-85.7047204553063,4,1,0,100,0,1
348882,-88.245432609445,4,1,0,100,0,1
348967,-90.9090909090909,4,1,0,100,0,1
349052,-93.7385573050165,4,1,0,100,0,1
349137,-96.7498110355253,4,1,0,100,0,1
349183,-100,4,1,0,100,0,1
349226,-100,4,1,0,100,0,0
349563,-101.010101010101,4,1,0,75,0,0
349734,-101.329918637864,4,1,0,75,0,0
350075,-101.973768086663,4,1,0,75,0,0
350416,-102.625851884386,4,1,0,75,0,0
350757,-103.28632901434,4,1,0,75,0,0
350842,-103.452289869376,4,1,0,75,0,0
350927,-103.618784915784,4,1,0,75,0,0
351098,-103.955362579069,4,1,0,75,0,0
351183,-104.123482158414,4,1,0,75,0,0
351268,-104.292146394158,4,1,0,75,0,0
351438,-104.631119456377,4,1,0,75,0,0
351609,-104.974316728048,4,1,0,75,0,0
351779,-105.317746009817,4,1,0,75,0,0
351950,-105.665469910543,4,1,0,75,0,0
352120,-106.013443866809,4,1,0,75,0,0
352205,-106.188291714495,4,1,0,75,0,0
352291,-106.365784547398,4,1,0,75,0,0
352461,-106.718393989778,4,1,0,75,0,0
352632,-107.075444010911,4,1,0,75,0,0
352802,-107.432782186698,4,1,0,75,0,0
352973,-107.794636600001,4,1,0,75,0,0
353058,-107.975414253627,4,1,0,75,0,0
353143,-108.156799274378,4,1,0,75,0,0
353313,-108.521403702127,4,1,0,75,0,0
353484,-108.890641248378,4,1,0,75,0,0
353569,-109.075116858704,4,1,0,75,0,0
353654,-109.260218583484,4,1,0,75,0,0
353825,-109.634509459904,4,1,0,75,0,0
353995,-110.009162140259,4,1,0,75,0,0
354166,-110.388610799994,4,1,0,75,0,0
354251,-110.578201269767,4,1,0,75,0,0
354336,-110.768444096451,4,1,0,75,0,0
354507,-111.153157891361,4,1,0,75,0,0
354678,-111.540553326103,4,1,0,75,0,0
354848,-111.928369288268,4,1,0,75,0,0
355018,-112.318891458558,4,1,0,75,0,0
355188,-112.712148262327,4,1,0,75,0,0
355359,-113.110506288631,4,1,0,75,0,0
355529,-113.509335755332,4,1,0,75,0,0
355700,-113.913358800787,4,1,0,75,0,0
355785,-114.115261023021,4,1,0,75,0,0
355870,-114.317880226789,4,1,0,75,0,0
356041,-114.727689999117,4,1,0,75,0,0
356211,-115.138026110354,4,1,0,75,0,0
356382,-115.553747828783,4,1,0,75,0,0
356552,-115.970024904892,4,1,0,75,0,0
356637,-116.179290186772,4,1,0,75,0,0
356723,-116.391787427717,4,1,0,75,0,0
356893,-116.814135431599,4,1,0,75,0,0
357063,-117.239559725877,4,1,0,75,0,0
357234,-117.670624102447,4,1,0,75,0,0
357319,-117.886077470585,4,1,0,75,0,0
357404,-118.102321270571,4,1,0,75,0,0
357575,-118.539765200519,4,1,0,75,0,0
357660,-118.758416051917,4,1,0,75,0,0
357745,-118.977875012587,4,1,0,75,0,0
357916,-119.421841172856,4,1,0,75,0,0
358086,-119.866507582438,4,1,0,75,0,0
358257,-120.317142936488,4,1,0,75,0,0
358427,-120.768514238327,4,1,0,75,0,0
358512,-120.995472269835,4,1,0,75,0,0
358598,-121.225970198324,4,1,0,75,0,0
358768,-121.684199193219,4,1,0,75,0,0
358938,-122.145905504319,4,1,0,75,0,0
359109,-122.613875956926,4,1,0,75,0,0
359279,-123.082677752552,4,1,0,75,0,0
359450,-123.557867693979,4,1,0,75,0,0
359620,-124.033929804764,4,1,0,75,0,0
359705,-124.273339197613,4,1,0,75,0,0
359791,-124.516507598165,4,1,0,75,0,0
359961,-125,4,1,0,75,0,0
360132,350.877192982456,4,1,0,70,1,0
360132,-121.448864059019,4,1,0,70,0,0
360304,-123.456790123457,4,1,0,70,0,0
360479,-124.088410398982,4,1,0,70,0,0
360655,-124.730192043545,4,1,0,70,0,0
360830,-125.374943305904,4,1,0,70,0,0
361006,-126.030136891831,4,1,0,70,0,0
361181,-126.688432916655,4,1,0,70,0,0
361357,-127.357463304151,4,1,0,70,0,0
361535,361.44578313253,4,1,0,70,1,0
361535,-124.286175920667,4,1,0,70,0,0
361712,-124.964664265467,4,1,0,70,0,0
361803,-125.310504831068,4,1,0,70,0,0
361893,-125.654432912999,4,1,0,70,0,0
362074,-126.351858469592,4,1,0,70,0,0
362257,375,4,1,0,70,1,8
362257,-122.460868747622,4,1,0,70,0,8
362441,-123.171093294573,4,1,0,70,0,8
362629,-123.893468777199,4,1,0,70,0,8
362816,-124.620456869932,4,1,0,70,0,8
363007,384.615384615385,4,1,0,65,1,0
363007,-122.225984307922,4,1,0,65,0,0
363196,-122.971250957174,4,1,0,65,0,0
363292,-123.347302872922,4,1,0,65,0,0
363388,-123.725661812835,4,1,0,65,0,0
363580,-124.4893862089,4,1,0,65,0,0
363776,400,4,1,0,65,1,8
363776,-120.448701897482,4,1,0,65,0,8
363973,-121.233088108593,4,1,0,65,0,8
364173,-122.027757447547,4,1,0,65,0,8
364373,-122.83291346284,4,1,0,65,0,8
364576,410.958904109589,4,1,0,65,1,0
364576,-120.351464707863,4,1,0,65,0,0
364778,-121.176435324124,4,1,0,65,0,0
364881,-121.595216308429,4,1,0,65,0,0
364983,-122.012793817573,4,1,0,65,0,0
365189,-122.864943020154,4,1,0,65,0,0
365397,428.571428571429,4,1,0,65,1,8
365397,-118.640271660022,4,1,0,65,0,8
365608,-119.513449233585,4,1,0,65,0,8
365822,-120.399575060323,4,1,0,65,0,8
366036,-121.29893930395,4,1,0,65,0,8
366254,447.761194029851,4,1,0,65,1,0
366254,-116.978304485735,4,1,0,65,0,0
366474,-117.902998742419,4,1,0,65,0,0
366698,-118.846675001165,4,1,0,65,0,0
366922,-119.805579201769,4,1,0,65,0,0
367149,461.538461538462,4,1,0,65,1,8
367149,-117.174707328333,4,1,0,65,0,8
367376,-118.16158332294,4,1,0,65,0,8
367607,-119.169624850183,4,1,0,65,0,8
367838,-120.195013658697,4,1,0,65,0,8
368072,476.190476190476,4,1,0,65,1,0
368072,-117.507795228512,4,1,0,60,0,0
368307,-118.568046190896,4,1,0,60,0,0
368548,461.538461538462,4,1,0,60,1,8
368548,-123.445940894686,4,1,0,60,0,8
368775,-124.541773621376,4,1,0,60,0,8
369006,-125.662129536062,4,1,0,60,0,8
369237,-126.802825475986,4,1,0,60,0,8
369352,-127.378460668231,4,1,0,60,0,8
369471,465.116279069767,4,1,0,60,1,8
369471,-126.980078728484,4,1,0,60,0,8
369700,-128.159181098998,4,1,0,60,0,8
369936,472.44094488189,4,1,0,60,1,0
369936,-127.359944291256,4,1,0,60,0,0
370169,-128.585978758389,4,1,0,60,0,0
370408,480,4,1,0,60,1,8
370408,-127.791188568538,4,1,0,60,0,8
370645,-129.066996400178,4,1,0,60,0,8
370888,468.75,4,1,0,60,1,8
370888,-133.497380109635,4,1,0,60,0,8
371119,-134.822973882011,4,1,0,60,0,8
371353,-136.175157275335,4,1,0,60,0,8
371588,-137.560694054625,4,1,0,60,0,8
371825,468.75,4,1,0,60,1,0
371825,-138.968636705911,4,1,0,60,0,0
372056,-140.405698159261,4,1,0,60,0,0
372294,468.75,4,1,0,55,1,8
372294,-141.879126620312,4,1,0,55,0,8
372525,-143.377337085608,4,1,0,55,0,8
372759,-144.907526749499,4,1,0,55,0,8
372994,-146.477483282393,4,1,0,55,0,8
373228,-148.074929383191,4,1,0,55,0,8
373462,-149.707602339181,4,1,0,55,0,8
373583,-149.707602339181,4,1,0,40,0,8
374169,468.75,4,1,0,55,1,8
376044,-149.707602339181,4,1,0,10,0,8
377919,-149.707602339181,4,1,0,20,0,8

[HitObjects]
232,187,9360,5,0,0:0:0:0:
232,187,9828,1,0,0:0:0:0:
232,187,10297,1,0,0:0:0:0:
232,187,10766,1,0,0:0:0:0:
232,187,11235,1,8,0:0:0:0:
224,185,11703,1,0,0:0:0:0:
224,185,12172,1,0,0:0:0:0:
224,185,12641,1,0,0:0:0:0:
224,185,13110,1,8,0:0:0:0:
224,185,13578,1,0,0:0:0:0:
224,185,14047,1,0,0:0:0:0:
223,185,14516,1,8,0:0:0:0:
231,182,14867,1,0,0:0:0:0:
231,182,14985,1,8,0:0:0:0:
228,185,15336,1,8,0:0:0:0:
228,185,15453,1,0,0:0:0:0:
231,182,15805,1,8,0:0:0:0:
231,182,15922,1,0,0:0:0:0:
228,185,16274,1,0,0:0:0:0:
228,185,16391,1,8,0:0:0:0:
225,191,16625,1,0,0:0:0:0:
225,191,16742,1,0,0:0:0:0:
225,191,16860,1,8,0:0:0:0:
225,191,17211,1,8,0:0:0:0:
225,191,17328,1,0,0:0:0:0:
225,191,17680,1,8,0:0:0:0:
225,191,17797,1,0,0:0:0:0:
225,191,18148,1,0,0:0:0:0:
225,191,18266,1,0,0:0:0:0:
225,191,18500,1,0,0:0:0:0:
225,191,18617,1,0,0:0:0:0:
225,191,18735,1,8,0:0:0:0:
225,191,19086,1,0,0:0:0:0:
225,191,19203,1,8,0:0:0:0:
225,191,19555,1,0,0:0:0:0:
225,191,19672,1,8,0:0:0:0:
225,191,20024,1,0,0:0:0:0:
225,191,20141,1,0,0:0:0:0:
225,191,20375,1,0,0:0:0:0:
225,191,20492,1,8,0:0:0:0:
225,191,20610,1,0,0:0:0:0:
225,191,20961,1,8,0:0:0:0:
225,191,21078,1,0,0:0:0:0:
225,191,21430,1,0,0:0:0:0:
225,191,21547,1,0,0:0:0:0:
225,191,21899,1,0,0:0:0:0:
225,191,22016,1,8,0:0:0:0:
225,191,22250,1,0,0:0:0:0:
225,191,22367,1,8,0:0:0:0:
225,191,22485,1,8,0:0:0:0:
235,199,22836,1,0,0:0:0:0:
236,199,22953,1,8,0:0:0:0:
225,191,23305,1,0,0:0:0:0:
225,191,23422,1,8,0:0:0:0:
225,187,23774,1,0,0:0:0:0:
225,187,23891,1,8,0:0:0:0:
225,191,24361,1,8,0:0:0:0:
230,191,24711,1,8,0:0:0:0:
230,191,24828,1,0,0:0:0:0:
230,191,25180,1,8,0:0:0:0:
225,191,25297,1,0,0:0:0:0:
230,191,25649,1,8,0:0:0:0:
230,191,25766,1,0,0:0:0:0:
225,191,26236,1,8,0:0:0:0:
221,183,26586,1,0,0:0:0:0:
221,183,26703,1,0,0:0:0:0:
221,183,27055,1,8,0:0:0:0:
221,183,27172,1,8,0:0:0:0:
225,170,27524,1,0,0:0:0:0:
225,170,27641,1,0,0:0:0:0:
223,169,28111,1,8,0:0:0:0:
217,164,28461,1,8,0:0:0:0:
217,164,28578,1,0,0:0:0:0:
217,164,28930,1,0,0:0:0:0:
217,164,29047,1,0,0:0:0:0:
217,164,29399,1,0,0:0:0:0:
217,164,29516,1,8,0:0:0:0:
217,164,29986,1,12,0:0:0:0:
217,164,30922,1,0,0:0:0:0:
217,164,31625,1,0,0:0:0:0:
222,170,31860,1,8,0:0:0:0:
222,170,32328,1,0,0:0:0:0:
222,170,32563,1,8,0:0:0:0:
222,170,32797,1,0,0:0:0:0:
222,170,33031,1,0,0:0:0:0:
222,170,33266,1,8,0:0:0:0:
222,170,33500,1,0,0:0:0:0:
222,170,33735,1,8,0:0:0:0:
222,170,34672,1,8,0:0:0:0:
222,170,35375,1,0,0:0:0:0:
211,165,35610,1,8,0:0:0:0:
211,165,36078,1,8,0:0:0:0:
211,165,36313,1,8,0:0:0:0:
211,165,36547,1,0,0:0:0:0:
211,165,36781,1,8,0:0:0:0:
211,165,37016,1,0,0:0:0:0:
211,165,37250,1,0,0:0:0:0:
211,165,37485,1,8,0:0:0:0:
204,151,38422,1,0,0:0:0:0:
210,142,39125,1,8,0:0:0:0:
209,142,39360,1,0,0:0:0:0:
210,142,39828,1,8,0:0:0:0:
210,142,40063,1,0,0:0:0:0:
209,142,40297,1,8,0:0:0:0:
210,142,40531,1,8,0:0:0:0:
210,142,40766,1,0,0:0:0:0:
210,142,41000,1,0,0:0:0:0:
209,142,41235,1,8,0:0:0:0:
191,139,42172,1,8,0:0:0:0:
191,139,42641,1,0,0:0:0:0:
191,139,42875,1,8,0:0:0:0:
191,139,43110,1,0,0:0:0:0:
191,139,43578,1,0,0:0:0:0:
191,139,43813,1,8,0:0:0:0:
191,139,44047,1,8,0:0:0:0:
191,139,44281,1,0,0:0:0:0:
191,139,44516,1,8,0:0:0:0:
191,139,44750,1,0,0:0:0:0:
191,139,44985,1,8,0:0:0:0:
191,139,45922,1,0,0:0:0:0:
191,139,46625,1,0,0:0:0:0:
191,139,46860,1,8,0:0:0:0:
191,139,47328,1,0,0:0:0:0:
191,139,47563,1,8,0:0:0:0:
191,139,47797,1,0,0:0:0:0:
191,139,48031,1,0,0:0:0:0:
191,139,48266,1,8,0:0:0:0:
191,139,48500,1,0,0:0:0:0:
191,139,48735,1,8,0:0:0:0:
191,139,49672,1,0,0:0:0:0:
191,139,50375,1,8,0:0:0:0:
191,139,50610,1,0,0:0:0:0:
191,139,51078,1,8,0:0:0:0:
191,139,51313,1,8,0:0:0:0:
191,139,51547,1,0,0:0:0:0:
191,139,51781,1,8,0:0:0:0:
191,139,52016,1,0,0:0:0:0:
191,139,52250,1,0,0:0:0:0:
191,139,52485,1,8,0:0:0:0:
191,139,53422,1,0,0:0:0:0:
191,139,54125,1,8,0:0:0:0:
191,139,54360,1,0,0:0:0:0:
191,139,54828,1,0,0:0:0:0:
191,139,55063,1,8,0:0:0:0:
191,139,55297,1,0,0:0:0:0:
191,139,55531,1,0,0:0:0:0:
191,139,55766,1,8,0:0:0:0:
191,139,56000,1,0,0:0:0:0:
191,139,56235,1,8,0:0:0:0:
191,139,57172,1,8,0:0:0:0:
191,139,57641,1,0,0:0:0:0:
191,139,57875,1,8,0:0:0:0:
191,139,58110,1,0,0:0:0:0:
191,139,58578,1,8,0:0:0:0:
191,139,58813,1,8,0:0:0:0:
191,139,59047,1,0,0:0:0:0:
191,139,59281,1,8,0:0:0:0:
191,139,59516,1,0,0:0:0:0:
191,139,59750,1,0,0:0:0:0:
191,139,59986,1,12,0:0:0:0:
202,132,60666,1,8,0:0:0:0:
184,130,61007,1,0,0:0:0:0:
195,132,61348,1,0,0:0:0:0:
202,132,61689,1,8,0:0:0:0:
202,132,62030,1,0,0:0:0:0:
202,132,62371,1,0,0:0:0:0:
202,132,62712,1,8,0:0:0:0:
202,132,63394,1,0,0:0:0:0:
202,132,63735,1,8,0:0:0:0:
202,132,64075,1,8,0:0:0:0:
202,132,64416,1,0,0:0:0:0:
202,132,64757,1,8,0:0:0:0:
202,132,65098,1,0,0:0:0:0:
202,132,65439,1,0,0:0:0:0:
196,133,66121,1,0,0:0:0:0:
196,133,66462,1,8,0:0:0:0:
196,133,66803,1,0,0:0:0:0:
196,133,67144,1,0,0:0:0:0:
196,133,67485,1,8,0:0:0:0:
196,133,67825,1,0,0:0:0:0:
196,133,68166,1,8,0:0:0:0:
196,133,68848,1,8,0:0:0:0:
196,133,69189,1,8,0:0:0:0:
196,133,69530,1,0,0:0:0:0:
196,133,69871,1,0,0:0:0:0:
196,133,70212,1,8,0:0:0:0:
191,134,70553,1,0,0:0:0:0:
191,134,70894,1,8,0:0:0:0:
191,134,71575,1,8,0:0:0:0:
191,134,72087,1,0,0:0:0:0:
182,132,72257,1,8,0:0:0:0:
182,132,72598,1,0,0:0:0:0:
181,132,72939,1,8,0:0:0:0:
182,132,73280,1,0,0:0:0:0:
182,132,73621,1,8,0:0:0:0:
182,132,74303,1,8,0:0:0:0:
182,132,74644,1,0,0:0:0:0:
182,132,74815,1,8,0:0:0:0:
187,129,74985,1,0,0:0:0:0:
187,129,75325,1,0,0:0:0:0:
187,129,75666,1,8,0:0:0:0:
187,129,76007,1,8,0:0:0:0:
187,129,76348,1,0,0:0:0:0:
187,129,77030,1,8,0:0:0:0:
187,129,77542,1,8,0:0:0:0:
187,129,77712,1,0,0:0:0:0:
195,126,78053,1,8,0:0:0:0:
194,126,78394,1,8,0:0:0:0:
194,126,78735,1,0,0:0:0:0:
195,126,79075,1,8,0:0:0:0:
195,126,79757,1,0,0:0:0:0:
195,126,80098,1,8,0:0:0:0:
195,126,80269,1,0,0:0:0:0:
195,126,80439,1,8,0:0:0:0:
198,122,80780,1,0,0:0:0:0:
198,122,81121,1,8,0:0:0:0:
198,122,81462,1,8,0:0:0:0:
198,122,81803,1,0,0:0:0:0:
198,122,81973,1,0,0:0:0:0:
198,122,82314,1,0,0:0:0:0:
198,122,82485,1,8,0:0:0:0:
198,122,82655,1,0,0:0:0:0:
198,122,82825,1,8,0:0:0:0:
198,122,82996,1,0,0:0:0:0:
198,122,83081,1,0,0:0:0:0:
198,122,83166,1,8,0:0:0:0:
198,122,83337,1,0,0:0:0:0:
198,122,83379,1,0,0:0:0:0:
198,122,83678,1,0,0:0:0:0:
198,122,83848,1,8,0:0:0:0:
198,122,83891,1,8,0:0:0:0:
198,122,84019,1,8,0:0:0:0:
198,122,84360,1,8,0:0:0:0:
198,122,84445,1,0,0:0:0:0:
198,122,84530,1,0,0:0:0:0:
197,133,84870,1,8,0:0:0:0:
197,133,84913,1,8,0:0:0:0:
202,123,85212,1,0,0:0:0:0:
202,123,85297,1,0,0:0:0:0:
202,123,85382,1,8,0:0:0:0:
191,123,85553,1,0,0:0:0:0:
191,123,85723,1,8,0:0:0:0:
191,123,85808,1,0,0:0:0:0:
191,123,85894,1,8,0:0:0:0:
182,119,86405,1,8,0:0:0:0:
182,119,86448,1,8,0:0:0:0:
181,118,86575,1,0,0:0:0:0:
181,118,86661,1,0,0:0:0:0:
181,118,86746,1,0,0:0:0:0:
173,120,86916,1,0,0:0:0:0:
171,120,87087,1,0,0:0:0:0:
166,120,87257,1,8,0:0:0:0:
166,120,87428,1,0,0:0:0:0:
163,125,87769,1,8,0:0:0:0:
163,125,87939,1,0,0:0:0:0:
160,125,88110,1,0,0:0:0:0:
160,125,88280,1,8,0:0:0:0:
160,125,88450,1,0,0:0:0:0:
163,125,88536,1,0,0:0:0:0:
163,125,88621,1,8,0:0:0:0:
163,125,88791,1,0,0:0:0:0:
151,127,89303,1,8,0:0:0:0:
159,129,89345,1,8,0:0:0:0:
159,129,89473,1,0,0:0:0:0:
162,131,89814,1,0,0:0:0:0:
162,131,89899,1,0,0:0:0:0:
162,131,89985,1,8,0:0:0:0:
159,129,90325,1,8,0:0:0:0:
167,128,90368,1,8,0:0:0:0:
175,124,90496,1,0,0:0:0:0:
167,128,90666,1,0,0:0:0:0:
175,124,90752,1,0,0:0:0:0:
175,124,90837,1,8,0:0:0:0:
175,124,91007,1,0,0:0:0:0:
175,124,91178,1,8,0:0:0:0:
175,124,91263,1,0,0:0:0:0:
175,124,91348,1,8,0:0:0:0:
167,127,91860,1,0,0:0:0:0:
175,124,91945,1,8,0:0:0:0:
175,124,92030,1,0,0:0:0:0:
175,124,92115,1,0,0:0:0:0:
175,124,92200,1,0,0:0:0:0:
167,127,92371,1,8,0:0:0:0:
167,127,92541,1,0,0:0:0:0:
173,128,92712,1,8,0:0:0:0:
183,121,92754,1,8,0:0:0:0:
173,128,92882,1,0,0:0:0:0:
182,135,93223,1,8,0:0:0:0:
182,135,93266,1,8,0:0:0:0:
162,131,93394,1,0,0:0:0:0:
165,118,93564,1,0,0:0:0:0:
166,117,93735,1,8,0:0:0:0:
158,114,93905,1,0,0:0:0:0:
166,117,93990,1,0,0:0:0:0:
158,114,94075,1,8,0:0:0:0:
169,127,94246,1,0,0:0:0:0:
169,127,94288,1,0,0:0:0:0:
146,120,94416,1,8,0:0:0:0:
168,127,94758,1,8,0:0:0:0:
168,127,94800,1,8,0:0:0:0:
162,123,94928,1,0,0:0:0:0:
146,120,95269,1,0,0:0:0:0:
146,120,95354,1,0,0:0:0:0:
146,120,95439,1,8,0:0:0:0:
146,120,95780,1,8,0:0:0:0:
140,121,95823,1,8,0:0:0:0:
139,121,96121,1,8,0:0:0:0:
139,113,96206,1,8,0:0:0:0:
139,113,96291,1,0,0:0:0:0:
130,111,96462,1,8,0:0:0:0:
130,111,96632,1,0,0:0:0:0:
130,111,96718,1,0,0:0:0:0:
130,111,96803,1,8,0:0:0:0:
126,98,96973,1,0,0:0:0:0:
126,98,97314,1,8,0:0:0:0:
126,98,97357,1,8,0:0:0:0:
126,98,97485,1,0,0:0:0:0:
125,98,97570,1,0,0:0:0:0:
125,98,97655,1,0,0:0:0:0:
125,98,97825,1,0,0:0:0:0:
126,98,97996,1,8,0:0:0:0:
126,98,98166,1,0,0:0:0:0:
126,98,98209,1,0,0:0:0:0:
126,98,98337,1,0,0:0:0:0:
125,98,98678,1,8,0:0:0:0:
125,98,98720,1,8,0:0:0:0:
126,98,99019,1,0,0:0:0:0:
147,123,99360,1,0,0:0:0:0:
147,123,99445,1,0,0:0:0:0:
147,123,99530,1,8,0:0:0:0:
145,108,99700,1,0,0:0:0:0:
145,108,99743,1,0,0:0:0:0:
145,108,99871,1,8,0:0:0:0:
145,108,100212,1,8,0:0:0:0:
145,108,100254,1,8,0:0:0:0:
145,108,100382,1,0,0:0:0:0:
140,102,100723,1,0,0:0:0:0:
139,102,100808,1,0,0:0:0:0:
139,102,100894,1,8,0:0:0:0:
137,102,101234,1,8,0:0:0:0:
137,102,101277,1,8,0:0:0:0:
145,105,101575,1,0,0:0:0:0:
145,105,101660,1,0,0:0:0:0:
145,105,101746,1,8,0:0:0:0:
164,118,101916,1,0,0:0:0:0:
164,118,102087,1,8,0:0:0:0:
164,118,102172,1,0,0:0:0:0:
160,121,102257,1,8,0:0:0:0:
174,125,102428,1,8,0:0:0:0:
174,125,102513,1,0,0:0:0:0:
174,125,102598,1,8,0:0:0:0:
174,125,102683,1,8,0:0:0:0:
174,125,102769,1,0,0:0:0:0:
174,125,102854,1,0,0:0:0:0:
174,125,102939,1,8,0:0:0:0:
174,125,103024,1,0,0:0:0:0:
174,125,103110,1,0,0:0:0:0:
174,125,103195,1,0,0:0:0:0:
174,125,103280,1,8,0:0:0:0:
174,125,103365,1,0,0:0:0:0:
174,125,103450,1,8,0:0:0:0:
174,125,103536,1,8,0:0:0:0:
251,186,104985,5,4,0:0:0:0:
251,186,105155,1,0,0:0:0:0:
251,186,105240,1,0,0:0:0:0:
251,186,105325,1,8,0:0:0:0:
251,186,105368,1,8,0:0:0:0:
251,186,105411,1,0,0:0:0:0:
251,186,105496,1,0,0:0:0:0:
251,186,105581,1,8,0:0:0:0:
251,186,105666,1,0,0:0:0:0:
251,186,105723,1,8,0:0:0:0:
251,186,105780,1,8,0:0:0:0:
251,186,105837,1,0,0:0:0:0:
251,186,105922,1,0,0:0:0:0:
251,186,106007,1,8,0:0:0:0:
243,187,106050,1,0,0:0:0:0:
243,187,106092,1,0,0:0:0:0:
243,187,106178,1,8,0:0:0:0:
243,187,106235,1,0,0:0:0:0:
243,187,106291,1,0,0:0:0:0:
243,187,106348,1,8,0:0:0:0:
251,186,106433,1,8,0:0:0:0:
251,186,106519,1,0,0:0:0:0:
251,186,106689,1,8,0:0:0:0:
251,186,106746,1,8,0:0:0:0:
251,186,106803,1,0,0:0:0:0:
251,186,106860,1,0,0:0:0:0:
251,186,106945,1,8,0:0:0:0:
251,186,107030,1,0,0:0:0:0:
247,186,107115,1,0,0:0:0:0:
247,186,107200,1,8,0:0:0:0:
247,186,107243,1,0,0:0:0:0:
247,186,107286,1,0,0:0:0:0:
250,190,107371,1,8,0:0:0:0:
251,186,107428,1,8,0:0:0:0:
251,186,107485,1,8,0:0:0:0:
251,186,107541,1,0,0:0:0:0:
250,190,107627,1,0,0:0:0:0:
250,190,107712,1,8,0:0:0:0:
251,186,107882,1,8,0:0:0:0:
251,186,107967,1,0,0:0:0:0:
251,186,108053,1,8,0:0:0:0:
247,186,108095,1,8,0:0:0:0:
247,186,108138,1,0,0:0:0:0:
247,186,108223,1,0,0:0:0:0:
247,186,108308,1,8,0:0:0:0:
246,183,108394,1,0,0:0:0:0:
246,183,108450,1,8,0:0:0:0:
244,182,108507,1,8,0:0:0:0:
244,182,108564,1,0,0:0:0:0:
244,182,108649,1,0,0:0:0:0:
244,182,108735,1,8,0:0:0:0:
246,182,108777,1,8,0:0:0:0:
241,187,108820,1,0,0:0:0:0:
241,187,108905,1,8,0:0:0:0:
241,187,108990,1,8,0:0:0:0:
247,186,109075,1,0,0:0:0:0:
247,186,109161,1,0,0:0:0:0:
247,186,109246,1,0,0:0:0:0:
246,183,109416,1,8,0:0:0:0:
246,183,109459,1,0,0:0:0:0:
244,182,109502,1,0,0:0:0:0:
244,182,109587,1,8,0:0:0:0:
244,182,109644,1,8,0:0:0:0:
244,182,109700,1,0,0:0:0:0:
241,187,109757,1,0,0:0:0:0:
248,180,109842,1,8,0:0:0:0:
241,187,109928,1,0,0:0:0:0:
244,181,110013,1,0,0:0:0:0:
241,187,110098,1,8,0:0:0:0:
239,170,110141,1,8,0:0:0:0:
239,170,110183,1,0,0:0:0:0:
232,180,110269,1,0,0:0:0:0:
232,180,110354,1,8,0:0:0:0:
232,180,110439,1,4,0:0:0:0:
236,180,110610,1,8,0:0:0:0:
236,180,110695,1,0,0:0:0:0:
236,180,110780,1,8,0:0:0:0:
236,180,110823,1,8,0:0:0:0:
236,180,110865,1,0,0:0:0:0:
245,182,110950,1,8,0:0:0:0:
245,182,111007,1,0,0:0:0:0:
244,181,111064,1,0,0:0:0:0:
245,182,111121,1,8,0:0:0:0:
221,176,111206,1,8,0:0:0:0:
221,176,111291,1,0,0:0:0:0:
221,176,111377,1,0,0:0:0:0:
221,176,111462,1,8,0:0:0:0:
221,176,111504,1,0,0:0:0:0:
230,179,111547,1,0,0:0:0:0:
223,183,111632,1,8,0:0:0:0:
223,183,111717,1,8,0:0:0:0:
223,183,111803,1,0,0:0:0:0:
223,183,111888,1,8,0:0:0:0:
223,183,111973,1,0,0:0:0:0:
222,177,112144,1,8,0:0:0:0:
221,176,112186,1,8,0:0:0:0:
221,176,112229,1,0,0:0:0:0:
221,176,112314,1,0,0:0:0:0:
221,176,112399,1,8,0:0:0:0:
221,176,112485,1,0,0:0:0:0:
221,177,112570,1,0,0:0:0:0:
221,177,112655,1,8,0:0:0:0:
221,177,112740,1,8,0:0:0:0:
221,177,112825,1,0,0:0:0:0:
221,177,112868,1,0,0:0:0:0:
221,177,112911,1,8,0:0:0:0:
221,177,112996,1,0,0:0:0:0:
222,177,113081,1,0,0:0:0:0:
222,177,113166,1,0,0:0:0:0:
229,175,113337,1,8,0:0:0:0:
229,175,113394,1,8,0:0:0:0:
229,175,113450,1,0,0:0:0:0:
229,175,113507,1,8,0:0:0:0:
229,175,113564,1,8,0:0:0:0:
229,175,113621,1,8,0:0:0:0:
229,175,113678,1,0,0:0:0:0:
216,178,113763,1,0,0:0:0:0:
229,175,113848,1,8,0:0:0:0:
229,175,113933,1,8,0:0:0:0:
214,175,114019,1,0,0:0:0:0:
214,175,114104,1,0,0:0:0:0:
214,175,114189,1,8,0:0:0:0:
214,175,114232,1,8,0:0:0:0:
214,175,114274,1,0,0:0:0:0:
236,171,114360,1,8,0:0:0:0:
236,171,114445,1,8,0:0:0:0:
236,171,114530,1,0,0:0:0:0:
208,176,114700,1,0,0:0:0:0:
216,178,114786,1,0,0:0:0:0:
212,176,114871,1,8,0:0:0:0:
212,176,114928,1,8,0:0:0:0:
214,175,114985,1,0,0:0:0:0:
214,175,115041,1,8,0:0:0:0:
214,175,115098,1,8,0:0:0:0:
224,172,115155,1,0,0:0:0:0:
214,175,115212,1,8,0:0:0:0:
218,177,115269,1,0,0:0:0:0:
218,177,115325,1,0,0:0:0:0:
218,177,115382,1,8,0:0:0:0:
218,169,115467,1,0,0:0:0:0:
215,180,115894,1,12,0:0:0:0:
215,180,116149,1,0,0:0:0:0:
215,180,116234,1,8,0:0:0:0:
215,180,116277,1,8,0:0:0:0:
215,180,116320,1,0,0:0:0:0:
218,177,116405,1,8,0:0:0:0:
218,177,116462,1,0,0:0:0:0:
215,180,116518,1,0,0:0:0:0:
215,180,116575,1,8,0:0:0:0:
215,180,116660,1,8,0:0:0:0:
215,180,116746,1,0,0:0:0:0:
221,175,116831,1,0,0:0:0:0:
221,175,116916,1,8,0:0:0:0:
221,175,116959,1,0,0:0:0:0:
220,175,117002,1,0,0:0:0:0:
210,181,117087,1,8,0:0:0:0:
210,181,117172,1,8,0:0:0:0:
210,181,117257,1,0,0:0:0:0:
210,181,117428,1,0,0:0:0:0:
210,181,117513,1,0,0:0:0:0:
210,181,117598,1,8,0:0:0:0:
210,181,117641,1,8,0:0:0:0:
210,181,117683,1,8,0:0:0:0:
215,180,117769,1,0,0:0:0:0:
214,182,117854,1,0,0:0:0:0:
214,182,117939,1,8,0:0:0:0:
214,182,118024,1,8,0:0:0:0:
210,181,118110,1,0,0:0:0:0:
210,181,118195,1,0,0:0:0:0:
210,181,118280,1,8,0:0:0:0:
210,181,118323,1,0,0:0:0:0:
210,181,118365,1,0,0:0:0:0:
210,181,118450,1,8,0:0:0:0:
210,181,118536,1,8,0:0:0:0:
210,181,118621,1,0,0:0:0:0:
209,180,118791,1,8,0:0:0:0:
208,180,118877,1,0,0:0:0:0:
208,180,118962,1,8,0:0:0:0:
208,180,119004,1,8,0:0:0:0:
208,180,119047,1,0,0:0:0:0:
201,167,119132,1,8,0:0:0:0:
201,167,119189,1,0,0:0:0:0:
201,167,119246,1,0,0:0:0:0:
201,167,119303,1,0,0:0:0:0:
198,170,119388,1,8,0:0:0:0:
198,171,119473,1,0,0:0:0:0:
198,171,119558,1,0,0:0:0:0:
198,171,119644,1,8,0:0:0:0:
198,171,119686,1,0,0:0:0:0:
198,171,119729,1,0,0:0:0:0:
187,169,119814,1,8,0:0:0:0:
187,169,119899,1,8,0:0:0:0:
187,169,119985,1,0,0:0:0:0:
187,169,120070,1,0,0:0:0:0:
187,169,120155,1,0,0:0:0:0:
191,169,120325,1,8,0:0:0:0:
191,169,120368,1,8,0:0:0:0:
191,169,120411,1,0,0:0:0:0:
191,169,120496,1,0,0:0:0:0:
191,169,120581,1,8,0:0:0:0:
191,169,120666,1,0,0:0:0:0:
191,169,120752,1,0,0:0:0:0:
195,174,120837,1,8,0:0:0:0:
196,174,120922,1,0,0:0:0:0:
196,174,121007,1,8,0:0:0:0:
196,174,121050,1,0,0:0:0:0:
196,174,121092,1,0,0:0:0:0:
197,165,121178,1,8,0:0:0:0:
197,165,121220,1,8,0:0:0:0:
197,165,121263,1,0,0:0:0:0:
197,165,121348,1,12,0:0:0:0:
191,169,121519,1,0,0:0:0:0:
191,169,121604,1,0,0:0:0:0:
191,169,121689,1,8,0:0:0:0:
191,169,121732,1,8,0:0:0:0:
191,169,121774,1,0,0:0:0:0:
189,170,121860,1,8,0:0:0:0:
206,172,121945,1,8,0:0:0:0:
206,172,122030,1,0,0:0:0:0:
206,172,122115,1,0,0:0:0:0:
222,174,122200,1,8,0:0:0:0:
221,174,122286,1,0,0:0:0:0:
221,174,122371,1,8,0:0:0:0:
221,174,122413,1,0,0:0:0:0:
221,174,122456,1,0,0:0:0:0:
221,174,122541,1,8,0:0:0:0:
221,174,122627,1,8,0:0:0:0:
221,174,122712,1,0,0:0:0:0:
224,178,122882,1,8,0:0:0:0:
224,178,122939,1,8,0:0:0:0:
224,178,122996,1,0,0:0:0:0:
224,178,123053,1,8,0:0:0:0:
224,178,123110,1,8,0:0:0:0:
220,181,123166,1,8,0:0:0:0:
221,174,123223,1,0,0:0:0:0:
221,174,123308,1,0,0:0:0:0:
241,176,123394,1,8,0:0:0:0:
227,186,123479,1,0,0:0:0:0:
227,186,123564,1,8,0:0:0:0:
227,186,123649,1,8,0:0:0:0:
227,186,123735,1,0,0:0:0:0:
227,186,123791,1,0,0:0:0:0:
227,186,123848,1,0,0:0:0:0:
227,186,123905,1,8,0:0:0:0:
227,186,123990,1,8,0:0:0:0:
227,186,124075,1,0,0:0:0:0:
225,189,124246,1,8,0:0:0:0:
225,188,124331,1,0,0:0:0:0:
227,186,124416,1,8,0:0:0:0:
227,186,124459,1,0,0:0:0:0:
227,186,124502,1,0,0:0:0:0:
227,186,124587,1,8,0:0:0:0:
227,186,124672,1,8,0:0:0:0:
227,186,124757,1,0,0:0:0:0:
221,187,124842,1,0,0:0:0:0:
221,187,124928,1,8,0:0:0:0:
221,187,125013,1,0,0:0:0:0:
225,189,125098,1,8,0:0:0:0:
225,189,125141,1,8,0:0:0:0:
225,189,125183,1,0,0:0:0:0:
225,188,125269,1,8,0:0:0:0:
221,187,125354,1,8,0:0:0:0:
221,187,125439,1,0,0:0:0:0:
221,187,125610,1,0,0:0:0:0:
221,187,125666,1,0,0:0:0:0:
226,196,125723,1,0,0:0:0:0:
221,187,125780,1,8,0:0:0:0:
221,187,125837,1,0,0:0:0:0:
221,187,125894,1,0,0:0:0:0:
221,187,125950,1,8,0:0:0:0:
235,193,126007,1,8,0:0:0:0:
235,193,126064,1,0,0:0:0:0:
235,193,126121,1,8,0:0:0:0:
230,188,126206,1,8,0:0:0:0:
230,188,126291,1,0,0:0:0:0:
232,193,126462,2,0,L|288:194,2,35
233,194,126803,1,12,0:0:0:0:
220,197,126973,1,8,0:0:0:0:
220,197,127058,1,0,0:0:0:0:
220,197,127144,1,8,0:0:0:0:
220,197,127186,1,8,0:0:0:0:
220,197,127229,1,0,0:0:0:0:
220,197,127314,1,8,0:0:0:0:
225,192,127371,1,0,0:0:0:0:
220,197,127428,1,0,0:0:0:0:
215,200,127485,1,8,0:0:0:0:
216,200,127570,1,8,0:0:0:0:
216,200,127655,1,0,0:0:0:0:
216,192,127740,1,0,0:0:0:0:
216,200,127825,1,8,0:0:0:0:
216,200,127868,1,0,0:0:0:0:
216,200,127911,1,0,0:0:0:0:
215,204,127996,1,8,0:0:0:0:
215,204,128081,1,8,0:0:0:0:
215,204,128166,1,0,0:0:0:0:
215,204,128252,1,8,0:0:0:0:
215,204,128337,1,0,0:0:0:0:
224,197,128507,1,8,0:0:0:0:
221,197,128550,1,8,0:0:0:0:
221,197,128592,1,0,0:0:0:0:
221,197,128678,1,8,0:0:0:0:
221,197,128763,1,0,0:0:0:0:
221,197,128848,1,8,0:0:0:0:
221,197,128933,1,8,0:0:0:0:
221,197,129019,1,0,0:0:0:0:
221,197,129104,1,0,0:0:0:0:
221,197,129189,1,8,0:0:0:0:
221,195,129232,1,0,0:0:0:0:
221,195,129274,1,0,0:0:0:0:
221,195,129360,1,8,0:0:0:0:
224,197,129445,1,8,0:0:0:0:
221,197,129530,1,0,0:0:0:0:
221,197,129558,1,0,0:0:0:0:
221,197,129700,1,0,0:0:0:0:
221,197,129871,1,12,0:0:0:0:
213,187,130041,1,8,0:0:0:0:
213,187,130098,1,0,0:0:0:0:
213,187,130155,1,0,0:0:0:0:
213,187,130212,1,8,0:0:0:0:
213,187,130269,1,8,0:0:0:0:
213,187,130325,1,8,0:0:0:0:
213,187,130382,1,0,0:0:0:0:
209,187,130467,1,0,0:0:0:0:
210,187,130553,1,8,0:0:0:0:
210,187,130595,1,8,0:0:0:0:
210,187,130638,1,0,0:0:0:0:
219,188,130723,1,8,0:0:0:0:
219,188,130808,1,8,0:0:0:0:
219,188,130894,1,0,0:0:0:0:
219,188,130979,1,0,0:0:0:0:
219,188,131064,1,0,0:0:0:0:
206,187,131235,1,8,0:0:0:0:
206,187,131277,1,8,0:0:0:0:
206,187,131320,1,8,0:0:0:0:
227,193,131405,1,0,0:0:0:0:
227,193,131490,1,8,0:0:0:0:
227,193,131575,1,0,0:0:0:0:
227,193,131661,1,0,0:0:0:0:
227,193,131746,1,8,0:0:0:0:
227,193,131831,1,0,0:0:0:0:
227,193,131916,1,8,0:0:0:0:
227,193,131959,1,0,0:0:0:0:
227,193,132002,1,0,0:0:0:0:
219,188,132044,1,8,0:0:0:0:
225,195,132172,1,8,0:0:0:0:
224,195,132257,1,4,0:0:0:0:
227,193,132428,1,0,0:0:0:0:
227,193,132513,1,0,0:0:0:0:
227,193,132598,1,8,0:0:0:0:
227,193,132655,1,8,0:0:0:0:
227,193,132712,1,0,0:0:0:0:
227,193,132769,1,8,0:0:0:0:
227,193,132825,1,0,0:0:0:0:
227,193,132882,1,0,0:0:0:0:
227,193,132939,1,8,0:0:0:0:
227,193,132996,1,8,0:0:0:0:
226,196,133053,1,8,0:0:0:0:
225,195,133110,1,0,0:0:0:0:
224,195,133195,1,0,0:0:0:0:
224,195,133280,1,8,0:0:0:0:
230,201,133323,1,8,0:0:0:0:
230,201,133365,1,0,0:0:0:0:
230,201,133450,1,8,0:0:0:0:
227,193,133493,1,8,0:0:0:0:
227,193,133536,1,8,0:0:0:0:
227,193,133621,1,0,0:0:0:0:
211,193,133791,1,8,0:0:0:0:
211,193,133848,1,0,0:0:0:0:
220,194,133905,1,0,0:0:0:0:
211,193,133962,1,8,0:0:0:0:
211,193,134019,1,8,0:0:0:0:
224,192,134075,1,0,0:0:0:0:
211,193,134132,1,8,0:0:0:0:
211,193,134189,1,8,0:0:0:0:
211,193,134246,1,8,0:0:0:0:
211,193,134303,1,0,0:0:0:0:
211,193,134388,1,0,0:0:0:0:
194,192,134473,1,8,0:0:0:0:
211,193,134558,1,0,0:0:0:0:
211,193,134644,1,8,0:0:0:0:
195,192,134686,1,0,0:0:0:0:
195,192,134729,1,0,0:0:0:0:
216,202,134814,1,8,0:0:0:0:
216,202,134899,1,8,0:0:0:0:
216,202,134985,1,0,0:0:0:0:
235,197,135155,1,8,0:0:0:0:
233,197,135198,1,0,0:0:0:0:
233,197,135240,1,0,0:0:0:0:
233,197,135325,1,8,0:0:0:0:
233,197,135368,1,8,0:0:0:0:
233,197,135411,1,0,0:0:0:0:
233,197,135496,1,8,0:0:0:0:
233,197,135553,1,0,0:0:0:0:
233,197,135610,1,0,0:0:0:0:
233,197,135666,1,8,0:0:0:0:
233,197,135752,1,8,0:0:0:0:
233,197,135837,1,0,0:0:0:0:
228,191,135922,1,0,0:0:0:0:
228,191,136007,1,8,0:0:0:0:
228,191,136050,1,8,0:0:0:0:
228,191,136092,1,0,0:0:0:0:
211,187,136178,1,8,0:0:0:0:
211,187,136263,1,8,0:0:0:0:
211,187,136348,1,0,0:0:0:0:
223,202,136519,1,8,0:0:0:0:
223,202,136575,1,8,0:0:0:0:
223,202,136632,1,0,0:0:0:0:
223,202,136689,1,8,0:0:0:0:
223,202,136746,1,0,0:0:0:0:
223,202,136803,1,0,0:0:0:0:
223,202,136860,1,8,0:0:0:0:
223,202,136916,1,8,0:0:0:0:
223,202,136973,1,8,0:0:0:0:
223,202,137030,1,0,0:0:0:0:
223,203,137115,1,0,0:0:0:0:
224,203,137200,1,8,0:0:0:0:
224,203,137286,1,0,0:0:0:0:
223,202,137371,1,8,0:0:0:0:
293,215,137456,1,8,0:0:0:0:
232,201,137712,1,12,0:0:0:0:
220,197,137882,1,8,0:0:0:0:
220,197,137967,1,0,0:0:0:0:
220,197,138053,1,8,0:0:0:0:
220,197,138095,1,8,0:0:0:0:
220,197,138138,1,0,0:0:0:0:
220,197,138223,1,8,0:0:0:0:
225,192,138280,1,0,0:0:0:0:
220,197,138337,1,0,0:0:0:0:
215,200,138394,1,8,0:0:0:0:
216,200,138479,1,8,0:0:0:0:
216,200,138564,1,0,0:0:0:0:
216,192,138649,1,0,0:0:0:0:
216,200,138734,1,8,0:0:0:0:
216,200,138777,1,0,0:0:0:0:
216,200,138820,1,0,0:0:0:0:
215,204,138905,1,8,0:0:0:0:
215,204,138990,1,8,0:0:0:0:
215,204,139075,1,0,0:0:0:0:
215,204,139161,1,8,0:0:0:0:
215,204,139246,1,0,0:0:0:0:
224,197,139416,1,8,0:0:0:0:
221,197,139459,1,8,0:0:0:0:
221,197,139501,1,0,0:0:0:0:
221,197,139587,1,8,0:0:0:0:
221,197,139672,1,0,0:0:0:0:
221,197,139757,1,8,0:0:0:0:
221,197,139842,1,8,0:0:0:0:
221,197,139928,1,0,0:0:0:0:
221,197,140013,1,0,0:0:0:0:
221,197,140098,1,8,0:0:0:0:
221,195,140141,1,0,0:0:0:0:
221,195,140183,1,0,0:0:0:0:
221,195,140269,1,8,0:0:0:0:
224,197,140354,1,8,0:0:0:0:
221,197,140439,1,0,0:0:0:0:
221,197,140467,1,0,0:0:0:0:
221,197,140609,1,0,0:0:0:0:
221,197,140780,1,12,0:0:0:0:
213,187,140950,1,8,0:0:0:0:
213,187,141007,1,0,0:0:0:0:
213,187,141064,1,0,0:0:0:0:
213,187,141121,1,8,0:0:0:0:
213,187,141178,1,8,0:0:0:0:
213,187,141234,1,8,0:0:0:0:
213,187,141291,1,0,0:0:0:0:
209,187,141376,1,0,0:0:0:0:
210,187,141462,1,8,0:0:0:0:
210,187,141504,1,8,0:0:0:0:
210,187,141547,1,0,0:0:0:0:
219,188,141632,1,8,0:0:0:0:
219,188,141717,1,8,0:0:0:0:
219,188,141803,1,0,0:0:0:0:
219,188,141888,1,0,0:0:0:0:
219,188,141973,1,0,0:0:0:0:
206,187,142144,1,8,0:0:0:0:
206,187,142186,1,8,0:0:0:0:
206,187,142229,1,8,0:0:0:0:
227,193,142314,1,0,0:0:0:0:
227,193,142399,1,8,0:0:0:0:
227,193,142484,1,0,0:0:0:0:
227,193,142570,1,0,0:0:0:0:
227,193,142655,1,8,0:0:0:0:
227,193,142740,1,0,0:0:0:0:
227,193,142825,1,8,0:0:0:0:
227,193,142868,1,0,0:0:0:0:
227,193,142911,1,0,0:0:0:0:
219,188,142953,1,8,0:0:0:0:
225,195,143081,1,8,0:0:0:0:
224,195,143166,1,4,0:0:0:0:
227,193,143337,1,0,0:0:0:0:
227,193,143422,1,0,0:0:0:0:
227,193,143507,1,8,0:0:0:0:
227,193,143564,1,8,0:0:0:0:
227,193,143621,1,0,0:0:0:0:
227,193,143678,1,8,0:0:0:0:
227,193,143734,1,0,0:0:0:0:
227,193,143791,1,0,0:0:0:0:
227,193,143848,1,8,0:0:0:0:
227,193,143905,1,8,0:0:0:0:
226,196,143962,1,8,0:0:0:0:
225,195,144019,1,0,0:0:0:0:
224,195,144104,1,0,0:0:0:0:
224,195,144189,1,8,0:0:0:0:
230,201,144232,1,8,0:0:0:0:
230,201,144274,1,0,0:0:0:0:
230,201,144359,1,8,0:0:0:0:
227,193,144402,1,8,0:0:0:0:
227,193,144445,1,8,0:0:0:0:
227,193,144530,1,0,0:0:0:0:
211,193,144700,1,8,0:0:0:0:
211,193,144757,1,0,0:0:0:0:
220,194,144814,1,0,0:0:0:0:
211,193,144871,1,8,0:0:0:0:
211,193,144928,1,8,0:0:0:0:
224,192,144985,1,0,0:0:0:0:
211,193,145041,1,8,0:0:0:0:
211,193,145098,1,8,0:0:0:0:
211,193,145155,1,8,0:0:0:0:
211,193,145212,1,0,0:0:0:0:
211,193,145297,1,0,0:0:0:0:
194,192,145382,1,8,0:0:0:0:
211,193,145467,1,0,0:0:0:0:
211,193,145553,1,8,0:0:0:0:
195,192,145595,1,0,0:0:0:0:
195,192,145638,1,0,0:0:0:0:
216,202,145723,1,8,0:0:0:0:
216,202,145808,1,8,0:0:0:0:
216,202,145894,1,0,0:0:0:0:
235,197,146064,1,8,0:0:0:0:
233,197,146107,1,0,0:0:0:0:
233,197,146149,1,0,0:0:0:0:
233,197,146234,1,8,0:0:0:0:
233,197,146277,1,8,0:0:0:0:
233,197,146320,1,0,0:0:0:0:
233,197,146405,1,8,0:0:0:0:
233,197,146462,1,0,0:0:0:0:
233,197,146519,1,0,0:0:0:0:
233,197,146575,1,8,0:0:0:0:
233,197,146661,1,8,0:0:0:0:
233,197,146746,1,0,0:0:0:0:
228,191,146831,1,0,0:0:0:0:
228,191,146916,1,8,0:0:0:0:
228,191,146959,1,8,0:0:0:0:
228,191,147001,1,0,0:0:0:0:
211,187,147087,1,8,0:0:0:0:
211,187,147172,1,8,0:0:0:0:
211,187,147257,1,0,0:0:0:0:
223,202,147428,1,8,0:0:0:0:
223,202,147484,1,8,0:0:0:0:
223,202,147541,1,0,0:0:0:0:
223,202,147598,1,8,0:0:0:0:
223,202,147655,1,0,0:0:0:0:
223,202,147712,1,0,0:0:0:0:
223,202,147769,1,8,0:0:0:0:
223,202,147825,1,8,0:0:0:0:
223,202,147882,1,8,0:0:0:0:
223,202,147939,1,0,0:0:0:0:
223,203,148024,1,0,0:0:0:0:
224,203,148109,1,8,0:0:0:0:
224,203,148195,1,8,0:0:0:0:
223,202,148280,1,0,0:0:0:0:
293,215,148365,1,8,0:0:0:0:
223,202,148450,1,8,0:0:0:0:
223,202,148536,1,8,0:0:0:0:
223,202,148621,1,4,0:0:0:0:
215,206,148802,1,0,0:0:0:0:
215,206,148893,1,0,0:0:0:0:
215,206,148984,1,8,0:0:0:0:
215,206,149075,1,8,0:0:0:0:
215,206,149166,1,0,0:0:0:0:
215,206,149257,1,0,0:0:0:0:
215,206,149348,1,8,0:0:0:0:
215,206,149439,1,0,0:0:0:0:
215,206,149530,1,8,0:0:0:0:
215,206,149621,1,8,0:0:0:0:
215,206,149711,1,0,0:0:0:0:
215,206,149802,1,0,0:0:0:0:
215,206,149893,1,8,0:0:0:0:
215,206,149984,1,0,0:0:0:0:
229,168,150075,5,8,0:0:0:0:
229,168,150120,1,8,0:0:0:0:
229,168,150165,1,8,0:0:0:0:
229,168,150210,1,8,0:0:0:0:
229,168,150255,1,0,0:0:0:0:
229,168,150346,1,8,0:0:0:0:
244,166,150436,5,0,0:0:0:0:
244,166,150526,1,0,0:0:0:0:
244,159,150617,1,8,0:0:0:0:
236,157,150707,1,8,0:0:0:0:
241,160,150797,1,0,0:0:0:0:
239,173,150888,1,0,0:0:0:0:
239,173,150978,5,8,0:0:0:0:
239,173,151068,1,0,0:0:0:0:
239,173,151159,1,8,0:0:0:0:
239,173,151249,1,0,0:0:0:0:
239,173,151340,1,8,0:0:0:0:
237,171,151430,1,0,0:0:0:0:
239,173,151520,1,8,0:0:0:0:
235,167,151565,1,8,0:0:0:0:
217,162,151611,1,8,0:0:0:0:
229,165,151656,1,8,0:0:0:0:
235,167,151702,1,0,0:0:0:0:
234,162,151793,1,0,0:0:0:0:
234,162,151884,1,8,0:0:0:0:
234,162,151975,1,8,0:0:0:0:
233,162,152067,1,0,0:0:0:0:
232,162,152158,1,0,0:0:0:0:
232,162,152249,1,8,0:0:0:0:
232,162,152340,1,0,0:0:0:0:
232,162,152431,1,8,0:0:0:0:
232,162,152523,1,0,0:0:0:0:
234,162,152614,1,8,0:0:0:0:
234,162,152705,1,8,0:0:0:0:
239,162,152796,1,0,0:0:0:0:
234,162,152887,1,0,0:0:0:0:
244,163,152978,1,8,0:0:0:0:
243,163,153025,1,8,0:0:0:0:
243,163,153072,1,8,0:0:0:0:
233,162,153120,1,8,0:0:0:0:
232,162,153167,1,0,0:0:0:0:
232,162,153262,1,8,0:0:0:0:
243,163,153357,1,0,0:0:0:0:
243,163,153452,1,0,0:0:0:0:
243,163,153547,1,8,0:0:0:0:
243,163,153642,1,0,0:0:0:0:
243,163,153737,1,8,0:0:0:0:
243,163,153832,1,8,0:0:0:0:
243,163,153927,1,0,0:0:0:0:
243,163,154022,1,8,0:0:0:0:
244,163,154117,1,0,0:0:0:0:
243,163,154212,1,8,0:0:0:0:
243,163,154307,1,8,0:0:0:0:
243,163,154404,1,4,0:0:0:0:
243,163,154608,1,0,0:0:0:0:
234,160,154705,1,8,0:0:0:0:
257,147,154802,1,8,0:0:0:0:
231,160,154995,1,4,0:0:0:0:
239,171,155382,1,4,0:0:0:0:
241,172,155769,1,8,0:0:0:0:
234,172,155866,1,8,0:0:0:0:
234,172,155963,1,0,0:0:0:0:
233,167,156156,1,8,0:0:0:0:
233,167,156221,1,0,0:0:0:0:
233,167,156285,1,0,0:0:0:0:
233,167,156350,1,8,0:0:0:0:
233,167,156415,1,8,0:0:0:0:
233,170,156479,1,8,0:0:0:0:
233,167,156544,1,0,0:0:0:0:
230,166,156640,1,0,0:0:0:0:
223,168,156737,1,8,0:0:0:0:
223,168,156834,1,0,0:0:0:0:
223,168,157027,1,0,0:0:0:0:
223,168,157124,1,8,0:0:0:0:
223,168,157318,1,0,0:0:0:0:
223,168,157415,1,8,0:0:0:0:
223,168,157511,1,4,0:0:0:0:
213,164,157705,1,8,0:0:0:0:
213,164,157770,1,8,0:0:0:0:
213,164,157835,1,0,0:0:0:0:
213,164,157899,1,0,0:0:0:0:
179,169,157995,1,8,0:0:0:0:
190,167,158189,1,8,0:0:0:0:
190,167,158285,1,0,0:0:0:0:
170,166,158382,1,0,0:0:0:0:
170,166,158479,1,0,0:0:0:0:
170,166,158673,1,0,0:0:0:0:
168,157,158866,1,8,0:0:0:0:
168,157,158963,1,8,0:0:0:0:
169,157,159060,1,4,0:0:0:0:
172,159,159253,1,0,0:0:0:0:
172,159,159318,1,0,0:0:0:0:
172,159,159382,1,0,0:0:0:0:
172,159,159447,1,8,0:0:0:0:
172,159,159544,1,8,0:0:0:0:
168,157,159737,1,0,0:0:0:0:
168,157,159834,1,8,0:0:0:0:
173,157,159931,1,0,0:0:0:0:
169,157,160027,1,0,0:0:0:0:
172,159,160221,1,0,0:0:0:0:
172,159,160415,1,8,0:0:0:0:
172,159,160463,1,8,0:0:0:0:
172,159,160511,1,8,0:0:0:0:
173,157,160608,1,4,0:0:0:0:
173,157,160802,1,4,0:0:0:0:
169,157,160995,1,8,0:0:0:0:
172,159,161092,1,8,0:0:0:0:
172,159,161285,1,0,0:0:0:0:
172,159,161382,1,8,0:0:0:0:
173,157,161575,1,0,0:0:0:0:
173,157,161673,1,0,0:0:0:0:
169,157,161866,1,8,0:0:0:0:
169,157,161963,1,0,0:0:0:0:
172,159,162060,1,0,0:0:0:0:
172,159,162155,1,0,0:0:0:0:
172,159,162350,1,8,0:0:0:0:
173,157,162415,1,0,0:0:0:0:
173,157,162479,1,0,0:0:0:0:
173,157,162544,1,8,0:0:0:0:
169,153,162608,1,8,0:0:0:0:
173,157,162673,1,8,0:0:0:0:
169,157,162737,1,0,0:0:0:0:
178,159,162834,1,8,0:0:0:0:
182,159,162931,1,0,0:0:0:0:
182,159,163027,1,8,0:0:0:0:
182,161,163221,1,0,0:0:0:0:
182,161,163318,1,8,0:0:0:0:
184,160,163511,1,0,0:0:0:0:
184,160,163608,1,8,0:0:0:0:
180,159,163705,1,4,0:0:0:0:
182,159,163898,1,8,0:0:0:0:
182,159,163963,1,0,0:0:0:0:
182,159,164027,1,0,0:0:0:0:
182,161,164092,1,8,0:0:0:0:
182,161,164156,1,0,0:0:0:0:
182,161,164221,1,0,0:0:0:0:
182,161,164285,1,8,0:0:0:0:
185,165,164382,1,8,0:0:0:0:
185,165,164479,1,0,0:0:0:0:
185,165,164576,1,0,0:0:0:0:
185,165,164673,1,8,0:0:0:0:
185,165,164866,1,8,0:0:0:0:
185,165,164915,1,8,0:0:0:0:
185,165,164963,1,0,0:0:0:0:
185,165,165060,1,0,0:0:0:0:
185,165,165156,1,8,0:0:0:0:
185,165,165253,1,0,0:0:0:0:
185,165,165447,1,8,0:0:0:0:
185,165,165511,1,8,0:0:0:0:
185,165,165576,1,0,0:0:0:0:
185,165,165640,1,0,0:0:0:0:
185,165,165737,1,8,0:0:0:0:
180,176,165931,1,8,0:0:0:0:
180,175,166028,1,0,0:0:0:0:
200,167,166124,1,0,0:0:0:0:
198,168,166221,1,0,0:0:0:0:
198,168,166415,1,8,0:0:0:0:
215,192,166802,1,4,0:0:0:0:
202,188,167110,1,8,0:0:0:0:
202,188,167204,1,0,0:0:0:0:
202,188,167251,1,0,0:0:0:0:
202,188,167394,1,8,0:0:0:0:
202,188,167441,1,8,0:0:0:0:
199,176,167771,1,0,0:0:0:0:
198,176,167960,1,8,0:0:0:0:
198,176,168336,1,4,0:0:0:0:
199,176,168525,1,4,0:0:0:0:
208,169,168713,1,0,0:0:0:0:
208,169,168760,1,0,0:0:0:0:
208,169,168902,1,8,0:0:0:0:
208,169,168965,1,0,0:0:0:0:
198,176,169028,1,0,0:0:0:0:
198,176,169091,1,8,0:0:0:0:
198,176,169185,1,0,0:0:0:0:
207,168,169232,1,0,0:0:0:0:
198,176,169374,1,0,0:0:0:0:
199,176,169468,1,8,0:0:0:0:
200,174,169515,1,8,0:0:0:0:
196,166,169657,1,8,0:0:0:0:
196,166,169751,1,8,0:0:0:0:
196,166,169845,1,4,0:0:0:0:
185,163,170029,1,8,0:0:0:0:
185,163,170121,1,0,0:0:0:0:
185,163,170214,1,0,0:0:0:0:
195,165,170306,1,8,0:0:0:0:
179,162,170492,1,0,0:0:0:0:
179,162,170585,1,8,0:0:0:0:
179,162,170770,1,8,0:0:0:0:
179,162,170863,1,0,0:0:0:0:
179,162,170956,1,8,0:0:0:0:
179,162,171002,1,8,0:0:0:0:
179,162,171141,1,0,0:0:0:0:
179,162,171188,1,0,0:0:0:0:
179,162,171326,1,8,0:0:0:0:
179,162,171371,1,8,0:0:0:0:
179,162,171416,1,8,0:0:0:0:
179,162,171507,1,0,0:0:0:0:
179,162,171598,1,0,0:0:0:0:
179,162,171689,1,8,0:0:0:0:
179,162,171735,1,8,0:0:0:0:
193,158,171826,1,0,0:0:0:0:
179,162,171962,1,0,0:0:0:0:
179,162,172053,1,8,0:0:0:0:
179,162,172144,1,0,0:0:0:0:
179,162,172189,1,0,0:0:0:0:
172,156,172235,1,0,0:0:0:0:
172,156,172326,1,0,0:0:0:0:
172,156,172416,1,8,0:0:0:0:
186,158,172462,1,8,0:0:0:0:
169,160,172598,1,0,0:0:0:0:
179,162,172644,1,0,0:0:0:0:
169,160,172780,1,12,0:0:0:0:
171,155,173051,1,8,0:0:0:0:
171,155,173141,1,0,0:0:0:0:
171,155,173186,1,0,0:0:0:0:
172,156,173276,1,8,0:0:0:0:
171,155,173412,1,0,0:0:0:0:
171,155,173502,1,8,0:0:0:0:
171,155,173548,1,8,0:0:0:0:
161,162,173683,1,0,0:0:0:0:
161,162,173773,1,0,0:0:0:0:
161,162,173864,1,8,0:0:0:0:
161,162,173909,1,8,0:0:0:0:
161,162,173954,1,8,0:0:0:0:
161,162,174045,1,0,0:0:0:0:
161,162,174090,1,0,0:0:0:0:
161,162,174135,1,0,0:0:0:0:
161,162,174225,1,4,0:0:0:0:
141,163,174402,1,8,0:0:0:0:
143,162,174491,1,0,0:0:0:0:
143,162,174580,1,8,0:0:0:0:
143,162,174639,1,0,0:0:0:0:
143,162,174698,1,0,0:0:0:0:
138,161,174757,1,0,0:0:0:0:
131,161,174846,1,0,0:0:0:0:
143,162,174935,1,8,0:0:0:0:
148,164,175024,1,0,0:0:0:0:
148,164,175202,1,0,0:0:0:0:
148,164,175290,1,8,0:0:0:0:
148,164,175466,1,8,0:0:0:0:
148,164,175554,1,8,0:0:0:0:
148,164,175642,1,4,0:0:0:0:
148,164,175818,1,0,0:0:0:0:
148,164,175905,1,0,0:0:0:0:
148,164,175994,1,8,0:0:0:0:
148,164,176039,1,8,0:0:0:0:
143,162,176171,1,8,0:0:0:0:
143,162,176259,1,0,0:0:0:0:
143,162,176347,1,8,0:0:0:0:
143,162,176405,1,0,0:0:0:0:
143,162,176463,1,0,0:0:0:0:
143,162,176521,1,8,0:0:0:0:
143,162,176608,1,0,0:0:0:0:
143,162,176699,1,8,0:0:0:0:
148,164,176741,1,8,0:0:0:0:
148,164,176868,1,0,0:0:0:0:
148,164,176910,1,0,0:0:0:0:
148,164,177037,1,8,0:0:0:0:
151,164,177093,1,8,0:0:0:0:
151,164,177150,1,0,0:0:0:0:
151,164,177207,1,0,0:0:0:0:
151,164,177292,1,0,0:0:0:0:
151,164,177377,1,8,0:0:0:0:
151,162,177548,1,0,0:0:0:0:
151,162,177633,1,8,0:0:0:0:
151,162,177718,1,0,0:0:0:0:
148,164,177804,1,0,0:0:0:0:
148,164,177889,1,0,0:0:0:0:
148,164,177974,1,0,0:0:0:0:
148,164,178059,1,8,0:0:0:0:
151,164,178144,1,8,0:0:0:0:
151,164,178230,1,0,0:0:0:0:
151,164,178315,1,0,0:0:0:0:
151,164,178400,1,12,0:0:0:0:
146,175,178656,1,8,0:0:0:0:
146,175,178741,1,0,0:0:0:0:
146,175,178784,1,0,0:0:0:0:
146,175,178915,1,8,0:0:0:0:
146,175,178959,1,8,0:0:0:0:
146,175,179264,1,0,0:0:0:0:
146,175,179429,1,8,0:0:0:0:
131,189,179773,1,0,0:0:0:0:
131,189,179945,1,8,0:0:0:0:
131,189,180031,1,8,0:0:0:0:
131,189,180117,1,0,0:0:0:0:
131,189,180290,1,8,0:0:0:0:
131,189,180462,1,0,0:0:0:0:
131,189,180548,1,8,0:0:0:0:
152,195,180591,1,8,0:0:0:0:
131,189,180721,1,0,0:0:0:0:
131,189,180808,1,8,0:0:0:0:
151,195,180849,1,8,0:0:0:0:
131,189,180972,1,8,0:0:0:0:
131,189,181055,1,8,0:0:0:0:
131,189,181137,1,0,0:0:0:0:
151,195,181178,1,0,0:0:0:0:
135,179,181219,1,0,0:0:0:0:
135,179,181301,1,8,0:0:0:0:
135,179,181384,1,8,0:0:0:0:
135,179,181467,1,0,0:0:0:0:
119,178,181510,1,0,0:0:0:0:
131,189,181553,1,8,0:0:0:0:
125,186,181725,1,8,0:0:0:0:
125,186,181811,1,0,0:0:0:0:
140,193,181984,1,0,0:0:0:0:
139,193,182070,1,0,0:0:0:0:
139,193,182156,1,8,0:0:0:0:
139,193,182199,1,8,0:0:0:0:
124,192,182329,1,0,0:0:0:0:
139,193,182501,1,0,0:0:0:0:
136,183,182586,1,8,0:0:0:0:
136,183,182628,1,8,0:0:0:0:
136,183,182671,1,0,0:0:0:0:
136,183,182756,1,0,0:0:0:0:
136,183,182841,1,8,0:0:0:0:
129,180,182884,1,8,0:0:0:0:
148,180,183012,1,8,0:0:0:0:
148,180,183097,1,8,0:0:0:0:
148,180,183182,1,0,0:0:0:0:
148,180,183268,1,8,0:0:0:0:
212,205,183353,1,0,0:0:0:0:
116,176,183438,1,0,0:0:0:0:
116,176,183523,1,8,0:0:0:0:
116,176,183566,1,8,0:0:0:0:
152,169,183694,1,0,0:0:0:0:
152,169,183736,1,0,0:0:0:0:
152,169,183864,1,12,0:0:0:0:
152,169,184035,1,0,0:0:0:0:
152,169,184120,1,0,0:0:0:0:
152,169,184205,1,8,0:0:0:0:
152,169,184248,1,8,0:0:0:0:
148,175,184376,1,0,0:0:0:0:
150,175,184461,1,8,0:0:0:0:
150,175,184546,1,0,0:0:0:0:
155,163,184716,1,0,0:0:0:0:
150,175,184802,1,0,0:0:0:0:
155,163,184887,1,8,0:0:0:0:
155,163,184929,1,8,0:0:0:0:
142,172,185057,1,0,0:0:0:0:
153,177,185143,1,8,0:0:0:0:
154,177,185228,1,0,0:0:0:0:
154,177,185270,1,0,0:0:0:0:
158,167,185313,1,0,0:0:0:0:
152,164,185398,1,8,0:0:0:0:
152,164,185483,1,0,0:0:0:0:
152,164,185569,1,8,0:0:0:0:
155,163,185611,1,8,0:0:0:0:
159,166,185654,1,0,0:0:0:0:
159,166,185739,1,0,0:0:0:0:
159,166,185824,1,8,0:0:0:0:
159,166,185910,1,0,0:0:0:0:
154,161,185995,1,8,0:0:0:0:
156,162,186165,1,0,0:0:0:0:
156,162,186251,1,8,0:0:0:0:
156,162,186421,1,8,0:0:0:0:
152,164,186506,1,8,0:0:0:0:
152,164,186591,1,0,0:0:0:0:
131,166,186634,1,0,0:0:0:0:
131,166,186677,1,0,0:0:0:0:
131,166,186762,1,8,0:0:0:0:
131,166,186847,1,0,0:0:0:0:
131,166,186932,1,8,0:0:0:0:
131,166,186975,1,8,0:0:0:0:
154,161,187018,1,0,0:0:0:0:
156,162,187103,1,8,0:0:0:0:
156,162,187160,1,0,0:0:0:0:
156,162,187216,1,0,0:0:0:0:
156,162,187273,1,8,0:0:0:0:
145,157,187358,1,8,0:0:0:0:
145,157,187444,1,0,0:0:0:0:
127,152,187529,1,0,0:0:0:0:
127,152,187614,1,8,0:0:0:0:
127,152,187657,1,8,0:0:0:0:
127,162,187699,1,0,0:0:0:0:
131,166,187785,1,8,0:0:0:0:
131,166,187841,1,8,0:0:0:0:
131,166,187898,1,8,0:0:0:0:
131,166,187955,1,0,0:0:0:0:
131,162,188040,1,0,0:0:0:0:
131,162,188126,1,8,0:0:0:0:
131,162,188211,1,0,0:0:0:0:
131,162,188296,1,8,0:0:0:0:
131,162,188339,1,8,0:0:0:0:
131,162,188381,1,0,0:0:0:0:
133,152,188466,1,0,0:0:0:0:
133,152,188552,1,8,0:0:0:0:
122,161,188637,1,0,0:0:0:0:
122,161,188722,1,0,0:0:0:0:
141,154,188807,1,8,0:0:0:0:
166,164,188978,1,8,0:0:0:0:
166,164,189020,1,8,0:0:0:0:
166,164,189063,1,0,0:0:0:0:
166,164,189148,1,8,0:0:0:0:
166,164,189233,1,8,0:0:0:0:
166,164,189319,1,4,0:0:0:0:
185,169,189489,1,0,0:0:0:0:
178,170,189574,1,8,0:0:0:0:
178,170,189660,1,0,0:0:0:0:
178,170,189702,1,0,0:0:0:0:
178,170,189830,1,8,0:0:0:0:
178,170,189873,1,8,0:0:0:0:
166,164,190001,1,0,0:0:0:0:
166,164,190171,1,8,0:0:0:0:
166,164,190256,1,0,0:0:0:0:
166,164,190341,1,8,0:0:0:0:
151,170,190384,1,8,0:0:0:0:
120,170,190682,1,0,0:0:0:0:
120,170,190853,1,0,0:0:0:0:
120,170,190938,1,0,0:0:0:0:
120,170,191023,1,8,0:0:0:0:
119,177,191194,1,0,0:0:0:0:
119,177,191279,1,8,0:0:0:0:
119,177,191322,1,8,0:0:0:0:
119,177,191364,1,0,0:0:0:0:
119,177,191449,1,8,0:0:0:0:
119,177,191535,1,0,0:0:0:0:
119,177,191620,1,0,0:0:0:0:
137,170,191705,1,8,0:0:0:0:
146,175,191876,1,8,0:0:0:0:
146,175,191961,1,8,0:0:0:0:
146,175,192046,1,4,0:0:0:0:
147,171,192216,1,0,0:0:0:0:
147,171,192302,1,8,0:0:0:0:
147,171,192387,1,0,0:0:0:0:
147,171,192429,1,0,0:0:0:0:
147,171,192472,1,8,0:0:0:0:
164,170,192643,1,8,0:0:0:0:
162,170,192728,1,0,0:0:0:0:
163,166,192898,1,0,0:0:0:0:
163,166,192983,1,0,0:0:0:0:
163,166,193069,1,8,0:0:0:0:
164,167,193111,1,8,0:0:0:0:
164,167,193239,1,0,0:0:0:0:
164,167,193324,1,8,0:0:0:0:
164,167,193410,1,0,0:0:0:0:
164,167,193495,1,0,0:0:0:0:
164,170,193580,1,8,0:0:0:0:
164,170,193665,1,0,0:0:0:0:
162,170,193751,1,8,0:0:0:0:
163,166,193793,1,8,0:0:0:0:
183,178,193921,1,0,0:0:0:0:
183,178,194006,1,0,0:0:0:0:
183,178,194091,1,8,0:0:0:0:
183,178,194177,1,0,0:0:0:0:
183,178,194262,1,8,0:0:0:0:
189,177,194347,1,8,0:0:0:0:
183,178,194433,1,0,0:0:0:0:
189,177,194475,1,0,0:0:0:0:
186,180,194603,1,8,0:0:0:0:
186,180,194645,1,8,0:0:0:0:
183,178,194773,1,4,0:0:0:0:
182,185,195029,1,8,0:0:0:0:
182,185,195114,1,0,0:0:0:0:
182,185,195199,1,8,0:0:0:0:
182,185,195242,1,8,0:0:0:0:
182,185,195370,1,8,0:0:0:0:
182,185,195455,1,0,0:0:0:0:
182,185,195498,1,0,0:0:0:0:
192,186,195626,1,0,0:0:0:0:
192,186,195711,1,0,0:0:0:0:
192,186,195796,1,8,0:0:0:0:
192,186,195881,1,0,0:0:0:0:
192,186,195966,1,8,0:0:0:0:
193,182,196137,1,0,0:0:0:0:
193,182,196222,1,0,0:0:0:0:
193,182,196307,1,8,0:0:0:0:
193,182,196350,1,8,0:0:0:0:
193,182,196393,1,0,0:0:0:0:
193,182,196478,1,8,0:0:0:0:
192,186,196563,1,0,0:0:0:0:
192,186,196648,1,8,0:0:0:0:
192,186,196691,1,0,0:0:0:0:
192,186,196733,1,0,0:0:0:0:
192,186,196819,1,8,0:0:0:0:
211,179,196904,1,8,0:0:0:0:
211,179,196989,1,0,0:0:0:0:
211,179,197074,1,0,0:0:0:0:
211,179,197160,1,8,0:0:0:0:
211,179,197330,1,0,0:0:0:0:
211,179,197415,1,0,0:0:0:0:
211,179,197501,1,12,0:0:0:0:
211,179,197671,1,8,0:0:0:0:
211,179,197756,1,0,0:0:0:0:
211,179,197841,1,8,0:0:0:0:
211,179,197898,1,0,0:0:0:0:
211,179,197955,1,0,0:0:0:0:
211,179,198012,1,8,0:0:0:0:
211,179,198097,1,8,0:0:0:0:
211,179,198182,1,0,0:0:0:0:
211,179,198268,1,0,0:0:0:0:
211,179,198353,1,8,0:0:0:0:
217,175,198438,1,0,0:0:0:0:
216,175,198523,1,8,0:0:0:0:
216,175,198566,1,8,0:0:0:0:
216,175,198694,1,8,0:0:0:0:
216,175,198779,1,8,0:0:0:0:
216,175,198864,1,0,0:0:0:0:
223,168,198949,1,0,0:0:0:0:
223,168,199035,1,0,0:0:0:0:
223,168,199120,1,0,0:0:0:0:
223,168,199205,1,8,0:0:0:0:
233,169,199290,1,0,0:0:0:0:
233,169,199461,1,0,0:0:0:0:
233,169,199546,1,8,0:0:0:0:
257,176,199631,1,0,0:0:0:0:
233,169,199716,1,0,0:0:0:0:
233,169,199802,1,8,0:0:0:0:
233,169,199887,1,0,0:0:0:0:
233,169,199972,1,0,0:0:0:0:
233,169,200057,1,8,0:0:0:0:
234,174,200228,5,4,0:0:0:0:
233,174,201615,5,8,0:0:0:0:
233,174,203002,1,8,0:0:0:0:
233,174,204413,1,8,0:0:0:0:
233,174,205841,1,8,0:0:0:0:
233,174,205932,1,8,0:0:0:0:
233,174,206023,1,0,0:0:0:0:
233,174,206115,1,0,0:0:0:0:
233,174,206206,1,8,0:0:0:0:
233,174,206298,1,0,0:0:0:0:
233,174,206389,1,8,0:0:0:0:
233,174,206481,1,8,0:0:0:0:
219,169,206572,1,0,0:0:0:0:
220,169,206618,1,0,0:0:0:0:
220,169,206664,1,0,0:0:0:0:
220,169,206755,1,8,0:0:0:0:
212,169,206938,1,0,0:0:0:0:
213,169,207030,1,0,0:0:0:0:
213,169,207121,1,8,0:0:0:0:
222,173,207212,1,8,0:0:0:0:
222,173,207304,1,0,0:0:0:0:
221,168,207497,1,0,0:0:0:0:
219,169,207594,1,8,0:0:0:0:
220,169,207691,1,0,0:0:0:0:
221,168,207884,1,0,0:0:0:0:
221,168,207981,1,0,0:0:0:0:
221,168,208029,1,0,0:0:0:0:
221,168,208078,1,8,0:0:0:0:
222,173,208174,1,0,0:0:0:0:
222,173,208271,1,8,0:0:0:0:
221,168,208368,1,8,0:0:0:0:
221,168,208465,1,0,0:0:0:0:
219,169,208562,1,0,0:0:0:0:
220,169,208658,1,8,0:0:0:0:
221,168,208707,1,8,0:0:0:0:
221,168,208755,1,0,0:0:0:0:
205,162,208807,1,8,0:0:0:0:
225,169,208900,1,0,0:0:0:0:
225,169,208994,1,8,0:0:0:0:
225,169,209088,1,8,0:0:0:0:
222,173,209182,1,0,0:0:0:0:
221,168,209369,1,8,0:0:0:0:
221,168,209463,1,8,0:0:0:0:
219,169,209510,1,8,0:0:0:0:
219,169,209557,1,0,0:0:0:0:
220,169,209650,1,0,0:0:0:0:
221,168,209744,1,8,0:0:0:0:
222,168,209838,1,0,0:0:0:0:
225,169,209932,1,8,0:0:0:0:
225,169,210025,1,8,0:0:0:0:
225,169,210119,1,0,0:0:0:0:
221,168,210307,1,8,0:0:0:0:
221,168,210353,1,0,0:0:0:0:
221,168,210400,1,0,0:0:0:0:
221,168,210494,1,8,0:0:0:0:
219,169,210588,1,0,0:0:0:0:
220,169,210682,1,0,0:0:0:0:
221,168,210775,1,8,0:0:0:0:
222,168,210869,1,0,0:0:0:0:
225,169,210963,1,8,0:0:0:0:
225,169,211010,1,8,0:0:0:0:
225,169,211057,1,8,0:0:0:0:
225,169,211150,1,0,0:0:0:0:
221,168,211244,1,8,0:0:0:0:
221,168,211338,1,8,0:0:0:0:
221,168,211432,1,0,0:0:0:0:
222,168,211830,1,12,0:0:0:0:
207,176,212023,1,0,0:0:0:0:
207,176,212120,1,0,0:0:0:0:
212,176,212217,1,8,0:0:0:0:
212,176,212410,1,8,0:0:0:0:
232,180,212797,1,0,0:0:0:0:
232,180,212991,1,8,0:0:0:0:
232,180,213184,1,8,0:0:0:0:
232,180,213378,1,0,0:0:0:0:
232,180,213765,1,8,0:0:0:0:
232,180,213959,1,0,0:0:0:0:
232,180,214539,1,0,0:0:0:0:
232,180,214635,1,0,0:0:0:0:
232,180,214732,1,8,0:0:0:0:
232,180,214829,1,8,0:0:0:0:
232,180,214926,1,0,0:0:0:0:
208,176,215120,1,8,0:0:0:0:
208,176,215507,1,0,0:0:0:0:
208,176,215700,1,8,0:0:0:0:
208,176,216088,1,8,0:0:0:0:
208,176,216281,1,8,0:0:0:0:
208,176,216475,1,0,0:0:0:0:
208,176,217249,1,8,0:0:0:0:
208,176,217636,1,0,0:0:0:0:
208,176,217733,1,0,0:0:0:0:
208,176,217830,1,8,0:0:0:0:
208,176,217926,1,8,0:0:0:0:
208,176,218023,1,0,0:0:0:0:
208,176,218217,1,8,0:0:0:0:
208,176,218410,1,0,0:0:0:0:
208,176,218604,1,8,0:0:0:0:
205,180,218991,1,0,0:0:0:0:
205,180,219184,1,8,0:0:0:0:
205,180,219378,1,0,0:0:0:0:
205,180,219765,1,8,0:0:0:0:
205,180,220733,1,0,0:0:0:0:
205,180,220830,1,0,0:0:0:0:
205,180,220926,1,8,0:0:0:0:
205,180,221023,1,8,0:0:0:0:
205,180,221120,1,8,0:0:0:0:
217,176,221313,1,0,0:0:0:0:
216,176,221507,1,0,0:0:0:0:
216,176,221894,1,8,0:0:0:0:
217,176,222281,1,0,0:0:0:0:
216,176,222475,1,8,0:0:0:0:
207,173,222668,1,0,0:0:0:0:
207,173,223830,1,0,0:0:0:0:
207,173,223926,1,0,0:0:0:0:
207,173,224023,1,0,0:0:0:0:
202,162,224217,1,8,0:0:0:0:
202,162,224410,1,8,0:0:0:0:
202,162,224604,1,0,0:0:0:0:
202,162,224797,1,8,0:0:0:0:
202,162,225184,1,0,0:0:0:0:
202,162,225378,1,8,0:0:0:0:
202,162,225571,1,8,0:0:0:0:
202,162,225765,1,8,0:0:0:0:
202,162,226152,1,8,0:0:0:0:
202,162,226346,1,0,0:0:0:0:
202,162,226926,1,0,0:0:0:0:
202,162,227023,1,0,0:0:0:0:
202,162,227120,1,8,0:0:0:0:
202,162,227217,1,8,0:0:0:0:
202,162,227313,1,0,0:0:0:0:
202,162,227507,1,8,0:0:0:0:
202,162,227894,1,8,0:0:0:0:
202,162,228088,1,0,0:0:0:0:
202,162,228475,1,0,0:0:0:0:
202,162,228668,1,8,0:0:0:0:
202,162,228862,1,0,0:0:0:0:
203,163,230023,1,0,0:0:0:0:
203,163,230120,1,0,0:0:0:0:
203,163,230217,1,8,0:0:0:0:
203,163,230313,1,8,0:0:0:0:
203,163,230410,1,0,0:0:0:0:
203,163,230604,1,8,0:0:0:0:
203,163,230797,1,0,0:0:0:0:
203,163,230991,1,8,0:0:0:0:
195,137,231378,1,0,0:0:0:0:
196,149,231571,1,8,0:0:0:0:
203,138,231765,1,0,0:0:0:0:
203,138,232152,1,8,0:0:0:0:
219,162,233120,1,0,0:0:0:0:
219,162,233217,1,0,0:0:0:0:
219,162,233313,1,8,0:0:0:0:
219,162,233410,1,8,0:0:0:0:
219,162,233507,1,8,0:0:0:0:
219,162,233700,1,0,0:0:0:0:
216,166,233894,1,0,0:0:0:0:
219,162,234281,1,8,0:0:0:0:
219,162,234668,1,0,0:0:0:0:
216,160,234862,1,8,0:0:0:0:
219,162,235055,1,0,0:0:0:0:
256,192,235249,12,0,236217,0:0:0:0:
242,180,236604,5,0,0:0:0:0:
242,180,236797,1,0,0:0:0:0:
242,180,236991,1,8,0:0:0:0:
242,180,237184,1,0,0:0:0:0:
233,174,237571,1,0,0:0:0:0:
233,174,237959,1,0,0:0:0:0:
233,174,238055,1,0,0:0:0:0:
233,175,238152,1,0,0:0:0:0:
233,174,239120,1,0,0:0:0:0:
241,170,239507,1,0,0:0:0:0:
241,170,239604,1,0,0:0:0:0:
241,170,239700,1,0,0:0:0:0:
243,172,239894,1,8,0:0:0:0:
243,172,240088,1,0,0:0:0:0:
224,168,240281,1,8,0:0:0:0:
225,168,240475,1,0,0:0:0:0:
225,168,240571,1,0,0:0:0:0:
225,168,240668,1,0,0:0:0:0:
225,168,241055,1,0,0:0:0:0:
225,168,241152,1,0,0:0:0:0:
225,168,241249,1,0,0:0:0:0:
216,164,242023,1,0,0:0:0:0:
222,183,242120,1,0,0:0:0:0:
222,183,242217,1,0,0:0:0:0:
226,167,242410,1,0,0:0:0:0:
226,167,242604,1,0,0:0:0:0:
226,167,242797,1,8,0:0:0:0:
192,180,242991,1,0,0:0:0:0:
192,180,243184,1,8,0:0:0:0:
192,180,243378,1,0,0:0:0:0:
185,187,243765,1,0,0:0:0:0:
185,187,244152,1,0,0:0:0:0:
186,187,244249,1,0,0:0:0:0:
186,187,244346,1,0,0:0:0:0:
186,187,245313,1,0,0:0:0:0:
186,187,245700,1,0,0:0:0:0:
186,187,245797,1,0,0:0:0:0:
186,187,245894,1,0,0:0:0:0:
186,187,246088,1,8,0:0:0:0:
186,187,246281,1,0,0:0:0:0:
186,187,246475,1,8,0:0:0:0:
186,187,246668,1,0,0:0:0:0:
186,187,246765,1,0,0:0:0:0:
186,187,246862,1,0,0:0:0:0:
186,187,247055,1,8,0:0:0:0:
186,187,247249,1,0,0:0:0:0:
186,187,247346,1,0,0:0:0:0:
186,187,247442,1,0,0:0:0:0:
193,167,248217,1,0,0:0:0:0:
193,167,248313,1,0,0:0:0:0:
193,167,248410,1,8,0:0:0:0:
193,167,248442,1,8,0:0:0:0:
170,177,248604,1,0,0:0:0:0:
170,177,248797,1,0,0:0:0:0:
170,177,248991,1,0,0:0:0:0:
171,170,249184,1,0,0:0:0:0:
171,170,249378,1,8,0:0:0:0:
171,170,249571,1,0,0:0:0:0:
171,170,249765,1,8,0:0:0:0:
171,170,249959,1,0,0:0:0:0:
171,170,250152,1,8,0:0:0:0:
171,170,250346,1,0,0:0:0:0:
171,170,250442,1,0,0:0:0:0:
171,170,250539,1,8,0:0:0:0:
171,170,250570,1,8,0:0:0:0:
253,190,251289,1,0,0:0:0:0:
236,190,251476,1,8,0:0:0:0:
234,190,251851,1,0,0:0:0:0:
234,190,251945,1,0,0:0:0:0:
234,190,252039,1,0,0:0:0:0:
234,190,252224,1,8,0:0:0:0:
234,190,252316,1,0,0:0:0:0:
236,190,252409,1,8,0:0:0:0:
234,190,252594,1,0,0:0:0:0:
234,190,252779,1,8,0:0:0:0:
234,190,252872,1,8,0:0:0:0:
234,190,252964,1,0,0:0:0:0:
234,190,253150,1,8,0:0:0:0:
234,190,253335,1,0,0:0:0:0:
234,190,253427,1,0,0:0:0:0:
234,190,253520,1,8,0:0:0:0:
221,182,254068,1,0,0:0:0:0:
221,182,254251,1,0,0:0:0:0:
221,182,254343,1,0,0:0:0:0:
221,182,254434,1,8,0:0:0:0:
221,182,254617,1,0,0:0:0:0:
221,182,254800,1,8,0:0:0:0:
221,182,254891,1,0,0:0:0:0:
221,182,254983,1,8,0:0:0:0:
221,182,255162,1,8,0:0:0:0:
221,182,255342,1,0,0:0:0:0:
221,182,255432,1,0,0:0:0:0:
221,182,255521,1,8,0:0:0:0:
221,182,255701,1,0,0:0:0:0:
221,182,255881,1,8,0:0:0:0:
215,174,256060,1,0,0:0:0:0:
215,174,256240,1,8,0:0:0:0:
221,182,256330,1,8,0:0:0:0:
221,182,256420,1,0,0:0:0:0:
206,174,256772,1,0,0:0:0:0:
206,174,256949,1,0,0:0:0:0:
206,174,257037,1,0,0:0:0:0:
206,174,257302,1,8,0:0:0:0:
206,174,257478,1,0,0:0:0:0:
206,174,257655,1,0,0:0:0:0:
206,174,257743,1,0,0:0:0:0:
206,174,257831,1,8,0:0:0:0:
224,173,258005,1,8,0:0:0:0:
224,173,258092,1,0,0:0:0:0:
224,173,258179,1,8,0:0:0:0:
224,173,258354,1,0,0:0:0:0:
224,173,258528,1,8,0:0:0:0:
224,173,258615,1,8,0:0:0:0:
224,173,258703,1,0,0:0:0:0:
224,173,258790,1,0,0:0:0:0:
224,173,258877,1,8,0:0:0:0:
224,173,259051,1,8,0:0:0:0:
224,173,259139,1,8,0:0:0:0:
224,173,259226,1,0,0:0:0:0:
223,159,259268,1,0,0:0:0:0:
223,159,259311,1,0,0:0:0:0:
223,159,259353,1,0,0:0:0:0:
223,159,259396,1,8,0:0:0:0:
223,159,259481,1,8,0:0:0:0:
223,159,259566,1,0,0:0:0:0:
229,160,259652,1,8,0:0:0:0:
229,160,259737,1,0,0:0:0:0:
229,160,259822,1,8,0:0:0:0:
229,160,259907,1,0,0:0:0:0:
229,160,259993,1,0,0:0:0:0:
229,160,260078,1,8,0:0:0:0:
229,160,260163,1,0,0:0:0:0:
229,160,260248,1,8,0:0:0:0:
229,160,260333,1,0,0:0:0:0:
229,160,260419,1,8,0:0:0:0:
229,160,260504,1,0,0:0:0:0:
229,160,260589,1,12,0:0:0:0:
229,160,260930,1,0,0:0:0:0:
229,160,261271,1,8,0:0:0:0:
229,160,261612,1,8,0:0:0:0:
229,160,261953,1,0,0:0:0:0:
229,160,262805,1,0,0:0:0:0:
229,160,262976,1,8,0:0:0:0:
229,160,263146,1,8,0:0:0:0:
229,160,263316,1,0,0:0:0:0:
231,154,263657,1,0,0:0:0:0:
231,154,263828,1,8,0:0:0:0:
231,154,263998,1,0,0:0:0:0:
231,154,264169,1,0,0:0:0:0:
231,154,264339,1,8,0:0:0:0:
231,154,264510,1,0,0:0:0:0:
233,158,264680,1,8,0:0:0:0:
233,158,265532,1,0,0:0:0:0:
233,158,265703,1,0,0:0:0:0:
233,158,265873,1,8,0:0:0:0:
233,158,266044,1,0,0:0:0:0:
219,157,266385,1,8,0:0:0:0:
219,157,266555,1,0,0:0:0:0:
219,157,266726,1,8,0:0:0:0:
219,157,266896,1,8,0:0:0:0:
219,157,267066,1,0,0:0:0:0:
219,157,267237,1,8,0:0:0:0:
219,157,267407,1,0,0:0:0:0:
202,173,268260,1,0,0:0:0:0:
202,173,268430,1,8,0:0:0:0:
202,173,268601,1,8,0:0:0:0:
202,173,268771,1,0,0:0:0:0:
206,176,269112,1,0,0:0:0:0:
206,176,269282,1,8,0:0:0:0:
206,176,269453,1,8,0:0:0:0:
206,176,269623,1,0,0:0:0:0:
206,176,269794,1,8,0:0:0:0:
206,176,269964,1,0,0:0:0:0:
206,176,270135,1,8,0:0:0:0:
202,167,270816,1,0,0:0:0:0:
202,167,271498,1,12,0:0:0:0:
209,164,271669,1,0,0:0:0:0:
209,164,271754,1,8,0:0:0:0:
209,164,271839,1,0,0:0:0:0:
209,164,271924,1,0,0:0:0:0:
209,164,272010,1,8,0:0:0:0:
209,164,272095,1,0,0:0:0:0:
209,164,272137,1,0,0:0:0:0:
209,164,272180,1,8,0:0:0:0:
202,167,272351,1,8,0:0:0:0:
202,167,272436,1,0,0:0:0:0:
202,167,272521,1,8,0:0:0:0:
200,167,272606,1,8,0:0:0:0:
200,167,272691,1,0,0:0:0:0:
200,167,272777,1,8,0:0:0:0:
200,167,272819,1,8,0:0:0:0:
200,167,272862,1,0,0:0:0:0:
200,167,273032,1,0,0:0:0:0:
200,167,273118,1,0,0:0:0:0:
200,167,273203,1,8,0:0:0:0:
202,167,273288,1,8,0:0:0:0:
202,167,273373,1,0,0:0:0:0:
202,167,273458,1,8,0:0:0:0:
202,167,273501,1,0,0:0:0:0:
202,167,273544,1,0,0:0:0:0:
216,162,273714,1,8,0:0:0:0:
216,162,273799,1,8,0:0:0:0:
216,162,273885,1,0,0:0:0:0:
216,162,273970,1,0,0:0:0:0:
216,162,274055,1,8,0:0:0:0:
216,162,274140,1,0,0:0:0:0:
216,162,274183,1,0,0:0:0:0:
216,162,274226,1,8,0:0:0:0:
216,162,274396,1,0,0:0:0:0:
216,162,274481,1,8,0:0:0:0:
216,162,274566,1,8,0:0:0:0:
216,162,274652,1,0,0:0:0:0:
216,162,274737,1,0,0:0:0:0:
216,162,274822,1,8,0:0:0:0:
216,162,274865,1,8,0:0:0:0:
216,162,274907,1,0,0:0:0:0:
211,167,275078,1,8,0:0:0:0:
211,167,275163,1,8,0:0:0:0:
211,167,275248,1,0,0:0:0:0:
211,167,275333,1,8,0:0:0:0:
211,167,275419,1,0,0:0:0:0:
211,167,275504,1,8,0:0:0:0:
211,167,275547,1,0,0:0:0:0:
211,167,275589,1,0,0:0:0:0:
206,164,275760,1,0,0:0:0:0:
206,164,275845,1,8,0:0:0:0:
206,164,275930,1,0,0:0:0:0:
206,164,276015,1,8,0:0:0:0:
206,164,276101,1,8,0:0:0:0:
206,164,276186,1,0,0:0:0:0:
206,164,276228,1,0,0:0:0:0:
206,164,276271,1,8,0:0:0:0:
221,172,276441,1,8,0:0:0:0:
221,172,276527,1,0,0:0:0:0:
221,172,276612,1,0,0:0:0:0:
221,172,276697,1,8,0:0:0:0:
221,172,276782,1,0,0:0:0:0:
221,172,276868,1,8,0:0:0:0:
221,172,276910,1,8,0:0:0:0:
221,172,276953,1,0,0:0:0:0:
221,172,277038,1,0,0:0:0:0:
221,172,277123,1,8,0:0:0:0:
221,172,277208,1,8,0:0:0:0:
221,172,277294,1,0,0:0:0:0:
221,172,277379,1,0,0:0:0:0:
221,172,277464,1,8,0:0:0:0:
221,172,277549,1,0,0:0:0:0:
221,172,277635,1,8,0:0:0:0:
221,172,277720,1,8,0:0:0:0:
221,172,277805,1,0,0:0:0:0:
221,172,277890,1,8,0:0:0:0:
221,172,277976,1,0,0:0:0:0:
221,172,278061,1,0,0:0:0:0:
221,172,278146,1,8,0:0:0:0:
216,169,278231,1,8,0:0:0:0:
216,169,278316,1,0,0:0:0:0:
216,169,278402,1,8,0:0:0:0:
216,169,278487,1,0,0:0:0:0:
216,169,278572,1,8,0:0:0:0:
216,169,278657,1,8,0:0:0:0:
216,169,278743,1,0,0:0:0:0:
216,169,278828,1,0,0:0:0:0:
216,169,278913,1,8,0:0:0:0:
216,169,278998,1,0,0:0:0:0:
216,169,279083,1,0,0:0:0:0:
216,169,279169,1,8,0:0:0:0:
216,169,279254,1,0,0:0:0:0:
216,169,279339,1,8,0:0:0:0:
233,178,279424,1,8,0:0:0:0:
226,180,279510,1,0,0:0:0:0:
226,180,279595,1,8,0:0:0:0:
226,180,279680,1,0,0:0:0:0:
226,180,279765,1,0,0:0:0:0:
226,180,279851,1,8,0:0:0:0:
226,180,279936,1,0,0:0:0:0:
226,180,280021,1,8,0:0:0:0:
226,180,280106,1,8,0:0:0:0:
226,180,280191,1,8,0:0:0:0:
226,180,280277,1,0,0:0:0:0:
226,180,280362,1,8,0:0:0:0:
226,180,280447,1,8,0:0:0:0:
226,180,280532,1,0,0:0:0:0:
226,180,280618,1,8,0:0:0:0:
226,180,280703,1,0,0:0:0:0:
226,180,280788,1,0,0:0:0:0:
226,180,280873,1,8,0:0:0:0:
226,180,280958,1,0,0:0:0:0:
226,180,281044,1,8,0:0:0:0:
226,180,281129,1,0,0:0:0:0:
226,180,281214,1,0,0:0:0:0:
226,180,281299,1,8,0:0:0:0:
226,180,281385,1,0,0:0:0:0:
226,180,281470,1,8,0:0:0:0:
226,180,281555,1,8,0:0:0:0:
226,180,281640,1,0,0:0:0:0:
226,180,281726,1,8,0:0:0:0:
226,180,281811,1,0,0:0:0:0:
226,180,281896,1,0,0:0:0:0:
226,180,281981,1,8,0:0:0:0:
226,180,282066,1,0,0:0:0:0:
226,180,282152,1,8,0:0:0:0:
226,180,282237,1,8,0:0:0:0:
226,180,282322,1,0,0:0:0:0:
226,180,282407,1,8,0:0:0:0:
226,180,282436,1,8,0:0:0:0:
229,170,283089,1,8,0:0:0:0:
229,170,283174,1,8,0:0:0:0:
229,170,283260,1,0,0:0:0:0:
229,170,283345,1,0,0:0:0:0:
229,170,283430,1,8,0:0:0:0:
229,170,283515,1,0,0:0:0:0:
229,170,283601,1,8,0:0:0:0:
229,170,283686,1,8,0:0:0:0:
229,170,283771,1,4,0:0:0:0:
226,165,283941,1,8,0:0:0:0:
226,165,284027,1,8,0:0:0:0:
226,165,284112,1,0,0:0:0:0:
226,165,284197,1,0,0:0:0:0:
226,165,284282,1,8,0:0:0:0:
226,165,284368,1,0,0:0:0:0:
226,165,284453,1,8,0:0:0:0:
221,165,284538,1,8,0:0:0:0:
221,165,284623,1,0,0:0:0:0:
221,165,284708,1,8,0:0:0:0:
221,165,284794,1,0,0:0:0:0:
210,167,284879,1,0,0:0:0:0:
210,167,284964,1,8,0:0:0:0:
210,167,285049,1,0,0:0:0:0:
210,167,285135,1,8,0:0:0:0:
210,167,285220,1,8,0:0:0:0:
210,167,285305,1,0,0:0:0:0:
210,167,285390,1,8,0:0:0:0:
210,167,285476,1,0,0:0:0:0:
210,167,285561,1,0,0:0:0:0:
210,167,285646,1,8,0:0:0:0:
209,167,285731,1,8,0:0:0:0:
209,167,285816,1,0,0:0:0:0:
210,167,285902,1,8,0:0:0:0:
210,167,285987,1,8,0:0:0:0:
210,167,286072,1,0,0:0:0:0:
210,167,286157,1,0,0:0:0:0:
210,167,286243,1,8,0:0:0:0:
210,167,286328,1,0,0:0:0:0:
210,167,286413,1,8,0:0:0:0:
203,171,286498,1,0,0:0:0:0:
210,167,286583,1,0,0:0:0:0:
210,167,286669,1,8,0:0:0:0:
209,167,286754,1,0,0:0:0:0:
209,167,286839,1,0,0:0:0:0:
210,167,286924,1,8,0:0:0:0:
210,167,287010,1,0,0:0:0:0:
210,167,287095,1,8,0:0:0:0:
210,167,287180,1,0,0:0:0:0:
210,167,287265,1,8,0:0:0:0:
210,167,287351,1,8,0:0:0:0:
210,167,287436,1,0,0:0:0:0:
206,167,287521,1,0,0:0:0:0:
214,161,287606,1,8,0:0:0:0:
214,161,287691,1,8,0:0:0:0:
213,161,287777,1,8,0:0:0:0:
213,161,287862,1,0,0:0:0:0:
213,161,287947,1,0,0:0:0:0:
213,161,288032,1,8,0:0:0:0:
213,161,288118,1,8,0:0:0:0:
212,161,288203,1,0,0:0:0:0:
212,161,288288,1,8,0:0:0:0:
212,161,288373,1,0,0:0:0:0:
212,161,288458,1,0,0:0:0:0:
212,161,288544,1,8,0:0:0:0:
222,164,288629,1,8,0:0:0:0:
222,164,288714,1,8,0:0:0:0:
222,164,288799,1,0,0:0:0:0:
222,164,288885,1,8,0:0:0:0:
222,164,288970,1,0,0:0:0:0:
222,164,289055,1,0,0:0:0:0:
222,164,289140,1,0,0:0:0:0:
222,164,289226,1,12,0:0:0:0:
218,158,289396,1,0,0:0:0:0:
218,158,289481,1,8,0:0:0:0:
218,158,289566,1,0,0:0:0:0:
218,158,289652,1,0,0:0:0:0:
218,158,289737,1,8,0:0:0:0:
218,158,289822,1,0,0:0:0:0:
218,158,289907,1,8,0:0:0:0:
218,158,289993,1,8,0:0:0:0:
218,158,290078,1,0,0:0:0:0:
218,158,290163,1,8,0:0:0:0:
218,158,290248,1,0,0:0:0:0:
218,158,290333,1,0,0:0:0:0:
218,158,290419,1,8,0:0:0:0:
218,158,290504,1,0,0:0:0:0:
218,158,290589,1,8,0:0:0:0:
218,158,290674,1,0,0:0:0:0:
218,158,290760,1,8,0:0:0:0:
218,158,290845,1,8,0:0:0:0:
218,158,290930,1,8,0:0:0:0:
218,158,291015,1,0,0:0:0:0:
218,158,291101,1,8,0:0:0:0:
218,158,291186,1,8,0:0:0:0:
218,158,291271,1,0,0:0:0:0:
218,158,291356,1,0,0:0:0:0:
218,158,291441,1,8,0:0:0:0:
218,158,291527,1,0,0:0:0:0:
218,158,291612,1,0,0:0:0:0:
218,158,291697,1,0,0:0:0:0:
218,158,291782,1,8,0:0:0:0:
218,158,291868,1,0,0:0:0:0:
218,158,291953,1,8,0:0:0:0:
210,167,292038,1,0,0:0:0:0:
213,170,292123,1,8,0:0:0:0:
213,170,292208,1,8,0:0:0:0:
213,170,292294,1,0,0:0:0:0:
213,170,292379,1,8,0:0:0:0:
212,170,292464,1,0,0:0:0:0:
213,170,292549,1,0,0:0:0:0:
212,170,292635,1,8,0:0:0:0:
212,170,292720,1,0,0:0:0:0:
212,170,292805,1,8,0:0:0:0:
212,170,292890,1,8,0:0:0:0:
212,170,292976,1,0,0:0:0:0:
213,170,293061,1,0,0:0:0:0:
213,170,293146,1,8,0:0:0:0:
213,170,293231,1,0,0:0:0:0:
213,170,293316,1,8,0:0:0:0:
213,170,293402,1,8,0:0:0:0:
212,170,293487,1,8,0:0:0:0:
213,170,293572,1,0,0:0:0:0:
212,170,293657,1,8,0:0:0:0:
212,170,293743,1,0,0:0:0:0:
212,170,293828,1,0,0:0:0:0:
212,170,293913,1,0,0:0:0:0:
212,170,293998,1,8,0:0:0:0:
213,170,294083,1,8,0:0:0:0:
213,170,294169,1,0,0:0:0:0:
213,170,294254,1,0,0:0:0:0:
213,170,294339,1,8,0:0:0:0:
213,170,294424,1,0,0:0:0:0:
212,170,294510,1,8,0:0:0:0:
213,170,294595,1,8,0:0:0:0:
212,170,294680,1,4,0:0:0:0:
215,173,294851,1,0,0:0:0:0:
215,173,294936,1,8,0:0:0:0:
215,173,295021,1,0,0:0:0:0:
213,170,295106,1,0,0:0:0:0:
213,170,295191,1,8,0:0:0:0:
213,170,295277,1,0,0:0:0:0:
213,170,295362,1,8,0:0:0:0:
213,170,295447,1,8,0:0:0:0:
215,173,295532,1,0,0:0:0:0:
213,170,295618,1,0,0:0:0:0:
215,173,295703,1,8,0:0:0:0:
215,173,295788,1,0,0:0:0:0:
215,173,295873,1,8,0:0:0:0:
215,173,295958,1,8,0:0:0:0:
215,173,296044,1,0,0:0:0:0:
213,170,296129,1,0,0:0:0:0:
213,170,296214,1,0,0:0:0:0:
213,170,296299,1,8,0:0:0:0:
213,170,296385,1,0,0:0:0:0:
213,170,296470,1,0,0:0:0:0:
215,173,296555,1,8,0:0:0:0:
213,170,296640,1,0,0:0:0:0:
215,173,296726,1,8,0:0:0:0:
215,173,296811,1,8,0:0:0:0:
215,173,296896,1,8,0:0:0:0:
215,173,296981,1,0,0:0:0:0:
215,173,297066,1,8,0:0:0:0:
213,170,297152,1,8,0:0:0:0:
213,170,297237,1,0,0:0:0:0:
213,170,297322,1,0,0:0:0:0:
213,170,297407,1,8,0:0:0:0:
205,167,297493,1,8,0:0:0:0:
215,173,297578,1,0,0:0:0:0:
213,175,297663,1,0,0:0:0:0:
215,173,297748,1,8,0:0:0:0:
215,173,297833,1,0,0:0:0:0:
215,173,297919,1,8,0:0:0:0:
215,173,298004,1,8,0:0:0:0:
215,173,298089,1,0,0:0:0:0:
213,175,298174,1,0,0:0:0:0:
213,175,298260,1,8,0:0:0:0:
213,175,298345,1,0,0:0:0:0:
213,175,298430,1,8,0:0:0:0:
215,173,298515,1,8,0:0:0:0:
215,173,298601,1,0,0:0:0:0:
213,175,298686,1,0,0:0:0:0:
215,173,298771,1,8,0:0:0:0:
215,173,298856,1,0,0:0:0:0:
215,173,298941,1,8,0:0:0:0:
215,173,299027,1,8,0:0:0:0:
215,173,299112,1,8,0:0:0:0:
213,175,299197,1,0,0:0:0:0:
213,175,299282,1,8,0:0:0:0:
213,175,299368,1,0,0:0:0:0:
213,175,299453,1,8,0:0:0:0:
215,173,299538,1,8,0:0:0:0:
215,173,299623,1,8,0:0:0:0:
213,175,299708,1,0,0:0:0:0:
215,173,299794,1,8,0:0:0:0:
215,173,299879,1,8,0:0:0:0:
215,173,299964,1,0,0:0:0:0:
215,173,300049,1,0,0:0:0:0:
215,173,300135,1,12,0:0:0:0:
226,165,300305,1,8,0:0:0:0:
226,165,300391,1,8,0:0:0:0:
226,165,300476,1,0,0:0:0:0:
226,165,300561,1,0,0:0:0:0:
226,165,300646,1,8,0:0:0:0:
226,165,300732,1,0,0:0:0:0:
226,165,300817,1,8,0:0:0:0:
221,165,300902,1,8,0:0:0:0:
221,165,300987,1,0,0:0:0:0:
221,165,301072,1,8,0:0:0:0:
221,165,301158,1,0,0:0:0:0:
210,167,301243,1,0,0:0:0:0:
210,167,301328,1,8,0:0:0:0:
210,167,301413,1,0,0:0:0:0:
210,167,301499,1,8,0:0:0:0:
210,167,301584,1,8,0:0:0:0:
210,167,301669,1,0,0:0:0:0:
210,167,301754,1,8,0:0:0:0:
210,167,301840,1,0,0:0:0:0:
210,167,301925,1,0,0:0:0:0:
210,167,302010,1,8,0:0:0:0:
209,167,302095,1,8,0:0:0:0:
209,167,302180,1,0,0:0:0:0:
210,167,302266,1,8,0:0:0:0:
210,167,302351,1,8,0:0:0:0:
210,167,302436,1,0,0:0:0:0:
210,167,302521,1,0,0:0:0:0:
210,167,302607,1,8,0:0:0:0:
210,167,302692,1,0,0:0:0:0:
210,167,302777,1,8,0:0:0:0:
203,171,302862,1,0,0:0:0:0:
210,167,302947,1,0,0:0:0:0:
210,167,303033,1,8,0:0:0:0:
209,167,303118,1,0,0:0:0:0:
209,167,303203,1,0,0:0:0:0:
210,167,303288,1,8,0:0:0:0:
210,167,303374,1,0,0:0:0:0:
210,167,303459,1,8,0:0:0:0:
210,167,303544,1,0,0:0:0:0:
210,167,303629,1,8,0:0:0:0:
210,167,303715,1,8,0:0:0:0:
210,167,303800,1,0,0:0:0:0:
206,167,303885,1,0,0:0:0:0:
214,161,303970,1,8,0:0:0:0:
214,161,304055,1,8,0:0:0:0:
213,161,304141,1,8,0:0:0:0:
213,161,304226,1,0,0:0:0:0:
213,161,304311,1,0,0:0:0:0:
213,161,304396,1,8,0:0:0:0:
213,161,304482,1,8,0:0:0:0:
212,161,304567,1,0,0:0:0:0:
212,161,304652,1,8,0:0:0:0:
212,161,304737,1,0,0:0:0:0:
212,161,304822,1,0,0:0:0:0:
212,161,304908,1,8,0:0:0:0:
222,164,304993,1,8,0:0:0:0:
222,164,305078,1,8,0:0:0:0:
222,164,305163,1,0,0:0:0:0:
222,164,305249,1,8,0:0:0:0:
222,164,305334,1,0,0:0:0:0:
222,164,305419,1,0,0:0:0:0:
222,164,305504,1,0,0:0:0:0:
222,164,305589,1,12,0:0:0:0:
218,158,305760,1,0,0:0:0:0:
218,158,305845,1,8,0:0:0:0:
218,158,305930,1,0,0:0:0:0:
218,158,306016,1,0,0:0:0:0:
218,158,306101,1,8,0:0:0:0:
218,158,306186,1,0,0:0:0:0:
218,158,306271,1,8,0:0:0:0:
218,158,306357,1,8,0:0:0:0:
218,158,306442,1,0,0:0:0:0:
218,158,306527,1,8,0:0:0:0:
218,158,306612,1,0,0:0:0:0:
218,158,306697,1,0,0:0:0:0:
218,158,306783,1,8,0:0:0:0:
218,158,306868,1,0,0:0:0:0:
218,158,306953,1,8,0:0:0:0:
205,167,307038,1,0,0:0:0:0:
218,158,307124,1,8,0:0:0:0:
218,158,307209,1,8,0:0:0:0:
218,158,307294,1,8,0:0:0:0:
218,158,307379,1,0,0:0:0:0:
218,158,307465,1,8,0:0:0:0:
218,158,307550,1,8,0:0:0:0:
218,158,307635,1,0,0:0:0:0:
218,158,307720,1,0,0:0:0:0:
218,158,307805,1,8,0:0:0:0:
218,158,307891,1,0,0:0:0:0:
218,158,307976,1,0,0:0:0:0:
218,158,308061,1,0,0:0:0:0:
218,158,308146,1,8,0:0:0:0:
218,158,308232,1,0,0:0:0:0:
218,158,308316,1,8,0:0:0:0:
205,167,308402,1,0,0:0:0:0:
213,170,308487,1,8,0:0:0:0:
213,170,308572,1,8,0:0:0:0:
213,170,308658,1,0,0:0:0:0:
213,170,308743,1,8,0:0:0:0:
212,170,308828,1,0,0:0:0:0:
213,170,308913,1,0,0:0:0:0:
212,170,308999,1,8,0:0:0:0:
212,170,309084,1,0,0:0:0:0:
212,170,309169,1,8,0:0:0:0:
212,170,309254,1,8,0:0:0:0:
212,170,309340,1,0,0:0:0:0:
213,170,309425,1,0,0:0:0:0:
213,170,309510,1,8,0:0:0:0:
213,170,309595,1,0,0:0:0:0:
213,170,309680,1,8,0:0:0:0:
205,167,309765,1,8,0:0:0:0:
212,170,309851,1,8,0:0:0:0:
213,170,309936,1,0,0:0:0:0:
212,170,310021,1,8,0:0:0:0:
212,170,310107,1,0,0:0:0:0:
212,170,310192,1,0,0:0:0:0:
212,170,310277,1,0,0:0:0:0:
212,170,310362,1,8,0:0:0:0:
213,170,310447,1,8,0:0:0:0:
213,170,310533,1,0,0:0:0:0:
213,170,310618,1,0,0:0:0:0:
213,170,310703,1,8,0:0:0:0:
213,170,310788,1,0,0:0:0:0:
212,170,310874,1,8,0:0:0:0:
213,170,310959,1,8,0:0:0:0:
212,170,311044,1,4,0:0:0:0:
215,173,311215,1,0,0:0:0:0:
215,173,311300,1,8,0:0:0:0:
215,173,311385,1,0,0:0:0:0:
213,170,311470,1,0,0:0:0:0:
213,170,311555,1,8,0:0:0:0:
213,170,311641,1,0,0:0:0:0:
213,170,311726,1,8,0:0:0:0:
213,170,311811,1,8,0:0:0:0:
215,173,311896,1,0,0:0:0:0:
213,170,311982,1,0,0:0:0:0:
215,173,312067,1,8,0:0:0:0:
215,173,312152,1,0,0:0:0:0:
215,173,312237,1,8,0:0:0:0:
215,173,312322,1,8,0:0:0:0:
215,173,312408,1,0,0:0:0:0:
205,167,312493,1,8,0:0:0:0:
213,170,312578,1,0,0:0:0:0:
213,170,312663,1,8,0:0:0:0:
213,170,312749,1,0,0:0:0:0:
213,170,312834,1,0,0:0:0:0:
215,173,312919,1,8,0:0:0:0:
213,170,313004,1,0,0:0:0:0:
215,173,313090,1,8,0:0:0:0:
215,173,313175,1,8,0:0:0:0:
215,173,313260,1,8,0:0:0:0:
215,173,313345,1,0,0:0:0:0:
215,173,313430,1,8,0:0:0:0:
213,170,313516,1,8,0:0:0:0:
213,170,313601,1,0,0:0:0:0:
213,170,313686,1,0,0:0:0:0:
213,170,313771,1,8,0:0:0:0:
205,167,313856,1,0,0:0:0:0:
215,173,313942,1,0,0:0:0:0:
213,175,314027,1,0,0:0:0:0:
215,173,314112,1,8,0:0:0:0:
215,173,314197,1,0,0:0:0:0:
215,173,314283,1,8,0:0:0:0:
215,173,314368,1,8,0:0:0:0:
215,173,314453,1,0,0:0:0:0:
213,175,314538,1,0,0:0:0:0:
213,175,314624,1,8,0:0:0:0:
213,175,314709,1,0,0:0:0:0:
213,175,314794,1,8,0:0:0:0:
215,173,314879,1,8,0:0:0:0:
215,173,314965,1,0,0:0:0:0:
213,175,315050,1,0,0:0:0:0:
215,173,315135,1,8,0:0:0:0:
205,167,315220,1,0,0:0:0:0:
215,173,315305,1,8,0:0:0:0:
215,173,315391,1,8,0:0:0:0:
215,173,315476,1,8,0:0:0:0:
213,175,315561,1,0,0:0:0:0:
213,175,315646,1,8,0:0:0:0:
213,175,315732,1,0,0:0:0:0:
213,175,315817,1,8,0:0:0:0:
215,173,315902,1,8,0:0:0:0:
215,173,315987,1,8,0:0:0:0:
213,175,316072,1,0,0:0:0:0:
215,173,316158,1,8,0:0:0:0:
215,173,316243,1,8,0:0:0:0:
215,173,316328,1,0,0:0:0:0:
215,173,316413,1,0,0:0:0:0:
215,173,316499,1,12,0:0:0:0:
204,174,316669,1,8,0:0:0:0:
204,174,316754,1,0,0:0:0:0:
204,174,316839,1,8,0:0:0:0:
204,174,316924,1,8,0:0:0:0:
204,174,317010,1,0,0:0:0:0:
204,174,317095,1,8,0:0:0:0:
204,174,317180,1,0,0:0:0:0:
204,174,317265,1,8,0:0:0:0:
204,174,317351,1,0,0:0:0:0:
204,174,317436,1,0,0:0:0:0:
204,174,317521,1,8,0:0:0:0:
193,174,317606,1,0,0:0:0:0:
193,174,317691,1,8,0:0:0:0:
193,174,317777,1,8,0:0:0:0:
193,174,317862,1,0,0:0:0:0:
205,167,317947,1,8,0:0:0:0:
193,174,318032,1,0,0:0:0:0:
193,174,318118,1,0,0:0:0:0:
193,174,318203,1,8,0:0:0:0:
193,174,318288,1,8,0:0:0:0:
193,174,318373,1,0,0:0:0:0:
193,174,318458,1,0,0:0:0:0:
193,174,318544,1,8,0:0:0:0:
193,174,318629,1,0,0:0:0:0:
193,174,318714,1,8,0:0:0:0:
193,174,318799,1,8,0:0:0:0:
193,174,318885,1,0,0:0:0:0:
184,176,318970,1,8,0:0:0:0:
186,175,319055,1,0,0:0:0:0:
186,175,319140,1,0,0:0:0:0:
186,175,319226,1,8,0:0:0:0:
205,167,319311,1,0,0:0:0:0:
221,185,319396,1,8,0:0:0:0:
221,185,319481,1,0,0:0:0:0:
221,185,319566,1,0,0:0:0:0:
221,185,319652,1,0,0:0:0:0:
221,185,319737,1,8,0:0:0:0:
221,185,319822,1,0,0:0:0:0:
221,185,319907,1,8,0:0:0:0:
221,185,319993,1,8,0:0:0:0:
221,185,320078,1,0,0:0:0:0:
221,185,320163,1,0,0:0:0:0:
221,185,320248,1,8,0:0:0:0:
221,185,320333,1,0,0:0:0:0:
221,185,320419,1,8,0:0:0:0:
221,185,320504,1,8,0:0:0:0:
221,185,320589,1,0,0:0:0:0:
205,167,320674,1,8,0:0:0:0:
221,185,320760,1,0,0:0:0:0:
221,185,320845,1,8,0:0:0:0:
221,185,320930,1,8,0:0:0:0:
221,185,321015,1,8,0:0:0:0:
221,185,321101,1,0,0:0:0:0:
221,185,321186,1,8,0:0:0:0:
221,185,321271,1,0,0:0:0:0:
221,185,321356,1,8,0:0:0:0:
221,185,321441,1,8,0:0:0:0:
221,185,321527,1,0,0:0:0:0:
221,185,321612,1,0,0:0:0:0:
221,185,321697,1,8,0:0:0:0:
221,185,321782,1,8,0:0:0:0:
221,185,321868,1,0,0:0:0:0:
221,185,321953,1,12,0:0:0:0:
221,185,322123,1,8,0:0:0:0:
221,185,322208,1,8,0:0:0:0:
221,185,322294,1,0,0:0:0:0:
221,185,322379,1,8,0:0:0:0:
221,185,322464,1,0,0:0:0:0:
221,185,322549,1,0,0:0:0:0:
221,185,322635,1,8,0:0:0:0:
221,185,322720,1,0,0:0:0:0:
221,185,322805,1,8,0:0:0:0:
221,185,322890,1,8,0:0:0:0:
221,185,322976,1,0,0:0:0:0:
221,185,323061,1,0,0:0:0:0:
221,185,323146,1,8,0:0:0:0:
221,185,323231,1,0,0:0:0:0:
221,185,323316,1,8,0:0:0:0:
205,167,323402,1,0,0:0:0:0:
221,185,323487,1,0,0:0:0:0:
221,185,323572,1,8,0:0:0:0:
221,185,323657,1,0,0:0:0:0:
221,185,323743,1,0,0:0:0:0:
221,185,323828,1,8,0:0:0:0:
221,185,323913,1,0,0:0:0:0:
221,185,323998,1,8,0:0:0:0:
221,185,324083,1,8,0:0:0:0:
221,185,324169,1,0,0:0:0:0:
221,185,324254,1,0,0:0:0:0:
221,185,324339,1,8,0:0:0:0:
221,185,324424,1,0,0:0:0:0:
221,185,324510,1,0,0:0:0:0:
221,185,324595,1,0,0:0:0:0:
221,185,324680,1,8,0:0:0:0:
205,167,324765,1,8,0:0:0:0:
221,185,324851,1,0,0:0:0:0:
221,185,324936,1,8,0:0:0:0:
221,185,325021,1,0,0:0:0:0:
221,185,325106,1,0,0:0:0:0:
221,185,325191,1,8,0:0:0:0:
221,185,325277,1,0,0:0:0:0:
221,185,325362,1,8,0:0:0:0:
221,185,325447,1,8,0:0:0:0:
221,185,325532,1,0,0:0:0:0:
221,185,325618,1,0,0:0:0:0:
205,167,325703,1,8,0:0:0:0:
205,167,325788,1,8,0:0:0:0:
221,185,325873,1,8,0:0:0:0:
221,185,325958,1,0,0:0:0:0:
221,185,326044,1,8,0:0:0:0:
205,167,326129,1,0,0:0:0:0:
221,185,326214,5,0,0:0:0:0:
221,185,326299,1,0,0:0:0:0:
221,185,326385,1,8,0:0:0:0:
221,185,326470,1,8,0:0:0:0:
221,185,326555,1,0,0:0:0:0:
221,185,326640,1,0,0:0:0:0:
221,185,326726,1,8,0:0:0:0:
221,185,326811,1,0,0:0:0:0:
221,185,326896,1,8,0:0:0:0:
221,185,326981,1,8,0:0:0:0:
242,192,327407,5,4,0:0:0:0:
242,192,327578,1,8,0:0:0:0:
242,192,327663,1,0,0:0:0:0:
242,192,327748,1,8,0:0:0:0:
242,192,327791,1,8,0:0:0:0:
242,192,327833,1,0,0:0:0:0:
242,192,327919,1,8,0:0:0:0:
242,192,328004,1,0,0:0:0:0:
242,192,328089,1,0,0:0:0:0:
242,192,328174,1,0,0:0:0:0:
242,192,328260,1,8,0:0:0:0:
242,192,328345,1,0,0:0:0:0:
242,192,328430,1,8,0:0:0:0:
242,192,328473,1,0,0:0:0:0:
242,192,328515,1,0,0:0:0:0:
242,192,328601,1,8,0:0:0:0:
252,188,328686,1,8,0:0:0:0:
252,188,328771,1,0,0:0:0:0:
246,207,328941,1,0,0:0:0:0:
246,207,329027,1,0,0:0:0:0:
246,207,329112,1,8,0:0:0:0:
246,207,329154,1,8,0:0:0:0:
246,207,329197,1,0,0:0:0:0:
262,199,329282,1,8,0:0:0:0:
262,199,329339,1,8,0:0:0:0:
262,199,329396,1,8,0:0:0:0:
262,199,329453,1,0,0:0:0:0:
262,199,329538,1,0,0:0:0:0:
262,199,329623,1,8,0:0:0:0:
262,199,329708,1,0,0:0:0:0:
262,199,329794,1,8,0:0:0:0:
262,199,329836,1,0,0:0:0:0:
261,199,329879,1,0,0:0:0:0:
242,197,329964,1,8,0:0:0:0:
228,197,330135,1,4,0:0:0:0:
262,199,330476,1,8,0:0:0:0:
262,199,330518,1,8,0:0:0:0:
262,199,330561,1,0,0:0:0:0:
262,199,330646,1,8,0:0:0:0:
262,199,330731,1,8,0:0:0:0:
262,199,330816,1,0,0:0:0:0:
261,199,330902,1,8,0:0:0:0:
263,201,330987,1,0,0:0:0:0:
262,199,331072,1,0,0:0:0:0:
262,199,331157,1,8,0:0:0:0:
262,199,331200,1,0,0:0:0:0:
262,199,331243,1,0,0:0:0:0:
262,199,331328,1,8,0:0:0:0:
262,199,331413,1,8,0:0:0:0:
262,199,331498,1,0,0:0:0:0:
262,199,331583,1,0,0:0:0:0:
262,199,331669,1,0,0:0:0:0:
262,199,331839,1,8,0:0:0:0:
261,199,331882,1,8,0:0:0:0:
261,199,331924,1,0,0:0:0:0:
263,201,332010,1,0,0:0:0:0:
262,199,332095,1,8,0:0:0:0:
262,199,332180,1,0,0:0:0:0:
262,199,332265,1,0,0:0:0:0:
262,199,332351,1,8,0:0:0:0:
262,199,332436,1,0,0:0:0:0:
262,199,332521,1,8,0:0:0:0:
262,199,332564,1,0,0:0:0:0:
262,199,332606,1,0,0:0:0:0:
262,199,332691,1,8,0:0:0:0:
262,199,332862,1,8,0:0:0:0:
261,199,332919,1,8,0:0:0:0:
257,198,332976,1,0,0:0:0:0:
257,198,333032,1,8,0:0:0:0:
262,199,333089,1,0,0:0:0:0:
262,199,333146,1,0,0:0:0:0:
262,199,333203,1,8,0:0:0:0:
253,204,333245,1,8,0:0:0:0:
253,204,333288,1,0,0:0:0:0:
249,204,333373,1,0,0:0:0:0:
250,204,333458,1,8,0:0:0:0:
250,204,333544,1,0,0:0:0:0:
250,204,333629,1,0,0:0:0:0:
250,204,333714,1,8,0:0:0:0:
250,204,333799,1,0,0:0:0:0:
250,204,333885,1,8,0:0:0:0:
250,204,333927,1,0,0:0:0:0:
250,204,333970,1,0,0:0:0:0:
263,216,334055,1,8,0:0:0:0:
263,216,334140,1,8,0:0:0:0:
263,216,334226,1,0,0:0:0:0:
263,216,334268,1,0,0:0:0:0:
263,216,334396,1,0,0:0:0:0:
263,216,334566,1,8,0:0:0:0:
263,216,334609,1,8,0:0:0:0:
263,216,334652,1,0,0:0:0:0:
259,209,334737,1,8,0:0:0:0:
259,209,334794,1,0,0:0:0:0:
259,209,334851,1,0,0:0:0:0:
259,209,334907,1,8,0:0:0:0:
259,209,334993,1,8,0:0:0:0:
259,209,335078,1,0,0:0:0:0:
251,218,335163,1,0,0:0:0:0:
252,218,335248,1,8,0:0:0:0:
252,218,335291,1,0,0:0:0:0:
252,218,335333,1,0,0:0:0:0:
252,218,335419,1,8,0:0:0:0:
252,218,335504,1,8,0:0:0:0:
252,218,335589,1,0,0:0:0:0:
249,207,335760,1,0,0:0:0:0:
249,207,335930,1,8,0:0:0:0:
249,207,335973,1,8,0:0:0:0:
249,207,336015,1,0,0:0:0:0:
249,207,336101,1,8,0:0:0:0:
249,207,336157,1,8,0:0:0:0:
237,208,336214,1,8,0:0:0:0:
238,208,336271,1,0,0:0:0:0:
236,198,336356,1,0,0:0:0:0:
236,198,336441,1,8,0:0:0:0:
249,207,336527,1,0,0:0:0:0:
249,207,336612,1,8,0:0:0:0:
249,207,336654,1,0,0:0:0:0:
249,207,336697,1,0,0:0:0:0:
251,201,336782,1,8,0:0:0:0:
251,201,336839,1,8,0:0:0:0:
251,201,336896,1,0,0:0:0:0:
251,201,336953,1,0,0:0:0:0:
241,200,337123,1,8,0:0:0:0:
241,200,337208,1,0,0:0:0:0:
241,200,337294,1,8,0:0:0:0:
243,190,337336,1,0,0:0:0:0:
241,200,337379,1,0,0:0:0:0:
251,199,337464,1,8,0:0:0:0:
248,199,337549,1,8,0:0:0:0:
248,199,337635,1,0,0:0:0:0:
248,198,337720,1,0,0:0:0:0:
251,201,337805,1,8,0:0:0:0:
251,201,337890,1,0,0:0:0:0:
251,201,337976,1,8,0:0:0:0:
248,198,338018,1,8,0:0:0:0:
248,198,338061,1,0,0:0:0:0:
251,187,338146,1,0,0:0:0:0:
251,187,338231,1,0,0:0:0:0:
251,187,338316,1,12,0:0:0:0:
249,188,338487,1,0,0:0:0:0:
249,188,338572,1,0,0:0:0:0:
249,188,338657,1,8,0:0:0:0:
249,188,338700,1,8,0:0:0:0:
249,188,338743,1,8,0:0:0:0:
249,188,338828,1,0,0:0:0:0:
249,188,338913,1,8,0:0:0:0:
249,188,338998,1,0,0:0:0:0:
253,185,339083,1,0,0:0:0:0:
251,187,339169,1,8,0:0:0:0:
251,187,339254,1,0,0:0:0:0:
251,187,339339,1,8,0:0:0:0:
249,188,339382,1,8,0:0:0:0:
249,188,339424,1,0,0:0:0:0:
235,185,339510,1,8,0:0:0:0:
234,185,339595,1,8,0:0:0:0:
234,185,339680,1,0,0:0:0:0:
234,185,339851,1,0,0:0:0:0:
234,185,339936,1,0,0:0:0:0:
234,185,340022,1,8,0:0:0:0:
234,185,340064,1,8,0:0:0:0:
234,185,340106,1,0,0:0:0:0:
238,192,340191,1,8,0:0:0:0:
238,192,340248,1,0,0:0:0:0:
238,192,340305,1,0,0:0:0:0:
238,192,340362,1,0,0:0:0:0:
238,192,340447,1,8,0:0:0:0:
238,192,340532,1,0,0:0:0:0:
238,192,340618,1,0,0:0:0:0:
238,192,340703,1,8,0:0:0:0:
238,192,340745,1,0,0:0:0:0:
238,192,340788,1,0,0:0:0:0:
247,183,340873,1,8,0:0:0:0:
243,186,340958,1,8,0:0:0:0:
243,186,341044,1,0,0:0:0:0:
229,183,341214,1,0,0:0:0:0:
229,183,341299,1,0,0:0:0:0:
229,183,341385,1,8,0:0:0:0:
229,183,341427,1,8,0:0:0:0:
229,183,341470,1,8,0:0:0:0:
229,183,341555,1,0,0:0:0:0:
229,183,341640,1,0,0:0:0:0:
229,183,341726,1,8,0:0:0:0:
229,183,341811,1,0,0:0:0:0:
229,183,341896,1,8,0:0:0:0:
229,183,341981,1,0,0:0:0:0:
229,183,342066,1,8,0:0:0:0:
229,183,342109,1,0,0:0:0:0:
229,183,342152,1,0,0:0:0:0:
229,183,342237,1,8,0:0:0:0:
229,183,342407,1,0,0:0:0:0:
229,183,342493,1,8,0:0:0:0:
229,183,342578,1,0,0:0:0:0:
229,183,342635,1,0,0:0:0:0:
229,183,342691,1,0,0:0:0:0:
229,183,342748,1,8,0:0:0:0:
229,183,342833,1,8,0:0:0:0:
234,186,342919,1,0,0:0:0:0:
234,186,343004,1,8,0:0:0:0:
234,186,343089,1,8,0:0:0:0:
234,186,343174,1,0,0:0:0:0:
234,186,343260,1,8,0:0:0:0:
229,183,343345,1,0,0:0:0:0:
234,186,343431,1,8,0:0:0:0:
234,186,343473,1,0,0:0:0:0:
234,186,343516,1,0,0:0:0:0:
222,188,343601,1,8,0:0:0:0:
222,188,343686,1,0,0:0:0:0:
222,188,343771,1,8,0:0:0:0:
237,179,343941,1,0,0:0:0:0:
237,179,344027,1,0,0:0:0:0:
237,179,344112,1,8,0:0:0:0:
237,179,344154,1,8,0:0:0:0:
237,179,344197,1,0,0:0:0:0:
237,179,344282,1,8,0:0:0:0:
237,179,344368,1,8,0:0:0:0:
237,179,344538,1,8,0:0:0:0:
237,179,344623,1,0,0:0:0:0:
237,179,344708,1,0,0:0:0:0:
237,179,344794,1,8,0:0:0:0:
237,179,344836,1,0,0:0:0:0:
237,179,344879,1,0,0:0:0:0:
237,179,344964,1,8,0:0:0:0:
237,179,345135,1,0,0:0:0:0:
237,179,345220,1,0,0:0:0:0:
237,179,345305,1,0,0:0:0:0:
237,179,345476,1,8,0:0:0:0:
237,179,345518,1,8,0:0:0:0:
237,179,345561,1,0,0:0:0:0:
237,179,345646,1,8,0:0:0:0:
237,179,345731,1,0,0:0:0:0:
237,179,345816,1,8,0:0:0:0:
237,179,345902,1,8,0:0:0:0:
237,179,345987,1,0,0:0:0:0:
237,179,346157,1,8,0:0:0:0:
237,179,346200,1,0,0:0:0:0:
237,179,346243,1,0,0:0:0:0:
231,175,346328,1,8,0:0:0:0:
231,175,346413,1,8,0:0:0:0:
231,175,346498,1,0,0:0:0:0:
231,175,346754,1,0,0:0:0:0:
231,175,346839,1,8,0:0:0:0:
231,175,346882,1,8,0:0:0:0:
231,175,346924,1,0,0:0:0:0:
231,175,347010,1,8,0:0:0:0:
231,175,347095,1,0,0:0:0:0:
231,175,347265,1,8,0:0:0:0:
231,175,347351,1,0,0:0:0:0:
231,175,347436,1,0,0:0:0:0:
231,175,347521,1,8,0:0:0:0:
231,175,347564,1,0,0:0:0:0:
231,175,347606,1,0,0:0:0:0:
231,175,347691,5,8,0:0:0:0:
231,175,347862,1,0,0:0:0:0:
231,175,348032,1,0,0:0:0:0:
231,175,348118,1,0,0:0:0:0:
231,175,348203,1,8,0:0:0:0:
231,175,348245,1,8,0:0:0:0:
231,175,348288,1,0,0:0:0:0:
231,175,348458,1,8,0:0:0:0:
231,175,348544,1,0,0:0:0:0:
231,175,348629,1,8,0:0:0:0:
231,175,348714,1,8,0:0:0:0:
231,175,348799,1,0,0:0:0:0:
243,182,348885,5,8,0:0:0:0:
243,182,348970,1,8,0:0:0:0:
243,182,349055,1,8,0:0:0:0:
243,182,349140,1,8,0:0:0:0:
243,182,349225,1,4,0:0:0:0:
243,182,349566,1,8,0:0:0:0:
243,182,349737,1,0,0:0:0:0:
243,182,350078,1,8,0:0:0:0:
243,182,350419,1,0,0:0:0:0:
243,182,350760,1,0,0:0:0:0:
243,182,350845,1,0,0:0:0:0:
243,182,350930,1,0,0:0:0:0:
213,176,351101,1,8,0:0:0:0:
220,174,351186,1,0,0:0:0:0:
220,174,351271,1,8,0:0:0:0:
221,177,351441,1,8,0:0:0:0:
221,177,351612,1,8,0:0:0:0:
197,175,351782,1,0,0:0:0:0:
197,167,351953,1,8,0:0:0:0:
196,175,352123,1,8,0:0:0:0:
220,174,352208,1,8,0:0:0:0:
196,175,352294,1,0,0:0:0:0:
201,167,352464,1,8,0:0:0:0:
201,167,352635,1,0,0:0:0:0:
201,167,352805,1,0,0:0:0:0:
196,175,352976,1,8,0:0:0:0:
212,174,353061,1,0,0:0:0:0:
196,175,353146,1,0,0:0:0:0:
197,175,353316,1,0,0:0:0:0:
197,175,353487,1,8,0:0:0:0:
199,172,353572,1,8,0:0:0:0:
196,175,353657,1,0,0:0:0:0:
186,170,353828,1,0,0:0:0:0:
196,175,353998,1,0,0:0:0:0:
183,171,354169,1,8,0:0:0:0:
183,171,354254,1,0,0:0:0:0:
183,171,354339,1,8,0:0:0:0:
197,175,354510,1,8,0:0:0:0:
197,175,354681,1,0,0:0:0:0:
191,180,354851,1,0,0:0:0:0:
191,180,355021,1,8,0:0:0:0:
191,180,355191,1,0,0:0:0:0:
192,176,355362,1,0,0:0:0:0:
197,175,355532,1,0,0:0:0:0:
197,175,355703,1,8,0:0:0:0:
191,180,355788,1,8,0:0:0:0:
191,180,355873,1,0,0:0:0:0:
191,180,356044,1,8,0:0:0:0:
191,180,356214,1,0,0:0:0:0:
192,176,356385,1,8,0:0:0:0:
197,175,356555,1,8,0:0:0:0:
197,175,356640,1,0,0:0:0:0:
197,175,356726,1,0,0:0:0:0:
191,180,356896,1,8,0:0:0:0:
191,180,357066,1,0,0:0:0:0:
192,176,357237,1,8,0:0:0:0:
192,176,357322,1,0,0:0:0:0:
192,176,357407,1,8,0:0:0:0:
191,176,357578,1,8,0:0:0:0:
191,176,357663,1,8,0:0:0:0:
191,176,357748,1,0,0:0:0:0:
191,180,357919,1,0,0:0:0:0:
191,180,358089,1,0,0:0:0:0:
192,176,358260,1,8,0:0:0:0:
191,176,358430,1,0,0:0:0:0:
196,170,358515,1,0,0:0:0:0:
196,170,358601,1,0,0:0:0:0:
192,171,358771,1,0,0:0:0:0:
192,171,358941,1,8,0:0:0:0:
192,171,359112,1,0,0:0:0:0:
192,171,359282,1,8,0:0:0:0:
192,171,359453,1,0,0:0:0:0:
196,170,359623,1,8,0:0:0:0:
192,171,359708,1,8,0:0:0:0:
192,171,359794,1,0,0:0:0:0:
192,171,359964,1,8,0:0:0:0:
221,173,360132,5,0,0:0:0:0:
221,173,360307,1,8,0:0:0:0:
216,182,360482,1,8,0:0:0:0:
216,182,360658,1,0,0:0:0:0:
216,182,360833,1,0,0:0:0:0:
216,182,361009,1,8,0:0:0:0:
216,182,361184,1,0,0:0:0:0:
216,182,361360,1,0,0:0:0:0:
216,182,361535,1,8,0:0:0:0:
216,182,361715,1,8,0:0:0:0:
194,172,361806,1,8,0:0:0:0:
216,182,361896,1,0,0:0:0:0:
216,182,362077,1,8,0:0:0:0:
216,182,362257,1,0,0:0:0:0:
216,182,362444,1,8,0:0:0:0:
216,182,362632,1,0,0:0:0:0:
216,182,362819,1,0,0:0:0:0:
216,182,363007,1,8,0:0:0:0:
205,178,363199,1,0,0:0:0:0:
205,178,363295,1,0,0:0:0:0:
205,178,363391,1,0,0:0:0:0:
205,178,363583,1,0,0:0:0:0:
205,178,363776,1,8,0:0:0:0:
224,182,363976,1,0,0:0:0:0:
224,182,364176,1,8,0:0:0:0:
223,182,364376,1,8,0:0:0:0:
223,182,364576,1,0,0:0:0:0:
223,182,364781,1,0,0:0:0:0:
224,182,364884,1,0,0:0:0:0:
224,182,364986,1,8,0:0:0:0:
224,182,365192,1,8,0:0:0:0:
223,182,365397,1,0,0:0:0:0:
223,182,365611,1,8,0:0:0:0:
223,182,365825,1,0,0:0:0:0:
224,182,366039,1,0,0:0:0:0:
224,182,366254,1,8,0:0:0:0:
223,182,366477,1,0,0:0:0:0:
223,182,366701,1,8,0:0:0:0:
224,182,366925,1,0,0:0:0:0:
224,182,367149,1,0,0:0:0:0:
228,183,367379,1,0,0:0:0:0:
228,183,367610,1,8,0:0:0:0:
228,183,367841,1,0,0:0:0:0:
228,183,368072,1,0,0:0:0:0:
228,183,368310,1,8,0:0:0:0:
228,183,368548,1,0,0:0:0:0:
240,168,368778,1,8,0:0:0:0:
239,169,369009,1,8,0:0:0:0:
236,169,369240,1,0,0:0:0:0:
235,169,369355,1,0,0:0:0:0:
235,169,369471,1,8,0:0:0:0:
235,169,369703,1,8,0:0:0:0:
239,169,369936,1,8,0:0:0:0:
236,169,370172,1,8,0:0:0:0:
235,169,370408,1,0,0:0:0:0:
235,169,370648,1,8,0:0:0:0:
232,169,370888,1,0,0:0:0:0:
236,169,371122,1,0,0:0:0:0:
235,169,371356,1,8,0:0:0:0:
230,169,371591,1,8,0:0:0:0:
232,169,371825,1,0,0:0:0:0:
229,170,372059,1,8,0:0:0:0:
229,170,372294,1,0,0:0:0:0:
230,169,372528,1,8,0:0:0:0:
232,169,372762,1,0,0:0:0:0:
229,170,372997,1,8,0:0:0:0:
222,169,373231,1,0,0:0:0:0:
230,169,373465,1,8,0:0:0:0:
256,192,376044,12,0,379325,0:0:0:0:
